找回密码

查看: 1041|回复: 0

[UHD.HEVC] 活死人黎明 Dawn.Of.The.Dead.1978.THEATRICAL.CUT.2160p.BluRay.REMUX.HEVC.DTS-HD.MA.5.1-FGT 57.42GB

[复制链接]
蓝光币
1840
发表于 2020-11-30 09:25:25 | 显示全部楼层 |阅读模式


◎译  名 活死人拂晓/George A. Romero's Dawn of the Dead/Zombie: Dawn of the Dead/Zombies/僵尸的拂晓/灭亡拂晓/生人勿近
◎片  名 Dawn of the Dead
◎年  代 1978
◎产  地 意大利,美国
◎类  别 行动 / 可骇
◎语  言 英语
◎上映日期 1978-09-02
◎IMDb评分  7.9/10 from 110739 users
◎IMDb链接  https://www.imdb.com/title/tt0077402/
◎豆瓣评分 7.3/10 from 7361 users
◎豆瓣链接 https://movie.douban.com/subject/1295578/
◎片  长 126 分钟
◎导  演 乔治·A·罗梅罗 George A. Romero
◎编  剧 乔治·A·罗梅罗 George A. Romero
◎主  演 肯·佛瑞 Ken Foree
       斯科特·H·雷宁格 Scott H. Reiniger
       盖伦·罗斯 Gaylen Ross
       本·巴伦霍兹 Ben Barenholtz
       乔治·A·罗梅罗 George A. Romero
       霍华德·史姑娘 Howard Smith
       Maxine Lapiduss
       约翰·哈里森 John Harrison
       帕斯奎尔·布巴 Pasquale Buba
       托尼·布巴 Tony Buba
◎标  签 美国 | 可骇 | 僵尸 | 丧尸 | 惊悚 | Cult | George.A.Romero | 美国电影
◎简  介


  死去活来的嗜血僵尸如瘟疫般敏捷占据全城,全部城市在一夜之间成为僵尸之城。为了躲避僵尸的进犯,两个特种军队差人和一个交通记者以及他的女友,逃到了一个荒废的大型购物中心里。这四小我斯蒂芬(大卫·艾梅治 David Emge 饰)、彼得(肯·弗里 Ken Foree 饰)、罗杰(斯科特·H·雷宁格 Scott H. Reiniger 饰)以及法兰妮(盖伦·罗丝 Gaylen Ross 饰)使尽满身解数武装自己,尽一切能够抵抗凶残僵尸的攻击。但是他们的抵抗却不敌越来越多的僵尸,好景不长,僵尸蜂拥而至。落井下石的是,一大群车手也发现了这个出亡所。四人不单要躲避疯狂的僵尸,还要同凶残的劫匪匹敌。
  
  损失电影教父乔治·A·罗梅罗继1968年景功推出《活死人之夜》后,再次打造本部典范可骇片《活死人拂晓》,成为僵尸三部曲中盈利最多的一部。
  1. Video
  2. ID                                       : 1
  3. ID in the original source medium         : 4113 (0x1011)
  4. Format                                   : HEVC
  5. Format/Info                              : High Efficiency Video Coding
  6. Format profile                           : Main [email protected]@High
  7. HDR format                               : SMPTE ST 2094 App 4, Version 1, HDR10+ Profile B compatible
  8. Codec ID                                 : V_MPEGH/ISO/HEVC
  9. Duration                                 : 2 h 7 min
  10. Bit rate                                 : 59.5 Mb/s
  11. Width                                    : 3 840 pixels
  12. Height                                   : 2 160 pixels
  13. Display aspect ratio                     : 16:9
  14. Frame rate mode                          : Constant
  15. Frame rate                               : 23.976 (24000/1001/189150) FPS
  16. Color space                              : YUV
  17. Chroma subsampling                       : 4:2:0 (Type 2)
  18. Bit depth                                : 10 bits
  19. Bits/(Pixel*Frame)                       : 0.299
  20. Stream size                              : 52.9 GiB (92%)
  21. Title                                    : Dawn.Of.The.Dead.1978.THEATRICAL.CUT.2160p.BluRay.REMUX.HEVC.DTS-HD.MA.5.1-FGT
  22. Language                                 : English
  23. Default                                  : No
  24. Forced                                   : No
  25. Color range                              : Limited
  26. Color primaries                          : BT.2020
  27. Transfer characteristics                 : PQ
  28. Matrix coefficients                      : BT.2020 non-constant
  29. Mastering display color primaries        : BT.2020
  30. Mastering display luminance              : min: 0.0001 cd/m2, max: 1000 cd/m2
  31. Maximum Content Light Level              : 1000 cd/m2
  32. Maximum Frame-Average Light Level        : 400 cd/m2
  33. Original source medium                   : Blu-ray

  34. Audio #1
  35. ID                                       : 2
  36. ID in the original source medium         : 4354 (0x1102)
  37. Format                                   : DTS XLL
  38. Format/Info                              : Digital Theater Systems
  39. Commercial name                          : DTS-HD Master Audio
  40. Codec ID                                 : A_DTS
  41. Duration                                 : 2 h 7 min
  42. Bit rate mode                            : Variable
  43. Bit rate                                 : 1 830 kb/s
  44. Channel(s)                               : 6 channels
  45. Channel layout                           : C L R Ls Rs LFE
  46. Sampling rate                            : 48.0 kHz
  47. Frame rate                               : 93.750 FPS (512 SPF)
  48. Bit depth                                : 16 bits
  49. Compression mode                         : Lossless
  50. Stream size                              : 1.62 GiB (3%)
  51. Title                                    : Dawn.Of.The.Dead.1978.THEATRICAL.CUT.2160p.BluRay.REMUX.HEVC.DTS-HD.MA.5.1-FGT
  52. Language                                 : English
  53. Default                                  : Yes
  54. Forced                                   : No
  55. Original source medium                   : Blu-ray

  56. Audio #2
  57. ID                                       : 3
  58. ID in the original source medium         : 4352 (0x1100)
  59. Format                                   : DTS XLL
  60. Format/Info                              : Digital Theater Systems
  61. Commercial name                          : DTS-HD Master Audio
  62. Codec ID                                 : A_DTS
  63. Duration                                 : 2 h 7 min
  64. Bit rate mode                            : Variable
  65. Bit rate                                 : 1 123 kb/s
  66. Channel(s)                               : 1 channel
  67. Channel layout                           : C
  68. Sampling rate                            : 48.0 kHz
  69. Frame rate                               : 93.750 FPS (512 SPF)
  70. Bit depth                                : 24 bits
  71. Compression mode                         : Lossless
  72. Stream size                              : 1 021 MiB (2%)
  73. Title                                    : Dawn.Of.The.Dead.1978.THEATRICAL.CUT.2160p.BluRay.REMUX.HEVC.DTS-HD.MA.5.1-FGT
  74. Language                                 : English
  75. Default                                  : No
  76. Forced                                   : No
  77. Original source medium                   : Blu-ray

  78. Audio #3
  79. ID                                       : 4
  80. ID in the original source medium         : 4353 (0x1101)
  81. Format                                   : DTS XLL
  82. Format/Info                              : Digital Theater Systems
  83. Commercial name                          : DTS-HD Master Audio
  84. Codec ID                                 : A_DTS
  85. Duration                                 : 2 h 7 min
  86. Bit rate mode                            : Variable
  87. Bit rate                                 : 1 762 kb/s
  88. Channel(s)                               : 2 channels
  89. Channel layout                           : L R
  90. Sampling rate                            : 48.0 kHz
  91. Frame rate                               : 93.750 FPS (512 SPF)
  92. Bit depth                                : 24 bits
  93. Compression mode                         : Lossless
  94. Stream size                              : 1.56 GiB (3%)
  95. Title                                    : Dawn.Of.The.Dead.1978.THEATRICAL.CUT.2160p.BluRay.REMUX.HEVC.DTS-HD.MA.5.1-FGT
  96. Language                                 : English
  97. Default                                  : No
  98. Forced                                   : No
  99. Original source medium                   : Blu-ray

  100. Audio #4
  101. ID                                       : 5
  102. ID in the original source medium         : 4355 (0x1103)
  103. Format                                   : AC-3
  104. Format/Info                              : Audio Coding 3
  105. Commercial name                          : Dolby Digital
  106. Codec ID                                 : A_AC3
  107. Duration                                 : 2 h 7 min
  108. Bit rate mode                            : Constant
  109. Bit rate                                 : 192 kb/s
  110. Channel(s)                               : 2 channels
  111. Channel layout                           : L R
  112. Sampling rate                            : 48.0 kHz
  113. Frame rate                               : 31.250 FPS (1536 SPF)
  114. Compression mode                         : Lossy
  115. Stream size                              : 175 MiB (0%)
  116. Title                                    : Dawn.Of.The.Dead.1978.THEATRICAL.CUT.2160p.BluRay.REMUX.HEVC.DTS-HD.MA.5.1-FGT
  117. Language                                 : English
  118. Service kind                             : Complete Main
  119. Default                                  : No
  120. Forced                                   : No
  121. Original source medium                   : Blu-ray

  122. Audio #5
  123. ID                                       : 6
  124. ID in the original source medium         : 4356 (0x1104)
  125. Format                                   : AC-3
  126. Format/Info                              : Audio Coding 3
  127. Commercial name                          : Dolby Digital
  128. Codec ID                                 : A_AC3
  129. Duration                                 : 2 h 7 min
  130. Bit rate mode                            : Constant
  131. Bit rate                                 : 192 kb/s
  132. Channel(s)                               : 2 channels
  133. Channel layout                           : L R
  134. Sampling rate                            : 48.0 kHz
  135. Frame rate                               : 31.250 FPS (1536 SPF)
  136. Compression mode                         : Lossy
  137. Stream size                              : 175 MiB (0%)
  138. Title                                    : Dawn.Of.The.Dead.1978.THEATRICAL.CUT.2160p.BluRay.REMUX.HEVC.DTS-HD.MA.5.1-FGT
  139. Language                                 : English
  140. Service kind                             : Complete Main
  141. Default                                  : No
  142. Forced                                   : No
  143. Original source medium                   : Blu-ray

  144. Text #1
  145. ID                                       : 7
  146. Format                                   : UTF-8
  147. Codec ID                                 : S_TEXT/UTF8
  148. Codec ID/Info                            : UTF-8 Plain Text
  149. Duration                                 : 2 h 4 min
  150. Bit rate                                 : 35 b/s
  151. Count of elements                        : 1022
  152. Stream size                              : 32.4 KiB (0%)
  153. Title                                    : English-SRT
  154. Language                                 : English
  155. Default                                  : Yes
  156. Forced                                   : No

  157. Text #2
  158. ID                                       : 8
  159. ID in the original source medium         : 4768 (0x12A0)
  160. Format                                   : PGS
  161. Muxing mode                              : zlib
  162. Codec ID                                 : S_HDMV/PGS
  163. Codec ID/Info                            : Picture based subtitle format used on BDs/HD-DVDs
  164. Duration                                 : 2 h 6 min
  165. Bit rate                                 : 27.0 kb/s
  166. Count of elements                        : 2624
  167. Stream size                              : 24.4 MiB (0%)
  168. Title                                    : English-PGS
  169. Language                                 : English
  170. Default                                  : No
  171. Forced                                   : No
  172. Original source medium                   : Blu-ray

  173. Menu
  174. 00:00:00.000                             : en:Chapter 01
  175. 00:11:07.583                             : en:Chapter 02
  176. 00:20:52.834                             : en:Chapter 03
  177. 00:29:41.488                             : en:Chapter 04
  178. 00:42:25.751                             : en:Chapter 05
  179. 00:54:59.296                             : en:Chapter 06
  180. 01:09:41.844                             : en:Chapter 07
  181. 01:18:13.438                             : en:Chapter 08
  182. 01:26:01.322                             : en:Chapter 09
  183. 01:35:48.576                             : en:Chapter 10
  184. 01:43:17.566                             : en:Chapter 11
  185. 01:57:10.106                             : en:Chapter 12
复制代码



                                       
                                       

                                       
                                       
                                       




回复

使用道具 举报

懒得打字嘛,点击右侧快捷回复 【右侧内容,后台自定义】
您需要登录后才可以回帖 登录 | 立即加入

本版积分规则

Copyright © 2024 Comsenz Inc. Powered by 蓝光电影网

本站内容由用户自主分享和转载自互联网,转载目的在于传递更多信息,并不代表本网赞同其观点和对其真实性负责。

如有侵权、违反国家法律政策行为,请联系我们,我们会第一时间及时清除和处理!

举报反馈邮箱:4k1080.com@gmail.com

快速回复 返回顶部 返回列表