找回密码

蓝光电影网

查看: 909|回复: 0

[UHD.HEVC] 活死人黎明 Dawn.Of.The.Dead.1978.EXTENDED.2160p.BluRay.REMUX.HEVC.DTS-HD.MA.5.1-FGT 58.97GB

[复制链接]
蓝光币
1704
发表于 2020-11-29 09:39:46 | 显示全部楼层 |阅读模式


◎译  名 活死人拂晓/George A. Romero's Dawn of the Dead/Zombie: Dawn of the Dead/Zombies/僵尸的拂晓/灭亡拂晓/生人勿近
◎片  名 Dawn of the Dead
◎年  代 1978
◎产  地 意大利,美国
◎类  别 行动 / 可骇
◎语  言 英语
◎上映日期 1978-09-02
◎IMDb评分  7.9/10 from 110724 users
◎IMDb链接  https://www.imdb.com/title/tt0077402/
◎豆瓣评分 7.3/10 from 7359 users
◎豆瓣链接 https://movie.douban.com/subject/1295578/
◎片  长 126 分钟
◎导  演 乔治·A·罗梅罗 George A. Romero
◎编  剧 乔治·A·罗梅罗 George A. Romero
◎主  演 肯·佛瑞 Ken Foree
       斯科特·H·雷宁格 Scott H. Reiniger
       盖伦·罗斯 Gaylen Ross
       本·巴伦霍兹 Ben Barenholtz
       乔治·A·罗梅罗 George A. Romero
       霍华德·史姑娘 Howard Smith
       Maxine Lapiduss
       约翰·哈里森 John Harrison
       帕斯奎尔·布巴 Pasquale Buba
       托尼·布巴 Tony Buba
◎标  签 美国 | 可骇 | 僵尸 | 丧尸 | 惊悚 | Cult | George.A.Romero | 美国电影
◎简  介


  死去活来的嗜血僵尸如瘟疫般敏捷占据全城,全部城市在一夜之间成为僵尸之城。为了躲避僵尸的进犯,两个特种军队差人和一个交通记者以及他的女友,逃到了一个荒废的大型购物中心里。这四小我斯蒂芬(大卫·艾梅治 David Emge 饰)、彼得(肯·弗里 Ken Foree 饰)、罗杰(斯科特·H·雷宁格 Scott H. Reiniger 饰)以及法兰妮(盖伦·罗丝 Gaylen Ross 饰)使尽满身解数武装自己,尽一切能够抵抗凶残僵尸的攻击。但是他们的抵抗却不敌越来越多的僵尸,好景不长,僵尸蜂拥而至。落井下石的是,一大群车手也发现了这个出亡所。四人不单要躲避疯狂的僵尸,还要同凶残的劫匪匹敌。
  
  损失电影教父乔治·A·罗梅罗继1968年景功推出《活死人之夜》后,再次打造本部典范可骇片《活死人拂晓》,成为僵尸三部曲中盈利最多的一部。
  1. Video
  2. ID                                       : 1
  3. ID in the original source medium         : 4113 (0x1011)
  4. Format                                   : HEVC
  5. Format/Info                              : High Efficiency Video Coding
  6. Format profile                           : Main [email protected]@High
  7. HDR format                               : SMPTE ST 2094 App 4, Version 1, HDR10+ Profile B compatible
  8. Codec ID                                 : V_MPEGH/ISO/HEVC
  9. Duration                                 : 2 h 19 min
  10. Bit rate                                 : 56.5 Mb/s
  11. Width                                    : 3 840 pixels
  12. Height                                   : 2 160 pixels
  13. Display aspect ratio                     : 16:9
  14. Frame rate mode                          : Constant
  15. Frame rate                               : 23.976 (24000/1001/189150) FPS
  16. Color space                              : YUV
  17. Chroma subsampling                       : 4:2:0 (Type 2)
  18. Bit depth                                : 10 bits
  19. Bits/(Pixel*Frame)                       : 0.284
  20. Stream size                              : 55.0 GiB (93%)
  21. Title                                    : Dawn.Of.The.Dead.1978.EXTENDED.2160p.BluRay.REMUX.HEVC.DTS-HD.MA.5.1-FGT
  22. Language                                 : English
  23. Default                                  : No
  24. Forced                                   : No
  25. Color range                              : Limited
  26. Color primaries                          : BT.2020
  27. Transfer characteristics                 : PQ
  28. Matrix coefficients                      : BT.2020 non-constant
  29. Mastering display color primaries        : BT.2020
  30. Mastering display luminance              : min: 0.0001 cd/m2, max: 1000 cd/m2
  31. Maximum Content Light Level              : 1000 cd/m2
  32. Maximum Frame-Average Light Level        : 400 cd/m2
  33. Original source medium                   : Blu-ray
  34. Audio #1
  35. ID                                       : 2
  36. Format                                   : DTS XLL
  37. Format/Info                              : Digital Theater Systems
  38. Commercial name                          : DTS-HD Master Audio
  39. Codec ID                                 : A_DTS
  40. Duration                                 : 2 h 19 min
  41. Bit rate mode                            : Variable
  42. Bit rate                                 : 2 700 kb/s
  43. Channel(s)                               : 6 channels
  44. Channel layout                           : C L R Ls Rs LFE
  45. Sampling rate                            : 96.0 kHz
  46. Frame rate                               : 187.500 FPS (512 SPF)
  47. Bit depth                                : 16 bits
  48. Compression mode                         : Lossless
  49. Stream size                              : 2.63 GiB (4%)
  50. Title                                    : Dawn.Of.The.Dead.1978.EXTENDED.2160p.BluRay.REMUX.HEVC.DTS-HD.MA.5.1-FGT
  51. Language                                 : English
  52. Default                                  : Yes
  53. Forced                                   : No
  54. Audio #2
  55. ID                                       : 3
  56. ID in the original source medium         : 4352 (0x1100)
  57. Format                                   : DTS XLL
  58. Format/Info                              : Digital Theater Systems
  59. Commercial name                          : DTS-HD Master Audio
  60. Codec ID                                 : A_DTS
  61. Duration                                 : 2 h 19 min
  62. Bit rate mode                            : Variable
  63. Bit rate                                 : 1 123 kb/s
  64. Channel(s)                               : 1 channel
  65. Channel layout                           : C
  66. Sampling rate                            : 48.0 kHz
  67. Frame rate                               : 93.750 FPS (512 SPF)
  68. Bit depth                                : 24 bits
  69. Compression mode                         : Lossless
  70. Stream size                              : 1.10 GiB (2%)
  71. Title                                    : Dawn.Of.The.Dead.1978.EXTENDED.2160p.BluRay.REMUX.HEVC.DTS-HD.MA.5.1-FGT
  72. Language                                 : English
  73. Default                                  : No
  74. Forced                                   : No
  75. Original source medium                   : Blu-ray
  76. Audio #3
  77. ID                                       : 4
  78. ID in the original source medium         : 4353 (0x1101)
  79. Format                                   : AC-3
  80. Format/Info                              : Audio Coding 3
  81. Commercial name                          : Dolby Digital
  82. Codec ID                                 : A_AC3
  83. Duration                                 : 2 h 19 min
  84. Bit rate mode                            : Constant
  85. Bit rate                                 : 192 kb/s
  86. Channel(s)                               : 2 channels
  87. Channel layout                           : L R
  88. Sampling rate                            : 48.0 kHz
  89. Frame rate                               : 31.250 FPS (1536 SPF)
  90. Compression mode                         : Lossy
  91. Stream size                              : 192 MiB (0%)
  92. Title                                    : Dawn.Of.The.Dead.1978.EXTENDED.2160p.BluRay.REMUX.HEVC.DTS-HD.MA.5.1-FGT
  93. Language                                 : English
  94. Service kind                             : Complete Main
  95. Default                                  : No
  96. Forced                                   : No
  97. Original source medium                   : Blu-ray
  98. Text #1
  99. ID                                       : 5
  100. Format                                   : UTF-8
  101. Codec ID                                 : S_TEXT/UTF8
  102. Codec ID/Info                            : UTF-8 Plain Text
  103. Duration                                 : 2 h 16 min
  104. Bit rate                                 : 36 b/s
  105. Count of elements                        : 1133
  106. Stream size                              : 36.5 KiB (0%)
  107. Title                                    : English-SRT
  108. Language                                 : English
  109. Default                                  : Yes
  110. Forced                                   : No
  111. Text #2
  112. ID                                       : 6
  113. ID in the original source medium         : 4768 (0x12A0)
  114. Format                                   : PGS
  115. Muxing mode                              : zlib
  116. Codec ID                                 : S_HDMV/PGS
  117. Codec ID/Info                            : Picture based subtitle format used on BDs/HD-DVDs
  118. Duration                                 : 2 h 18 min
  119. Bit rate                                 : 27.2 kb/s
  120. Count of elements                        : 2866
  121. Stream size                              : 27.1 MiB (0%)
  122. Title                                    : English-PGS
  123. Language                                 : English
  124. Default                                  : No
  125. Forced                                   : No
  126. Original source medium                   : Blu-ray
  127. Menu
  128. 00:00:00.000                             : en:Breakdown (Main Titles)
  129. 00:06:10.767                             : en:Ghetto Holocaust
  130. 00:12:01.201                             : en:Slaughter of the Living Dead
  131. 00:17:50.701                             : en:Getting Out
  132. 00:26:02.135                             : en:The Airport
  133. 00:31:39.535                             : en:Running on Empty
  134. 00:32:44.469                             : en:Refuge
  135. 00:37:33.170                             : en:Mall of Monsters
  136. 00:43:13.837                             : en:Shopping Spree
  137. 00:48:47.805                             : en:Don\'t Open the Door
  138. 00:58:09.805                             : en:Home, Hellish Home
  139. 01:02:01.773                             : en:Pure Motorized Instinct
  140. 01:06:07.873                             : en:Hauling Ass
  141. 01:17:17.807                             : en:Guns, Glory and Gore
  142. 01:20:59.474                             : en:No Backing Out
  143. 01:27:24.141                             : en:Cleaning House
  144. 01:34:31.141                             : en:When There\'s No More Room in Hell
  145. 01:40:42.141                             : en:Life As Usual
  146. 01:49:26.708                             : en:The Invaders
  147. 01:56:30.841                             : en:Goodbye, Creeps!
  148. 02:06:23.941                             : en:Feast of the Dead
  149. 02:10:33.941                             : en:Friend No More
  150. 02:12:43.441                             : en:Escape to Nowhere
  151. 02:17:27.608                             : en:End Credits
复制代码



                                       
                                       

                                       
                                       
                                       




回复

使用道具 举报

懒得打字嘛,点击右侧快捷回复 【右侧内容,后台自定义】
您需要登录后才可以回帖 登录 | 立即加入

本版积分规则

Archiver|小黑屋| 蓝光电影网 |网站地图

Copyright © 2021 Comsenz Inc. Powered by 蓝光电影网

蓝光电影网

本站内容由用户自主分享和转载自互联网,转载目的在于传递更多信息,并不代表本网赞同其观点和对其真实性负责。

如有侵权、违反国家法律政策行为,请联系我们,我们会第一时间及时清除和处理!

举报反馈邮箱:4k1080.com@gmail.com

快速回复 返回顶部 返回列表