找回密码

蓝光电影网

查看: 808|回复: 0

[UHD.HEVC] 比佛利山超级警探/妙探出差 Beverly.Hills.Cop.1984.2160p.BluRay.REMUX.HEVC.DTS-HD.MA.5.1-FGT 49.35GB

[复制链接]
蓝光币
1688
发表于 2020-11-28 21:22:23 | 显示全部楼层 |阅读模式


◎译  名 比佛利山超级警探/妙探出差(港)/妙探出更/比佛利山警探/轰天雷/轰隆炮
◎片  名 Beverly Hills Cop
◎年  代 1984
◎产  地 美国
◎类  别 剧情 / 笑剧 / 行动 / 惊悚 / 犯罪
◎语  言 英语
◎上映日期 1984-12-05
◎IMDb评分  7.3/10 from 161403 users
◎IMDb链接  https://www.imdb.com/title/tt0086960/
◎豆瓣评分 6.9/10 from 1971 users
◎豆瓣链接 https://movie.douban.com/subject/1301782/
◎片  长 105 分钟
◎导  演 马丁·布莱斯特 Martin Brest
◎编  剧 小丹尼尔·皮特里 Daniel Petrie Jr. / 达尼洛·巴赫 Danilo Bach
◎主  演 艾迪·墨菲 Eddie Murphy
       祖德·莱茵霍尔德 Judge Reinhold
       约翰·阿什顿 John Ashton
       莉莎·埃尔巴赫 Lisa Eilbacher
       罗尼·考克斯 Ronny Cox
       米娜·苏瓦丽 Mena Suvari
       迈克尔切姆平 Michael Champion
       乔纳森·班克斯 Jonathan Banks
       詹姆斯·拉索 James Russo
◎标  签 笑剧 | 美国 | 行动 | 犯罪 | 1984 | 美国电影 | 警匪 | EddieMurphy
◎简  介


  艾索(艾迪?墨菲 Eddie Murphy 饰)是底特律黑白两道的台甫人,身为警探,却也不时干些偷鸡摸狗的活动,而且他侦办案件时经常不按法式处事,下属对他非常头痛。此日,艾索由于敲诈烟贩而差点被解雇进来,幸亏好命运才免遭于难。
  
  艾索偶遇了一位刚出狱的好友,这人带着巨额的德国债券来到了底特律。两人重逢后未几,艾索的这位朋友就被谋杀了。深谙此事不简单,艾索起头了观察。他单独一人追踪怀疑人维克多来到了好莱坞的比佛利山,正当他预备上前盘问时,却被当地差人带回了警局。当艾索观察得知维多克简直在贩毒时,当地的警长赞成介入观察,却将艾索打发回故乡。艾索只好劝说当地的一位警察比利(祖德?莱茵霍尔德 Judge Reinhold 饰)和他合作,两人起头了擅自观察。
◎获奖情况
  第57届奥斯卡金像奖 ?(1985)
  最好原创剧本(提名) 小丹尼尔·皮特里?/?达尼洛·巴赫
  1. Video
  2. ID                                       : 1
  3. ID in the original source medium         : 4113 (0x1011)
  4. Format                                   : HEVC
  5. Format/Info                              : High Efficiency Video Coding
  6. Format profile                           : Main [email protected]@High
  7. HDR format                               : SMPTE ST 2086, HDR10 compatible
  8. Codec ID                                 : V_MPEGH/ISO/HEVC
  9. Duration                                 : 1 h 45 min
  10. Bit rate                                 : 61.2 Mb/s
  11. Width                                    : 3 840 pixels
  12. Height                                   : 2 160 pixels
  13. Display aspect ratio                     : 16:9
  14. Frame rate mode                          : Constant
  15. Frame rate                               : 23.976 (24000/1001/189150) FPS
  16. Color space                              : YUV
  17. Chroma subsampling                       : 4:2:0 (Type 2)
  18. Bit depth                                : 10 bits
  19. Bits/(Pixel*Frame)                       : 0.308
  20. Stream size                              : 44.9 GiB (91%)
  21. Title                                    : Beverly.Hills.Cop.1984.2160p.BluRay.REMUX.HEVC.DTS-HD.MA.5.1-FGT
  22. Language                                 : English
  23. Default                                  : No
  24. Forced                                   : No
  25. Color range                              : Limited
  26. Color primaries                          : BT.2020
  27. Transfer characteristics                 : PQ
  28. Matrix coefficients                      : BT.2020 non-constant
  29. Mastering display color primaries        : Display P3
  30. Mastering display luminance              : min: 0.0001 cd/m2, max: 1000 cd/m2
  31. Original source medium                   : Blu-ray
  32. Audio #1
  33. ID                                       : 2
  34. ID in the original source medium         : 4352 (0x1100)
  35. Format                                   : DTS XLL
  36. Format/Info                              : Digital Theater Systems
  37. Commercial name                          : DTS-HD Master Audio
  38. Codec ID                                 : A_DTS
  39. Duration                                 : 1 h 45 min
  40. Bit rate mode                            : Variable
  41. Bit rate                                 : 3 965 kb/s
  42. Channel(s)                               : 6 channels
  43. Channel layout                           : C L R Ls Rs LFE
  44. Sampling rate                            : 48.0 kHz
  45. Frame rate                               : 93.750 FPS (512 SPF)
  46. Bit depth                                : 24 bits
  47. Compression mode                         : Lossless
  48. Stream size                              : 2.91 GiB (6%)
  49. Title                                    : Beverly.Hills.Cop.1984.2160p.BluRay.REMUX.HEVC.DTS-HD.MA.5.1-FGT
  50. Language                                 : English
  51. Default                                  : Yes
  52. Forced                                   : No
  53. Original source medium                   : Blu-ray
  54. Audio #2
  55. ID                                       : 3
  56. ID in the original source medium         : 4353 (0x1101)
  57. Format                                   : AC-3
  58. Format/Info                              : Audio Coding 3
  59. Commercial name                          : Dolby Digital
  60. Codec ID                                 : A_AC3
  61. Duration                                 : 1 h 45 min
  62. Bit rate mode                            : Constant
  63. Bit rate                                 : 640 kb/s
  64. Channel(s)                               : 6 channels
  65. Channel layout                           : L R C LFE Ls Rs
  66. Sampling rate                            : 48.0 kHz
  67. Frame rate                               : 31.250 FPS (1536 SPF)
  68. Compression mode                         : Lossy
  69. Stream size                              : 481 MiB (1%)
  70. Title                                    : Beverly.Hills.Cop.1984.2160p.BluRay.REMUX.HEVC.DTS-HD.MA.5.1-FGT
  71. Language                                 : English
  72. Service kind                             : Complete Main
  73. Default                                  : No
  74. Forced                                   : No
  75. Original source medium                   : Blu-ray
  76. Audio #3
  77. ID                                       : 4
  78. ID in the original source medium         : 4354 (0x1102)
  79. Format                                   : AC-3
  80. Format/Info                              : Audio Coding 3
  81. Commercial name                          : Dolby Digital
  82. Codec ID                                 : A_AC3
  83. Duration                                 : 1 h 45 min
  84. Bit rate mode                            : Constant
  85. Bit rate                                 : 224 kb/s
  86. Channel(s)                               : 2 channels
  87. Channel layout                           : L R
  88. Sampling rate                            : 48.0 kHz
  89. Frame rate                               : 31.250 FPS (1536 SPF)
  90. Compression mode                         : Lossy
  91. Stream size                              : 168 MiB (0%)
  92. Title                                    : Beverly.Hills.Cop.1984.2160p.BluRay.REMUX.HEVC.DTS-HD.MA.5.1-FGT
  93. Language                                 : German
  94. Service kind                             : Complete Main
  95. Default                                  : No
  96. Forced                                   : No
  97. Original source medium                   : Blu-ray
  98. Audio #4
  99. ID                                       : 5
  100. ID in the original source medium         : 4355 (0x1103)
  101. Format                                   : AC-3
  102. Format/Info                              : Audio Coding 3
  103. Commercial name                          : Dolby Digital
  104. Codec ID                                 : A_AC3
  105. Duration                                 : 1 h 45 min
  106. Bit rate mode                            : Constant
  107. Bit rate                                 : 224 kb/s
  108. Channel(s)                               : 2 channels
  109. Channel layout                           : L R
  110. Sampling rate                            : 48.0 kHz
  111. Frame rate                               : 31.250 FPS (1536 SPF)
  112. Compression mode                         : Lossy
  113. Stream size                              : 168 MiB (0%)
  114. Title                                    : Beverly.Hills.Cop.1984.2160p.BluRay.REMUX.HEVC.DTS-HD.MA.5.1-FGT
  115. Language                                 : French
  116. Service kind                             : Complete Main
  117. Default                                  : No
  118. Forced                                   : No
  119. Original source medium                   : Blu-ray
  120. Audio #5
  121. ID                                       : 6
  122. ID in the original source medium         : 4356 (0x1104)
  123. Format                                   : AC-3
  124. Format/Info                              : Audio Coding 3
  125. Commercial name                          : Dolby Digital
  126. Codec ID                                 : A_AC3
  127. Duration                                 : 1 h 45 min
  128. Bit rate mode                            : Constant
  129. Bit rate                                 : 224 kb/s
  130. Channel(s)                               : 2 channels
  131. Channel layout                           : L R
  132. Sampling rate                            : 48.0 kHz
  133. Frame rate                               : 31.250 FPS (1536 SPF)
  134. Compression mode                         : Lossy
  135. Stream size                              : 168 MiB (0%)
  136. Title                                    : Beverly.Hills.Cop.1984.2160p.BluRay.REMUX.HEVC.DTS-HD.MA.5.1-FGT
  137. Language                                 : English
  138. Service kind                             : Complete Main
  139. Default                                  : No
  140. Forced                                   : No
  141. Original source medium                   : Blu-ray
  142. Audio #6
  143. ID                                       : 7
  144. ID in the original source medium         : 4357 (0x1105)
  145. Format                                   : AC-3
  146. Format/Info                              : Audio Coding 3
  147. Commercial name                          : Dolby Digital
  148. Codec ID                                 : A_AC3
  149. Duration                                 : 1 h 45 min
  150. Bit rate mode                            : Constant
  151. Bit rate                                 : 640 kb/s
  152. Channel(s)                               : 6 channels
  153. Channel layout                           : L R C LFE Ls Rs
  154. Sampling rate                            : 48.0 kHz
  155. Frame rate                               : 31.250 FPS (1536 SPF)
  156. Compression mode                         : Lossy
  157. Stream size                              : 481 MiB (1%)
  158. Title                                    : Beverly.Hills.Cop.1984.2160p.BluRay.REMUX.HEVC.DTS-HD.MA.5.1-FGT
  159. Language                                 : English
  160. Service kind                             : Complete Main
  161. Default                                  : No
  162. Forced                                   : No
  163. Original source medium                   : Blu-ray
  164. Text #1
  165. ID                                       : 8
  166. Format                                   : UTF-8
  167. Codec ID                                 : S_TEXT/UTF8
  168. Codec ID/Info                            : UTF-8 Plain Text
  169. Duration                                 : 1 h 38 min
  170. Bit rate                                 : 73 b/s
  171. Count of elements                        : 1328
  172. Stream size                              : 53.2 KiB (0%)
  173. Title                                    : English-SRT
  174. Language                                 : English
  175. Default                                  : Yes
  176. Forced                                   : No
  177. Text #2
  178. ID                                       : 9
  179. Format                                   : UTF-8
  180. Codec ID                                 : S_TEXT/UTF8
  181. Codec ID/Info                            : UTF-8 Plain Text
  182. Duration                                 : 1 h 40 min
  183. Bit rate                                 : 75 b/s
  184. Count of elements                        : 1408
  185. Stream size                              : 55.3 KiB (0%)
  186. Title                                    : English-SDH-SRT
  187. Language                                 : English
  188. Default                                  : No
  189. Forced                                   : No
  190. Text #3
  191. ID                                       : 10
  192. ID in the original source medium         : 4768 (0x12A0)
  193. Format                                   : PGS
  194. Muxing mode                              : zlib
  195. Codec ID                                 : S_HDMV/PGS
  196. Codec ID/Info                            : Picture based subtitle format used on BDs/HD-DVDs
  197. Duration                                 : 1 h 38 min
  198. Bit rate                                 : 58.2 kb/s
  199. Count of elements                        : 2642
  200. Stream size                              : 40.9 MiB (0%)
  201. Title                                    : English-PGS
  202. Language                                 : English
  203. Default                                  : No
  204. Forced                                   : No
  205. Original source medium                   : Blu-ray
  206. Text #4
  207. ID                                       : 11
  208. ID in the original source medium         : 4769 (0x12A1)
  209. Format                                   : PGS
  210. Muxing mode                              : zlib
  211. Codec ID                                 : S_HDMV/PGS
  212. Codec ID/Info                            : Picture based subtitle format used on BDs/HD-DVDs
  213. Duration                                 : 1 h 40 min
  214. Bit rate                                 : 59.8 kb/s
  215. Count of elements                        : 2816
  216. Stream size                              : 42.8 MiB (0%)
  217. Title                                    : English-SDH-PGS
  218. Language                                 : English
  219. Default                                  : No
  220. Forced                                   : No
  221. Original source medium                   : Blu-ray
  222. Text #5
  223. ID                                       : 12
  224. ID in the original source medium         : 4770 (0x12A2)
  225. Format                                   : PGS
  226. Muxing mode                              : zlib
  227. Codec ID                                 : S_HDMV/PGS
  228. Codec ID/Info                            : Picture based subtitle format used on BDs/HD-DVDs
  229. Duration                                 : 1 h 42 min
  230. Bit rate                                 : 55.3 kb/s
  231. Count of elements                        : 2656
  232. Stream size                              : 40.5 MiB (0%)
  233. Title                                    : German-PGS
  234. Language                                 : German
  235. Default                                  : No
  236. Forced                                   : No
  237. Original source medium                   : Blu-ray
  238. Text #6
  239. ID                                       : 13
  240. ID in the original source medium         : 4771 (0x12A3)
  241. Format                                   : PGS
  242. Muxing mode                              : zlib
  243. Codec ID                                 : S_HDMV/PGS
  244. Codec ID/Info                            : Picture based subtitle format used on BDs/HD-DVDs
  245. Duration                                 : 1 h 44 min
  246. Bit rate                                 : 46.6 kb/s
  247. Count of elements                        : 2558
  248. Stream size                              : 34.7 MiB (0%)
  249. Title                                    : French-PGS
  250. Language                                 : French
  251. Default                                  : No
  252. Forced                                   : No
  253. Original source medium                   : Blu-ray
  254. Text #7
  255. ID                                       : 14
  256. ID in the original source medium         : 4772 (0x12A4)
  257. Format                                   : PGS
  258. Muxing mode                              : zlib
  259. Codec ID                                 : S_HDMV/PGS
  260. Codec ID/Info                            : Picture based subtitle format used on BDs/HD-DVDs
  261. Duration                                 : 1 h 44 min
  262. Bit rate                                 : 51.5 kb/s
  263. Count of elements                        : 1890
  264. Stream size                              : 38.6 MiB (0%)
  265. Title                                    : English-COMMENTARY-PGS
  266. Language                                 : English
  267. Default                                  : No
  268. Forced                                   : No
  269. Original source medium                   : Blu-ray
  270. Text #8
  271. ID                                       : 15
  272. ID in the original source medium         : 4773 (0x12A5)
  273. Format                                   : PGS
  274. Muxing mode                              : zlib
  275. Codec ID                                 : S_HDMV/PGS
  276. Codec ID/Info                            : Picture based subtitle format used on BDs/HD-DVDs
  277. Duration                                 : 1 h 44 min
  278. Bit rate                                 : 44.5 kb/s
  279. Count of elements                        : 1886
  280. Stream size                              : 33.4 MiB (0%)
  281. Title                                    : German-COMMENTARY-PGS
  282. Language                                 : German
  283. Default                                  : No
  284. Forced                                   : No
  285. Original source medium                   : Blu-ray
  286. Text #9
  287. ID                                       : 16
  288. ID in the original source medium         : 4774 (0x12A6)
  289. Format                                   : PGS
  290. Muxing mode                              : zlib
  291. Codec ID                                 : S_HDMV/PGS
  292. Codec ID/Info                            : Picture based subtitle format used on BDs/HD-DVDs
  293. Duration                                 : 1 h 44 min
  294. Bit rate                                 : 43.4 kb/s
  295. Count of elements                        : 1878
  296. Stream size                              : 32.5 MiB (0%)
  297. Title                                    : French-COMMENTARY-PGS
  298. Language                                 : French
  299. Default                                  : No
  300. Forced                                   : No
  301. Original source medium                   : Blu-ray
  302. Menu
  303. 00:00:00.000                             : en:Chapter 01
  304. 00:10:58.491                             : en:Chapter 02
  305. 00:19:31.670                             : en:Chapter 03
  306. 00:36:03.494                             : en:Chapter 04
  307. 00:45:07.162                             : en:Chapter 05
  308. 00:49:28.799                             : en:Chapter 06
  309. 00:58:39.599                             : en:Chapter 07
  310. 01:13:16.100                             : en:Chapter 08
  311. 01:23:22.664                             : en:Chapter 09
  312. 01:38:28.193                             : en:Chapter 10
  313. 01:41:04.433                             : en:Chapter 11
复制代码



                                       
                                       

                                       
                                       
                                       




回复

使用道具 举报

懒得打字嘛,点击右侧快捷回复 【右侧内容,后台自定义】
您需要登录后才可以回帖 登录 | 立即加入

本版积分规则

Archiver|小黑屋| 蓝光电影网 |网站地图

Copyright © 2021 Comsenz Inc. Powered by 蓝光电影网

蓝光电影网

本站内容由用户自主分享和转载自互联网,转载目的在于传递更多信息,并不代表本网赞同其观点和对其真实性负责。

如有侵权、违反国家法律政策行为,请联系我们,我们会第一时间及时清除和处理!

举报反馈邮箱:4k1080.com@gmail.com

快速回复 返回顶部 返回列表