找回密码

蓝光电影网

查看: 111|回复: 0

[UHD.HEVC] 纽约王/黑道皇帝 King.of.New.York.1990.2160p.BluRay.REMUX.HEVC.DTS-HD.MA.5.1-FGT 73.06GB

[复制链接]
蓝光币
1078
发表于 2020-11-26 18:24:18 | 显示全部楼层 |阅读模式


◎译  名 纽约王/黑道天子
◎片  名 King of New York
◎年  代 1990
◎产  地 意大利,美国,英国
◎类  别 剧情 / 惊悚 / 犯罪
◎语  言 西班牙语,英语
◎上映日期 1991-10-16
◎IMDb评分  7/10 from 31637 users
◎IMDb链接  https://www.imdb.com/title/tt0099939/
◎豆瓣评分 6.9/10 from 1386 users
◎豆瓣链接 https://movie.douban.com/subject/1301768/
◎片  长 103 分钟
◎导  演 阿贝尔·费拉拉 Abel Ferrara
◎编  剧 尼古拉斯·圣约翰 Nicholas St. John
◎主  演 克里斯托弗·沃肯 Christopher Walken
       大卫·卡罗素 David Caruso
       劳伦斯·菲什伯恩 Laurence Fishburne
       韦斯利·斯奈普斯 Wesley Snipes
       史蒂夫·布西密 Steve Buscemi
       Timothy Stickney
       罗杰·格午埃文·史姑娘 Roger Guenveur Smith
       伦纳德·L·托马斯 Leonard L. Thomas
       拉斯洛·克利马 Laszlo Klima
       菲尔·尼尔森 Phil Neilson
       安丽妮·科祖米 Ariane Koizumi
       Freddie Jackson
       阿隆娜·肖 Alonna Shaw
       Sari Chang
       John Reidy
       Anthony Padilla
       哈罗德·佩里诺 Harold Perrineau
       吉安卡罗·埃斯波西托 Giancarlo Esposito
       Carlos Lauchu
       维克多·阿尔果 Victor Argo
       弗兰克·阿多尼斯 Frank Adonis
       瓦妮萨·安吉尔 Vanessa Angel
       特里萨·兰德尔 Theresa Randle
       Mark Monto
       詹姆斯·洛林兹 James Lorinz
       Janet Julian
       罗伯特·拉萨多 Robert LaSardo
       George G. Colucci
       艾瑞卡·吉姆佩尔 Erica Gimpel
       Lia Chang
       Ernest Abuba
       彼得·哈米尔 Pete Hamill
◎标  签 黑帮 | 美国 | 犯罪 | 美国电影 | 1990 | ChristopherWalken | 意大利 | Abel_Ferrara
◎简  介


  工于心计的克里斯托弗·沃尔肯饰演恶名昭彰的纽约大地痞韦佛兰,他在出狱以后要发出他在座牢时落空的毒品市场,跟哥伦比亚帮、意大利帮和华青帮等合作对手展开宣战,逐步建立起比之前更庞大的犯罪王国。但因其不成一世的猖狂态度,也激起了另一帮气派目标不满,因此展开一场黑道大火拼……
  1. Video
  2. ID                                       : 1
  3. ID in the original source medium         : 4113 (0x1011)
  4. Format                                   : HEVC
  5. Format/Info                              : High Efficiency Video Coding
  6. Format profile                           : Main [email protected]@High
  7. HDR format                               : SMPTE ST 2086, HDR10 compatible
  8. Codec ID                                 : V_MPEGH/ISO/HEVC
  9. Duration                                 : 1 h 43 min
  10. Bit rate                                 : 94.6 Mb/s
  11. Width                                    : 3 840 pixels
  12. Height                                   : 2 160 pixels
  13. Display aspect ratio                     : 16:9
  14. Frame rate mode                          : Constant
  15. Frame rate                               : 23.976 (24000/1001/189150) FPS
  16. Color space                              : YUV
  17. Chroma subsampling                       : 4:2:0 (Type 2)
  18. Bit depth                                : 10 bits
  19. Bits/(Pixel*Frame)                       : 0.476
  20. Stream size                              : 68.2 GiB (93%)
  21. Title                                    : King.of.New.York.1990.2160p.BluRay.REMUX.HEVC.DTS-HD.MA.5.1-FGT
  22. Language                                 : English
  23. Default                                  : No
  24. Forced                                   : No
  25. Color range                              : Limited
  26. Color primaries                          : BT.2020
  27. Transfer characteristics                 : PQ
  28. Matrix coefficients                      : BT.2020 non-constant
  29. Mastering display color primaries        : BT.2020
  30. Mastering display luminance              : min: 0.0001 cd/m2, max: 1000 cd/m2
  31. Original source medium                   : Blu-ray
  32. Audio #1
  33. ID                                       : 2
  34. ID in the original source medium         : 4353 (0x1101)
  35. Format                                   : DTS XLL
  36. Format/Info                              : Digital Theater Systems
  37. Commercial name                          : DTS-HD Master Audio
  38. Codec ID                                 : A_DTS
  39. Duration                                 : 1 h 43 min
  40. Bit rate mode                            : Variable
  41. Bit rate                                 : 4 071 kb/s
  42. Channel(s)                               : 6 channels
  43. Channel layout                           : C L R Ls Rs LFE
  44. Sampling rate                            : 48.0 kHz
  45. Frame rate                               : 93.750 FPS (512 SPF)
  46. Bit depth                                : 24 bits
  47. Compression mode                         : Lossless
  48. Stream size                              : 2.93 GiB (4%)
  49. Title                                    : King.of.New.York.1990.2160p.BluRay.REMUX.HEVC.DTS-HD.MA.5.1-FGT
  50. Language                                 : English
  51. Default                                  : Yes
  52. Forced                                   : No
  53. Original source medium                   : Blu-ray
  54. Audio #2
  55. ID                                       : 3
  56. ID in the original source medium         : 4352 (0x1100)
  57. Format                                   : PCM
  58. Format settings                          : Little / Signed
  59. Codec ID                                 : A_PCM/INT/LIT
  60. Duration                                 : 1 h 43 min
  61. Bit rate mode                            : Constant
  62. Bit rate                                 : 2 304 kb/s
  63. Channel(s)                               : 2 channels
  64. Sampling rate                            : 48.0 kHz
  65. Frame rate                               : 30.000 FPS (1600 SPF)
  66. Bit depth                                : 24 bits
  67. Stream size                              : 1.66 GiB (2%)
  68. Title                                    : King.of.New.York.1990.2160p.BluRay.REMUX.HEVC.DTS-HD.MA.5.1-FGT
  69. Language                                 : English
  70. Default                                  : No
  71. Forced                                   : No
  72. Original source medium                   : Blu-ray
  73. Audio #3
  74. ID                                       : 4
  75. ID in the original source medium         : 4354 (0x1102)
  76. Format                                   : AC-3
  77. Format/Info                              : Audio Coding 3
  78. Commercial name                          : Dolby Digital
  79. Codec ID                                 : A_AC3
  80. Duration                                 : 1 h 43 min
  81. Bit rate mode                            : Constant
  82. Bit rate                                 : 192 kb/s
  83. Channel(s)                               : 2 channels
  84. Channel layout                           : L R
  85. Sampling rate                            : 48.0 kHz
  86. Frame rate                               : 31.250 FPS (1536 SPF)
  87. Compression mode                         : Lossy
  88. Stream size                              : 142 MiB (0%)
  89. Title                                    : King.of.New.York.1990.2160p.BluRay.REMUX.HEVC.DTS-HD.MA.5.1-FGT
  90. Language                                 : English
  91. Service kind                             : Complete Main
  92. Default                                  : No
  93. Forced                                   : No
  94. Original source medium                   : Blu-ray
  95. Audio #4
  96. ID                                       : 5
  97. ID in the original source medium         : 4355 (0x1103)
  98. Format                                   : AC-3
  99. Format/Info                              : Audio Coding 3
  100. Commercial name                          : Dolby Digital
  101. Codec ID                                 : A_AC3
  102. Duration                                 : 1 h 43 min
  103. Bit rate mode                            : Constant
  104. Bit rate                                 : 192 kb/s
  105. Channel(s)                               : 2 channels
  106. Channel layout                           : L R
  107. Sampling rate                            : 48.0 kHz
  108. Frame rate                               : 31.250 FPS (1536 SPF)
  109. Compression mode                         : Lossy
  110. Stream size                              : 142 MiB (0%)
  111. Title                                    : King.of.New.York.1990.2160p.BluRay.REMUX.HEVC.DTS-HD.MA.5.1-FGT
  112. Language                                 : English
  113. Service kind                             : Complete Main
  114. Default                                  : No
  115. Forced                                   : No
  116. Original source medium                   : Blu-ray
  117. Text #1
  118. ID                                       : 6
  119. Format                                   : UTF-8
  120. Codec ID                                 : S_TEXT/UTF8
  121. Codec ID/Info                            : UTF-8 Plain Text
  122. Duration                                 : 1 h 41 min
  123. Bit rate                                 : 47 b/s
  124. Count of elements                        : 1017
  125. Stream size                              : 35.6 KiB (0%)
  126. Title                                    : English-SRT
  127. Language                                 : English
  128. Default                                  : Yes
  129. Forced                                   : No
  130. Text #2
  131. ID                                       : 7
  132. ID in the original source medium         : 4768 (0x12A0)
  133. Format                                   : PGS
  134. Muxing mode                              : zlib
  135. Codec ID                                 : S_HDMV/PGS
  136. Codec ID/Info                            : Picture based subtitle format used on BDs/HD-DVDs
  137. Duration                                 : 1 h 42 min
  138. Bit rate                                 : 32.5 kb/s
  139. Count of elements                        : 2186
  140. Stream size                              : 23.8 MiB (0%)
  141. Title                                    : English-PGS
  142. Language                                 : English
  143. Default                                  : No
  144. Forced                                   : No
  145. Original source medium                   : Blu-ray
  146. Menu
  147. 00:00:00.000                             : en:Chapter 01
  148. 00:08:22.627                             : en:Chapter 02
  149. 00:18:27.397                             : en:Chapter 03
  150. 00:25:56.930                             : en:Chapter 04
  151. 00:34:39.994                             : en:Chapter 05
  152. 00:42:58.742                             : en:Chapter 06
  153. 00:51:27.667                             : en:Chapter 07
  154. 00:59:58.136                             : en:Chapter 08
  155. 01:08:33.651                             : en:Chapter 09
  156. 01:20:29.616                             : en:Chapter 10
  157. 01:30:08.653                             : en:Chapter 11
  158. 01:35:14.125                             : en:Chapter 12
复制代码



                                       
                                       

                                       
                                       
                                       




回复

使用道具 举报

懒得打字嘛,点击右侧快捷回复 【右侧内容,后台自定义】
您需要登录后才可以回帖 登录 | 立即加入

本版积分规则

Archiver|小黑屋| 蓝光电影网 |网站地图

Copyright © 2021 Comsenz Inc. Powered by 蓝光电影网

蓝光电影网

本站内容由用户自主分享和转载自互联网,转载目的在于传递更多信息,并不代表本网赞同其观点和对其真实性负责。

如有侵权、违反国家法律政策行为,请联系我们,我们会第一时间及时清除和处理!

举报反馈邮箱:[email protected]

快速回复 返回顶部 返回列表