找回密码

蓝光电影网

查看: 213|回复: 0

[UHD.HEVC] 釜山行2:半岛 Train.to.Busan.2.Peninsula.2020.KOREAN.2160p.BluRay.REMUX.HEVC.DTS-HD.MA.TrueHD7.1.Atmos-FGT 53.90GB

[复制链接]
蓝光币
1084
发表于 2020-11-25 09:25:27 | 显示全部楼层 |阅读模式


◎译  名 釜山行2:半岛/Peninsula/Train to Busan 2/半岛/尸杀半岛(港)/尸速列车:传染半岛(台)/釜山行2
◎片  名 ???2-??
◎年  代 2020
◎产  地 韩国
◎类  别 行动 / 惊悚
◎语  言 韩语,英语,粤语
◎上映日期 2020-07-15(韩国)
◎IMDb评分  5.4/10 from 15639 users
◎IMDb链接  https://www.imdb.com/title/tt8850222/
◎豆瓣评分 5.1/10 from 86650 users
◎豆瓣链接 https://movie.douban.com/subject/30299515/
◎片  长 115分钟
◎导  演 延尚昊 Sang-ho Yeon
◎编  剧 延尚昊 Sang-ho Yeon
◎主  演 姜栋元 Dong-won Kang
       李贞贤 Jung-hyun Lee
       权海骁 Hae-hyo Kwon
       李来 Re Lee
       金敏载 Kim Min-jae
       具教焕 Gu Kyohwan
       金度允 Do-yoon Kim
       李艺媛 Ye-won Lee
       文宇振 Woo-jin Moon
       金丹菲 Dan-bi Kim
◎标  签 丧尸 | 灾难 | 韩国 | 韩国电影 | 可骇 | 人性 | 2020 | 电影
◎简  介


  上集列车驶往釜山后,丧尸病毒瞬间全国爆发,4年后的韩国尸毒遍野,被全球孤立,沦为死城。所馀无几的生还者踏上最初一艘难民船,分开被众人抛弃的朝鲜半岛。退伍甲士正锡(姜栋元 饰)和家人有幸登上难民船,但一上船便发现丧尸潜伏,幸得香港收留,这批韩国人材得以登陆,以「半岛难民」成分在香港重新生活。但正锡受不住金钱引诱,加入了一个返国窃取巨额美金的行动。他和队友重返韩国,居然发现仍有一班未受尸毒传染的人在挣扎求存,正锡决议带这班倖存者逃生,他们最初能否成功逃出尸杀半岛?
◎获奖情况
  第73届戛纳电影节 ?(2020)
  入选过戛纳导演作品(提名)
  
  第41届韩国电影青龙奖 ?(2020)
  最好导演(提名) 延尚昊
  最好女配角(提名) 李来
  最好美术(提名)
  最好照明(提名)
  技术奖(提名)
  1. Video
  2. ID                                       : 1
  3. ID in the original source medium         : 4113 (0x1011)
  4. Format                                   : HEVC
  5. Format/Info                              : High Efficiency Video Coding
  6. Format profile                           : Main [email protected]@High
  7. HDR format                               : SMPTE ST 2086, HDR10 compatible
  8. Codec ID                                 : V_MPEGH/ISO/HEVC
  9. Duration                                 : 1 h 55 min
  10. Bit rate                                 : 54.9 Mb/s
  11. Width                                    : 3 840 pixels
  12. Height                                   : 2 160 pixels
  13. Display aspect ratio                     : 16:9
  14. Frame rate mode                          : Constant
  15. Frame rate                               : 24.000 FPS
  16. Color space                              : YUV
  17. Chroma subsampling                       : 4:2:0 (Type 2)
  18. Bit depth                                : 10 bits
  19. Bits/(Pixel*Frame)                       : 0.276
  20. Stream size                              : 44.4 GiB (82%)
  21. Title                                    : Train.to.Busan.2.Peninsula.2020.KOREAN.2160p.BluRay.REMUX.HEVC.DTS-HD.MA.TrueHD7.1.Atmos-FGT
  22. Language                                 : English
  23. Default                                  : No
  24. Forced                                   : No
  25. Color range                              : Limited
  26. Color primaries                          : BT.2020
  27. Transfer characteristics                 : PQ
  28. Matrix coefficients                      : BT.2020 non-constant
  29. Mastering display color primaries        : BT.2020
  30. Mastering display luminance              : min: 0.0001 cd/m2, max: 1000 cd/m2
  31. Maximum Content Light Level              : 650 cd/m2
  32. Maximum Frame-Average Light Level        : 621 cd/m2
  33. Original source medium                   : Blu-ray
  34. Audio #1
  35. ID                                       : 2
  36. ID in the original source medium         : 4352 (0x1100)
  37. Format                                   : MLP FBA 16-ch
  38. Format/Info                              : Meridian Lossless Packing FBA with 16-channel presentation
  39. Commercial name                          : Dolby TrueHD with Dolby Atmos
  40. Codec ID                                 : A_TRUEHD
  41. Duration                                 : 1 h 55 min
  42. Bit rate mode                            : Variable
  43. Bit rate                                 : 4 449 kb/s
  44. Maximum bit rate                         : 7 755 kb/s
  45. Channel(s)                               : 8 channels
  46. Channel layout                           : L R C LFE Ls Rs Lb Rb
  47. Sampling rate                            : 48.0 kHz
  48. Frame rate                               : 1 200.000 FPS (40 SPF)
  49. Compression mode                         : Lossless
  50. Stream size                              : 3.60 GiB (7%)
  51. Title                                    : Train.to.Busan.2.Peninsula.2020.KOREAN.2160p.BluRay.REMUX.HEVC.DTS-HD.MA.TrueHD7.1.Atmos-FGT
  52. Language                                 : Korean
  53. Default                                  : Yes
  54. Forced                                   : No
  55. Original source medium                   : Blu-ray
  56. Number of dynamic objects                : 11
  57. Bed channel count                        : 1 channel
  58. Bed channel configuration                : LFE
  59. Audio #2
  60. ID                                       : 3
  61. Format                                   : DTS XLL
  62. Format/Info                              : Digital Theater Systems
  63. Commercial name                          : DTS-HD Master Audio
  64. Codec ID                                 : A_DTS
  65. Duration                                 : 1 h 55 min
  66. Bit rate mode                            : Variable
  67. Bit rate                                 : 4 122 kb/s
  68. Channel(s)                               : 8 channels
  69. Channel layout                           : C L R LFE Lb Rb Lss Rss
  70. Sampling rate                            : 48.0 kHz
  71. Frame rate                               : 93.750 FPS (512 SPF)
  72. Bit depth                                : 24 bits
  73. Compression mode                         : Lossless
  74. Stream size                              : 3.34 GiB (6%)
  75. Title                                    : Train.to.Busan.2.Peninsula.2020.KOREAN.2160p.BluRay.REMUX.HEVC.DTS-HD.MA.TrueHD7.1.Atmos-FGT
  76. Language                                 : Korean
  77. Default                                  : No
  78. Forced                                   : No
  79. Audio #3
  80. ID                                       : 4
  81. ID in the original source medium         : 4352 (0x1100)
  82. Format                                   : AC-3
  83. Format/Info                              : Audio Coding 3
  84. Commercial name                          : Dolby Digital
  85. Codec ID                                 : A_AC3
  86. Duration                                 : 1 h 55 min
  87. Bit rate mode                            : Constant
  88. Bit rate                                 : 640 kb/s
  89. Channel(s)                               : 6 channels
  90. Channel layout                           : L R C LFE Ls Rs
  91. Sampling rate                            : 48.0 kHz
  92. Frame rate                               : 31.250 FPS (1536 SPF)
  93. Compression mode                         : Lossy
  94. Stream size                              : 531 MiB (1%)
  95. Title                                    : Train.to.Busan.2.Peninsula.2020.KOREAN.2160p.BluRay.REMUX.HEVC.DTS-HD.MA.TrueHD7.1.Atmos-FGT
  96. Language                                 : Korean
  97. Service kind                             : Complete Main
  98. Default                                  : No
  99. Forced                                   : No
  100. Original source medium                   : Blu-ray
  101. Audio #4
  102. ID                                       : 5
  103. ID in the original source medium         : 4353 (0x1101)
  104. Format                                   : DTS XLL
  105. Format/Info                              : Digital Theater Systems
  106. Commercial name                          : DTS-HD Master Audio
  107. Codec ID                                 : A_DTS
  108. Duration                                 : 1 h 55 min
  109. Bit rate mode                            : Variable
  110. Bit rate                                 : 2 408 kb/s
  111. Channel(s)                               : 6 channels
  112. Channel layout                           : C L R Ls Rs LFE
  113. Sampling rate                            : 48.0 kHz
  114. Frame rate                               : 93.750 FPS (512 SPF)
  115. Bit depth                                : 16 bits
  116. Compression mode                         : Lossless
  117. Stream size                              : 1.95 GiB (4%)
  118. Title                                    : Train.to.Busan.2.Peninsula.2020.KOREAN.2160p.BluRay.REMUX.HEVC.DTS-HD.MA.TrueHD7.1.Atmos-FGT
  119. Language                                 : English
  120. Default                                  : No
  121. Forced                                   : No
  122. Original source medium                   : Blu-ray
  123. Text #1
  124. ID                                       : 6
  125. Format                                   : UTF-8
  126. Codec ID                                 : S_TEXT/UTF8
  127. Codec ID/Info                            : UTF-8 Plain Text
  128. Duration                                 : 1 h 49 min
  129. Bit rate                                 : 30 b/s
  130. Count of elements                        : 1011
  131. Stream size                              : 24.2 KiB (0%)
  132. Title                                    : English-SRT
  133. Language                                 : English
  134. Default                                  : Yes
  135. Forced                                   : No
  136. Text #2
  137. ID                                       : 7
  138. ID in the original source medium         : 4768 (0x12A0)
  139. Format                                   : PGS
  140. Muxing mode                              : zlib
  141. Codec ID                                 : S_HDMV/PGS
  142. Codec ID/Info                            : Picture based subtitle format used on BDs/HD-DVDs
  143. Duration                                 : 1 h 54 min
  144. Bit rate                                 : 21.9 kb/s
  145. Count of elements                        : 2085
  146. Stream size                              : 17.9 MiB (0%)
  147. Title                                    : English-PGS
  148. Language                                 : English
  149. Default                                  : No
  150. Forced                                   : No
  151. Original source medium                   : Blu-ray
  152. Text #3
  153. ID                                       : 8
  154. ID in the original source medium         : 4769 (0x12A1)
  155. Format                                   : PGS
  156. Muxing mode                              : zlib
  157. Codec ID                                 : S_HDMV/PGS
  158. Codec ID/Info                            : Picture based subtitle format used on BDs/HD-DVDs
  159. Duration                                 : 1 h 54 min
  160. Bit rate                                 : 17.3 kb/s
  161. Count of elements                        : 1629
  162. Stream size                              : 14.1 MiB (0%)
  163. Title                                    : English-PGS
  164. Language                                 : English
  165. Default                                  : No
  166. Forced                                   : No
  167. Original source medium                   : Blu-ray
  168. Menu
  169. 00:00:00.000                             : en:Chapter 01
  170. 00:09:46.000                             : en:Chapter 02
  171. 00:19:00.000                             : en:Chapter 03
  172. 00:27:26.000                             : en:Chapter 04
  173. 00:39:41.000                             : en:Chapter 05
  174. 00:46:32.000                             : en:Chapter 06
  175. 00:58:45.000                             : en:Chapter 07
  176. 01:08:45.000                             : en:Chapter 08
  177. 01:18:08.000                             : en:Chapter 09
  178. 01:29:02.000                             : en:Chapter 10
  179. 01:39:41.000                             : en:Chapter 11
  180. 01:51:12.000                             : en:Chapter 12
复制代码



                                       
                                       

                                       
                                       
                                       




釜山行2:半岛 Train.to.Busan.2.Peninsula.2020.KOREAN.2160p.BluRay.REMUX.HEVC.DTS-HD.MA.TrueHD7.1.Atmos-FGT 53.90GB

Train.to.Busan.2.Peninsula.2020.KOREAN.2160p.BluRay.REMUX.HEVC.DTS-HD.MA.TrueHD7.zip

135.55 KB, 下载次数: 19, 下载积分: 蓝光币 -2

回复

使用道具 举报

懒得打字嘛,点击右侧快捷回复 【右侧内容,后台自定义】
您需要登录后才可以回帖 登录 | 立即加入

本版积分规则

Archiver|小黑屋| 蓝光电影网 |网站地图

Copyright © 2021 Comsenz Inc. Powered by 蓝光电影网

蓝光电影网

本站内容由用户自主分享和转载自互联网,转载目的在于传递更多信息,并不代表本网赞同其观点和对其真实性负责。

如有侵权、违反国家法律政策行为,请联系我们,我们会第一时间及时清除和处理!

举报反馈邮箱:[email protected]

快速回复 返回顶部 返回列表