找回密码

蓝光电影网

查看: 147|回复: 0

[UHD.HEVC] 斯大林格勒战役/决战斯大林格勒 Stalingrad.1993.GERMAN.2160p.BluRay.REMUX.HEVC.DTS-HD.MA.5.1-FGT 82.82GB

[复制链接]
蓝光币
1082
发表于 2020-12-7 09:45:34 | 显示全部楼层 |阅读模式
[img][/img]

◎译  名 斯大林格勒战争/决战斯大林格勒
◎片  名 Stalingrad
◎年  代 1993
◎产  地 德国
◎类  别 剧情 / 战争
◎语  言 德语,俄语
◎上映日期 1993-01-21(德国)
◎IMDb评分  7.5/10 from 30562 users
◎IMDb链接  https://www.imdb.com/title/tt0108211/
◎豆瓣评分 8.2/10 from 8776 users
◎豆瓣链接 https://movie.douban.com/subject/1293750/
◎片  长 134 分钟
◎导  演 约瑟夫·维尔斯麦尔 Joseph Vilsmaier
◎编  剧 克里斯托夫·弗洛姆 Christoph Fromm / 约瑟夫·维尔斯麦尔 Joseph Vilsmaier
◎主  演 多米尼克·霍卫兹 Dominique Horwitz
       托马斯·克莱舒曼 Thomas Kretschmann
       约亨·尼克尔 Jochen Nickel
       达娜·瓦罗娃 Dana Vávrová
       塞巴斯蒂安·鲁道夫 Sebastian Rudolph
       马丁·本拉特 Martin Benrath
       西尔维斯特·格罗特 Sylvester Groth
◎标  签 二战 | 战争 | 德国 | 斯大林格勒 | 德国电影 | 历史 | 苏联 | 1993
◎简  介


  斯大林格勒战争是二次大战中德国遭到的史无前例惨败的一役,也是欧洲疆场的一个严重转折点。苏联红军用自己的血肉之躯盖住了德国炮弹和飞机的轰炸,但被战争涂炭的不但仅是一个国家。这部影片从德军的怪异角度深入探讨了战争对人性与生命的摧残。
  1. Video
  2. ID                                       : 1
  3. ID in the original source medium         : 4113 (0x1011)
  4. Format                                   : HEVC
  5. Format/Info                              : High Efficiency Video Coding
  6. Format profile                           : Main [email protected]@High
  7. HDR format                               : SMPTE ST 2094 App 4, Version 1, HDR10+ Profile B compatible
  8. Codec ID                                 : V_MPEGH/ISO/HEVC
  9. Duration                                 : 2 h 17 min
  10. Bit rate                                 : 81.5 Mb/s
  11. Width                                    : 3 840 pixels
  12. Height                                   : 2 160 pixels
  13. Display aspect ratio                     : 16:9
  14. Frame rate mode                          : Constant
  15. Frame rate                               : 24.000 FPS
  16. Color space                              : YUV
  17. Chroma subsampling                       : 4:2:0 (Type 2)
  18. Bit depth                                : 10 bits
  19. Bits/(Pixel*Frame)                       : 0.410
  20. Stream size                              : 78.4 GiB (95%)
  21. Title                                    : Stalingrad.1993.GERMAN.2160p.BluRay.REMUX.HEVC.DTS-HD.MA.5.1-FGT
  22. Language                                 : German
  23. Default                                  : No
  24. Forced                                   : No
  25. Color range                              : Limited
  26. Color primaries                          : BT.2020
  27. Transfer characteristics                 : PQ
  28. Matrix coefficients                      : BT.2020 non-constant
  29. Mastering display color primaries        : Display P3
  30. Mastering display luminance              : min: 0.0001 cd/m2, max: 1000 cd/m2
  31. Maximum Content Light Level              : 1517 cd/m2
  32. Maximum Frame-Average Light Level        : 427 cd/m2
  33. Original source medium                   : Blu-ray
  34. Audio #1
  35. ID                                       : 2
  36. ID in the original source medium         : 4352 (0x1100)
  37. Format                                   : DTS XLL
  38. Format/Info                              : Digital Theater Systems
  39. Commercial name                          : DTS-HD Master Audio
  40. Codec ID                                 : A_DTS
  41. Duration                                 : 2 h 17 min
  42. Bit rate mode                            : Variable
  43. Bit rate                                 : 2 354 kb/s
  44. Channel(s)                               : 6 channels
  45. Channel layout                           : C L R Ls Rs LFE
  46. Sampling rate                            : 48.0 kHz
  47. Frame rate                               : 93.750 FPS (512 SPF)
  48. Bit depth                                : 16 bits
  49. Compression mode                         : Lossless
  50. Stream size                              : 2.26 GiB (3%)
  51. Title                                    : Stalingrad.1993.GERMAN.2160p.BluRay.REMUX.HEVC.DTS-HD.MA.5.1-FGT
  52. Language                                 : German
  53. Default                                  : Yes
  54. Forced                                   : No
  55. Original source medium                   : Blu-ray
  56. Audio #2
  57. ID                                       : 3
  58. ID in the original source medium         : 4353 (0x1101)
  59. Format                                   : DTS XLL
  60. Format/Info                              : Digital Theater Systems
  61. Commercial name                          : DTS-HD Master Audio
  62. Codec ID                                 : A_DTS
  63. Duration                                 : 2 h 17 min
  64. Bit rate mode                            : Variable
  65. Bit rate                                 : 1 559 kb/s
  66. Channel(s)                               : 2 channels
  67. Channel layout                           : L R
  68. Sampling rate                            : 48.0 kHz
  69. Frame rate                               : 93.750 FPS (512 SPF)
  70. Bit depth                                : 16 bits
  71. Compression mode                         : Lossless
  72. Stream size                              : 1.50 GiB (2%)
  73. Title                                    : Stalingrad.1993.GERMAN.2160p.BluRay.REMUX.HEVC.DTS-HD.MA.5.1-FGT
  74. Language                                 : German
  75. Default                                  : No
  76. Forced                                   : No
  77. Original source medium                   : Blu-ray
  78. Audio #3
  79. ID                                       : 4
  80. Format                                   : AC-3
  81. Format/Info                              : Audio Coding 3
  82. Commercial name                          : Dolby Digital
  83. Codec ID                                 : A_AC3
  84. Duration                                 : 2 h 17 min
  85. Bit rate mode                            : Constant
  86. Bit rate                                 : 640 kb/s
  87. Channel(s)                               : 6 channels
  88. Channel layout                           : L R C LFE Ls Rs
  89. Sampling rate                            : 48.0 kHz
  90. Frame rate                               : 31.250 FPS (1536 SPF)
  91. Compression mode                         : Lossy
  92. Stream size                              : 630 MiB (1%)
  93. Title                                    : Stalingrad.1993.GERMAN.2160p.BluRay.REMUX.HEVC.DTS-HD.MA.5.1-FGT
  94. Language                                 : German
  95. Service kind                             : Complete Main
  96. Default                                  : No
  97. Forced                                   : No
  98. Text #1
  99. ID                                       : 5
  100. Format                                   : UTF-8
  101. Codec ID                                 : S_TEXT/UTF8
  102. Codec ID/Info                            : UTF-8 Plain Text
  103. Duration                                 : 2 h 13 min
  104. Bit rate                                 : 34 b/s
  105. Count of elements                        : 1184
  106. Stream size                              : 33.4 KiB (0%)
  107. Title                                    : English-SRT
  108. Language                                 : English
  109. Default                                  : Yes
  110. Forced                                   : No
  111. Text #2
  112. ID                                       : 6
  113. Format                                   : PGS
  114. Muxing mode                              : zlib
  115. Codec ID                                 : S_HDMV/PGS
  116. Codec ID/Info                            : Picture based subtitle format used on BDs/HD-DVDs
  117. Duration                                 : 2 h 13 min
  118. Bit rate                                 : 14.1 kb/s
  119. Count of elements                        : 2378
  120. Stream size                              : 13.5 MiB (0%)
  121. Title                                    : English-PGS
  122. Language                                 : English
  123. Default                                  : No
  124. Forced                                   : No
  125. Menu
  126. 00:00:00.000                             : en:Chapter 01
  127. 00:02:18.708                             : en:Chapter 02
  128. 00:09:50.708                             : en:Chapter 03
  129. 00:18:10.791                             : en:Chapter 04
  130. 00:32:49.791                             : en:Chapter 05
  131. 00:42:54.041                             : en:Chapter 06
  132. 00:50:42.250                             : en:Chapter 07
  133. 01:04:37.083                             : en:Chapter 08
  134. 01:13:33.208                             : en:Chapter 09
  135. 01:25:03.458                             : en:Chapter 10
  136. 01:34:06.458                             : en:Chapter 11
  137. 01:43:03.000                             : en:Chapter 12
  138. 01:53:10.458                             : en:Chapter 13
  139. 02:06:07.916                             : en:Chapter 14
  140. 02:13:38.875                             : en:Chapter 15
复制代码



                                       
                                       

                                       
                                       
                                       




回复

使用道具 举报

懒得打字嘛,点击右侧快捷回复 【右侧内容,后台自定义】
您需要登录后才可以回帖 登录 | 立即加入

本版积分规则

Archiver|小黑屋| 蓝光电影网 |网站地图

Copyright © 2021 Comsenz Inc. Powered by 蓝光电影网

蓝光电影网

本站内容由用户自主分享和转载自互联网,转载目的在于传递更多信息,并不代表本网赞同其观点和对其真实性负责。

如有侵权、违反国家法律政策行为,请联系我们,我们会第一时间及时清除和处理!

举报反馈邮箱:[email protected]

快速回复 返回顶部 返回列表