找回密码

蓝光电影网

查看: 1000|回复: 0

[REMUX.HEVC] 信条 Tenet.2020.IMAX.2160p.BluRay.REMUX.HEVC.DTS-HD.MA.5.1-FGT 76.41GB

[复制链接]
蓝光币
1704
发表于 2020-12-5 21:40:53 | 显示全部楼层 |阅读模式


◎译  名 信条/Tempus/TENET天能(港/台)/TEN?⊥/天呐天(豆友译名)/时空追捕
◎片  名 Tenet
◎年  代 2020
◎产  地 美国,英国
◎类  别 剧情 / 行动 / 科幻
◎语  言 英语,俄语,乌克兰语,爱沙尼亚语,印地语,挪威语
◎上映日期 2020-08-26(英国) / 2020-09-03(美国) / 2020-09-04(中国大陆)
◎IMDb评分  7.7/10 from 165932 users
◎IMDb链接  https://www.imdb.com/title/tt6723592/
◎豆瓣评分 7.8/10 from 417791 users
◎豆瓣链接 https://movie.douban.com/subject/30444960/
◎片  长 150分钟
◎导  演 克里斯托弗·诺兰 Christopher Nolan
◎编  剧 克里斯托弗·诺兰 Christopher Nolan
◎主  演 约翰·大卫·华盛顿 John David Washington
       罗伯特·帕丁森 Robert Pattinson
       伊丽莎白·德比茨基 Elizabeth Debicki
       肯尼思·布拉纳 Kenneth Branagh
       亚伦·泰勒-约翰逊 Aaron Taylor-Johnson
       迪宝·卡帕蒂娅 Dimple Kapadia
       克蕾曼丝·波西 Clémence Poésy
       希米什·帕特尔 Himesh Patel
       安德鲁·霍华德 Andrew Howard
       尤里·科洛科利尼科夫 Yuri Kolokolnikov
       迈克尔·凯恩 Michael Caine
       马丁·唐文 Martin Donovan
       卡里娜·韦尔瓦 Carina Velva
       乔纳森·坎普 Jonathan Camp
       凯蒂·麦克凯布 Katie McCabe
       贝恩·科拉科 Bern Colla?o
       安东尼·莫利纳利 Anthony Molinari
       特伦特·布克斯顿 Trent Buxton
       英格丽·玛格斯 Ingrid Margus
       瑞奇·切劳洛 Rich Ceraulo
       劳里·谢泼德 Laurie Shepherd
       马克·克雷尼克 Mark Krenik
       亚历克斯·威克索 Alex Wexo
       丹兹尔·史姑娘 Denzil Smith
       马塞尔·萨巴特 Marcel Sabat
       杰里米·西奥伯德 Jeremy Theobald
       菲奥娜·道里夫 Fiona Dourif
       韦斯·查特姆 Wes Chatham
       杰克·卡特莫尔-斯科特 Jack Cutmore-Scott
       杰佛逊·豪尔 Jefferson Hall
       凯莱布·斯比尔亚兹 Caleb Spillyards
       肖恩·艾弗里 Sean Avery
       吉米·斯达 Jimmy Star
◎标  签 烧脑 | 科幻 | 悬疑 | 2020 | 行动 | 美国 | 剧情 | 犯罪
◎简  介


  天下生死危在旦夕,“信条”一词是唯一的线索与兵器。仆人公穿越于全球各地,展开奸粗活动,力图揭露“信条”之谜,并完成一项超越了实在时候的奥秘使命。这项使命并非时候之旅,而是【时空逆转】。
◎获奖情况
  第6届豆瓣电影年度榜单 ?(2019)
  最值得期待的外语电影(提名)
  1. Video
  2. ID                                       : 1
  3. ID in the original source medium         : 4113 (0x1011)
  4. Format                                   : HEVC
  5. Format/Info                              : High Efficiency Video Coding
  6. Format profile                           : Main [email protected]@High
  7. HDR format                               : SMPTE ST 2086, HDR10 compatible
  8. Codec ID                                 : V_MPEGH/ISO/HEVC
  9. Duration                                 : 2 h 30 min
  10. Bit rate                                 : 57.5 Mb/s
  11. Width                                    : 3 840 pixels
  12. Height                                   : 2 160 pixels
  13. Display aspect ratio                     : 16:9
  14. Frame rate mode                          : Constant
  15. Frame rate                               : 23.976 (24000/1001/189150) FPS
  16. Color space                              : YUV
  17. Chroma subsampling                       : 4:2:0 (Type 2)
  18. Bit depth                                : 10 bits
  19. Bits/(Pixel*Frame)                       : 0.289
  20. Stream size                              : 60.3 GiB (79%)
  21. Title                                    : Tenet.2020.IMAX.2160p.BluRay.REMUX.HEVC.DTS-HD.MA.5.1-FGT
  22. Language                                 : English
  23. Default                                  : No
  24. Forced                                   : No
  25. Color range                              : Limited
  26. Color primaries                          : BT.2020
  27. Transfer characteristics                 : PQ
  28. Matrix coefficients                      : BT.2020 non-constant
  29. Mastering display color primaries        : Display P3
  30. Mastering display luminance              : min: 0.0050 cd/m2, max: 4000 cd/m2
  31. Maximum Content Light Level              : 349 cd/m2
  32. Maximum Frame-Average Light Level        : 86 cd/m2
  33. Original source medium                   : Blu-ray
  34. Audio #1
  35. ID                                       : 2
  36. ID in the original source medium         : 4352 (0x1100)
  37. Format                                   : DTS XLL
  38. Format/Info                              : Digital Theater Systems
  39. Commercial name                          : DTS-HD Master Audio
  40. Codec ID                                 : A_DTS
  41. Duration                                 : 2 h 30 min
  42. Bit rate mode                            : Variable
  43. Bit rate                                 : 4 036 kb/s
  44. Channel(s)                               : 6 channels
  45. Channel layout                           : C L R Ls Rs LFE
  46. Sampling rate                            : 48.0 kHz
  47. Frame rate                               : 93.750 FPS (512 SPF)
  48. Bit depth                                : 24 bits
  49. Compression mode                         : Lossless
  50. Stream size                              : 4.23 GiB (6%)
  51. Title                                    : Tenet.2020.IMAX.2160p.BluRay.REMUX.HEVC.DTS-HD.MA.5.1-FGT
  52. Language                                 : English
  53. Default                                  : Yes
  54. Forced                                   : No
  55. Original source medium                   : Blu-ray
  56. Audio #2
  57. ID                                       : 3
  58. ID in the original source medium         : 4353 (0x1101)
  59. Format                                   : AC-3
  60. Format/Info                              : Audio Coding 3
  61. Commercial name                          : Dolby Digital
  62. Codec ID                                 : A_AC3
  63. Duration                                 : 2 h 30 min
  64. Bit rate mode                            : Constant
  65. Bit rate                                 : 640 kb/s
  66. Channel(s)                               : 6 channels
  67. Channel layout                           : L R C LFE Ls Rs
  68. Sampling rate                            : 48.0 kHz
  69. Frame rate                               : 31.250 FPS (1536 SPF)
  70. Compression mode                         : Lossy
  71. Stream size                              : 687 MiB (1%)
  72. Title                                    : Tenet.2020.IMAX.2160p.BluRay.REMUX.HEVC.DTS-HD.MA.5.1-FGT
  73. Language                                 : English
  74. Service kind                             : Complete Main
  75. Default                                  : No
  76. Forced                                   : No
  77. Original source medium                   : Blu-ray
  78. Audio #3
  79. ID                                       : 4
  80. ID in the original source medium         : 4354 (0x1102)
  81. Format                                   : AC-3
  82. Format/Info                              : Audio Coding 3
  83. Commercial name                          : Dolby Digital
  84. Codec ID                                 : A_AC3
  85. Duration                                 : 2 h 30 min
  86. Bit rate mode                            : Constant
  87. Bit rate                                 : 448 kb/s
  88. Channel(s)                               : 6 channels
  89. Channel layout                           : L R C LFE Ls Rs
  90. Sampling rate                            : 48.0 kHz
  91. Frame rate                               : 31.250 FPS (1536 SPF)
  92. Compression mode                         : Lossy
  93. Stream size                              : 481 MiB (1%)
  94. Title                                    : Tenet.2020.IMAX.2160p.BluRay.REMUX.HEVC.DTS-HD.MA.5.1-FGT
  95. Language                                 : French
  96. Service kind                             : Complete Main
  97. Default                                  : No
  98. Forced                                   : No
  99. Original source medium                   : Blu-ray
  100. Audio #4
  101. ID                                       : 5
  102. ID in the original source medium         : 4355 (0x1103)
  103. Format                                   : DTS XLL
  104. Format/Info                              : Digital Theater Systems
  105. Commercial name                          : DTS-HD Master Audio
  106. Codec ID                                 : A_DTS
  107. Duration                                 : 2 h 30 min
  108. Bit rate mode                            : Variable
  109. Bit rate                                 : 2 376 kb/s
  110. Channel(s)                               : 6 channels
  111. Channel layout                           : C L R Ls Rs LFE
  112. Sampling rate                            : 48.0 kHz
  113. Frame rate                               : 93.750 FPS (512 SPF)
  114. Bit depth                                : 16 bits
  115. Compression mode                         : Lossless
  116. Stream size                              : 2.49 GiB (3%)
  117. Title                                    : Tenet.2020.IMAX.2160p.BluRay.REMUX.HEVC.DTS-HD.MA.5.1-FGT
  118. Language                                 : French
  119. Default                                  : No
  120. Forced                                   : No
  121. Original source medium                   : Blu-ray
  122. Audio #5
  123. ID                                       : 6
  124. ID in the original source medium         : 4356 (0x1104)
  125. Format                                   : DTS XLL
  126. Format/Info                              : Digital Theater Systems
  127. Commercial name                          : DTS-HD Master Audio
  128. Codec ID                                 : A_DTS
  129. Duration                                 : 2 h 30 min
  130. Bit rate mode                            : Variable
  131. Bit rate                                 : 2 367 kb/s
  132. Channel(s)                               : 6 channels
  133. Channel layout                           : C L R Ls Rs LFE
  134. Sampling rate                            : 48.0 kHz
  135. Frame rate                               : 93.750 FPS (512 SPF)
  136. Bit depth                                : 16 bits
  137. Compression mode                         : Lossless
  138. Stream size                              : 2.48 GiB (3%)
  139. Title                                    : Tenet.2020.IMAX.2160p.BluRay.REMUX.HEVC.DTS-HD.MA.5.1-FGT
  140. Language                                 : German
  141. Default                                  : No
  142. Forced                                   : No
  143. Original source medium                   : Blu-ray
  144. Audio #6
  145. ID                                       : 7
  146. ID in the original source medium         : 4357 (0x1105)
  147. Format                                   : AC-3
  148. Format/Info                              : Audio Coding 3
  149. Commercial name                          : Dolby Digital
  150. Codec ID                                 : A_AC3
  151. Duration                                 : 2 h 30 min
  152. Bit rate mode                            : Constant
  153. Bit rate                                 : 192 kb/s
  154. Channel(s)                               : 2 channels
  155. Channel layout                           : L R
  156. Sampling rate                            : 48.0 kHz
  157. Frame rate                               : 31.250 FPS (1536 SPF)
  158. Compression mode                         : Lossy
  159. Stream size                              : 206 MiB (0%)
  160. Title                                    : Tenet.2020.IMAX.2160p.BluRay.REMUX.HEVC.DTS-HD.MA.5.1-FGT
  161. Language                                 : German
  162. Service kind                             : Complete Main
  163. Default                                  : No
  164. Forced                                   : No
  165. Original source medium                   : Blu-ray
  166. Audio #7
  167. ID                                       : 8
  168. ID in the original source medium         : 4358 (0x1106)
  169. Format                                   : AC-3
  170. Format/Info                              : Audio Coding 3
  171. Commercial name                          : Dolby Digital
  172. Codec ID                                 : A_AC3
  173. Duration                                 : 2 h 30 min
  174. Bit rate mode                            : Constant
  175. Bit rate                                 : 640 kb/s
  176. Channel(s)                               : 6 channels
  177. Channel layout                           : L R C LFE Ls Rs
  178. Sampling rate                            : 48.0 kHz
  179. Frame rate                               : 31.250 FPS (1536 SPF)
  180. Compression mode                         : Lossy
  181. Stream size                              : 687 MiB (1%)
  182. Title                                    : Tenet.2020.IMAX.2160p.BluRay.REMUX.HEVC.DTS-HD.MA.5.1-FGT
  183. Language                                 : Italian
  184. Service kind                             : Complete Main
  185. Default                                  : No
  186. Forced                                   : No
  187. Original source medium                   : Blu-ray
  188. Audio #8
  189. ID                                       : 9
  190. ID in the original source medium         : 4359 (0x1107)
  191. Format                                   : AC-3
  192. Format/Info                              : Audio Coding 3
  193. Commercial name                          : Dolby Digital
  194. Codec ID                                 : A_AC3
  195. Duration                                 : 2 h 30 min
  196. Bit rate mode                            : Constant
  197. Bit rate                                 : 640 kb/s
  198. Channel(s)                               : 6 channels
  199. Channel layout                           : L R C LFE Ls Rs
  200. Sampling rate                            : 48.0 kHz
  201. Frame rate                               : 31.250 FPS (1536 SPF)
  202. Compression mode                         : Lossy
  203. Stream size                              : 687 MiB (1%)
  204. Title                                    : Tenet.2020.IMAX.2160p.BluRay.REMUX.HEVC.DTS-HD.MA.5.1-FGT
  205. Language                                 : Spanish
  206. Service kind                             : Complete Main
  207. Default                                  : No
  208. Forced                                   : No
  209. Original source medium                   : Blu-ray
  210. Audio #9
  211. ID                                       : 10
  212. ID in the original source medium         : 4360 (0x1108)
  213. Format                                   : AC-3
  214. Format/Info                              : Audio Coding 3
  215. Commercial name                          : Dolby Digital
  216. Codec ID                                 : A_AC3
  217. Duration                                 : 2 h 30 min
  218. Bit rate mode                            : Constant
  219. Bit rate                                 : 640 kb/s
  220. Channel(s)                               : 6 channels
  221. Channel layout                           : L R C LFE Ls Rs
  222. Sampling rate                            : 48.0 kHz
  223. Frame rate                               : 31.250 FPS (1536 SPF)
  224. Compression mode                         : Lossy
  225. Stream size                              : 687 MiB (1%)
  226. Title                                    : Tenet.2020.IMAX.2160p.BluRay.REMUX.HEVC.DTS-HD.MA.5.1-FGT
  227. Language                                 : Spanish
  228. Service kind                             : Complete Main
  229. Default                                  : No
  230. Forced                                   : No
  231. Original source medium                   : Blu-ray
  232. Audio #10
  233. ID                                       : 11
  234. ID in the original source medium         : 4361 (0x1109)
  235. Format                                   : AC-3
  236. Format/Info                              : Audio Coding 3
  237. Commercial name                          : Dolby Digital
  238. Codec ID                                 : A_AC3
  239. Duration                                 : 2 h 30 min
  240. Bit rate mode                            : Constant
  241. Bit rate                                 : 640 kb/s
  242. Channel(s)                               : 6 channels
  243. Channel layout                           : L R C LFE Ls Rs
  244. Sampling rate                            : 48.0 kHz
  245. Frame rate                               : 31.250 FPS (1536 SPF)
  246. Compression mode                         : Lossy
  247. Stream size                              : 687 MiB (1%)
  248. Title                                    : Tenet.2020.IMAX.2160p.BluRay.REMUX.HEVC.DTS-HD.MA.5.1-FGT
  249. Language                                 : Czech
  250. Service kind                             : Complete Main
  251. Default                                  : No
  252. Forced                                   : No
  253. Original source medium                   : Blu-ray
  254. Audio #11
  255. ID                                       : 12
  256. ID in the original source medium         : 4362 (0x110A)
  257. Format                                   : AC-3
  258. Format/Info                              : Audio Coding 3
  259. Commercial name                          : Dolby Digital
  260. Codec ID                                 : A_AC3
  261. Duration                                 : 2 h 30 min
  262. Bit rate mode                            : Constant
  263. Bit rate                                 : 640 kb/s
  264. Channel(s)                               : 6 channels
  265. Channel layout                           : L R C LFE Ls Rs
  266. Sampling rate                            : 48.0 kHz
  267. Frame rate                               : 31.250 FPS (1536 SPF)
  268. Compression mode                         : Lossy
  269. Stream size                              : 687 MiB (1%)
  270. Title                                    : Tenet.2020.IMAX.2160p.BluRay.REMUX.HEVC.DTS-HD.MA.5.1-FGT
  271. Language                                 : Hindi
  272. Service kind                             : Complete Main
  273. Default                                  : No
  274. Forced                                   : No
  275. Original source medium                   : Blu-ray
  276. Audio #12
  277. ID                                       : 13
  278. ID in the original source medium         : 4363 (0x110B)
  279. Format                                   : AC-3
  280. Format/Info                              : Audio Coding 3
  281. Commercial name                          : Dolby Digital
  282. Codec ID                                 : A_AC3
  283. Duration                                 : 2 h 30 min
  284. Bit rate mode                            : Constant
  285. Bit rate                                 : 640 kb/s
  286. Channel(s)                               : 6 channels
  287. Channel layout                           : L R C LFE Ls Rs
  288. Sampling rate                            : 48.0 kHz
  289. Frame rate                               : 31.250 FPS (1536 SPF)
  290. Compression mode                         : Lossy
  291. Stream size                              : 687 MiB (1%)
  292. Title                                    : Tenet.2020.IMAX.2160p.BluRay.REMUX.HEVC.DTS-HD.MA.5.1-FGT
  293. Language                                 : Polish
  294. Service kind                             : Complete Main
  295. Default                                  : No
  296. Forced                                   : No
  297. Original source medium                   : Blu-ray
  298. Audio #13
  299. ID                                       : 14
  300. ID in the original source medium         : 4364 (0x110C)
  301. Format                                   : AC-3
  302. Format/Info                              : Audio Coding 3
  303. Commercial name                          : Dolby Digital
  304. Codec ID                                 : A_AC3
  305. Duration                                 : 2 h 30 min
  306. Bit rate mode                            : Constant
  307. Bit rate                                 : 640 kb/s
  308. Channel(s)                               : 6 channels
  309. Channel layout                           : L R C LFE Ls Rs
  310. Sampling rate                            : 48.0 kHz
  311. Frame rate                               : 31.250 FPS (1536 SPF)
  312. Compression mode                         : Lossy
  313. Stream size                              : 687 MiB (1%)
  314. Title                                    : Tenet.2020.IMAX.2160p.BluRay.REMUX.HEVC.DTS-HD.MA.5.1-FGT
  315. Language                                 : Thai
  316. Service kind                             : Complete Main
  317. Default                                  : No
  318. Forced                                   : No
  319. Original source medium                   : Blu-ray
  320. Audio #14
  321. ID                                       : 15
  322. ID in the original source medium         : 4365 (0x110D)
  323. Format                                   : AC-3
  324. Format/Info                              : Audio Coding 3
  325. Commercial name                          : Dolby Digital
  326. Codec ID                                 : A_AC3
  327. Duration                                 : 2 h 30 min
  328. Bit rate mode                            : Constant
  329. Bit rate                                 : 640 kb/s
  330. Channel(s)                               : 6 channels
  331. Channel layout                           : L R C LFE Ls Rs
  332. Sampling rate                            : 48.0 kHz
  333. Frame rate                               : 31.250 FPS (1536 SPF)
  334. Compression mode                         : Lossy
  335. Stream size                              : 687 MiB (1%)
  336. Title                                    : Tenet.2020.IMAX.2160p.BluRay.REMUX.HEVC.DTS-HD.MA.5.1-FGT
  337. Language                                 : Japanese
  338. Service kind                             : Complete Main
  339. Default                                  : No
  340. Forced                                   : No
  341. Original source medium                   : Blu-ray
  342. Text #1
  343. ID                                       : 16
  344. Format                                   : UTF-8
  345. Codec ID                                 : S_TEXT/UTF8
  346. Codec ID/Info                            : UTF-8 Plain Text
  347. Duration                                 : 2 h 25 min
  348. Bit rate                                 : 52 b/s
  349. Count of elements                        : 1872
  350. Stream size                              : 55.6 KiB (0%)
  351. Title                                    : English-SRT
  352. Language                                 : English
  353. Default                                  : Yes
  354. Forced                                   : No
  355. Text #2
  356. ID                                       : 17
  357. ID in the original source medium         : 4768 (0x12A0)
  358. Format                                   : PGS
  359. Muxing mode                              : zlib
  360. Codec ID                                 : S_HDMV/PGS
  361. Codec ID/Info                            : Picture based subtitle format used on BDs/HD-DVDs
  362. Duration                                 : 2 h 26 min
  363. Bit rate                                 : 36.4 kb/s
  364. Count of elements                        : 4274
  365. Stream size                              : 38.3 MiB (0%)
  366. Title                                    : English-PGS
  367. Language                                 : English
  368. Default                                  : No
  369. Forced                                   : No
  370. Original source medium                   : Blu-ray
  371. Text #3
  372. ID                                       : 18
  373. ID in the original source medium         : 4769 (0x12A1)
  374. Format                                   : PGS
  375. Muxing mode                              : zlib
  376. Codec ID                                 : S_HDMV/PGS
  377. Codec ID/Info                            : Picture based subtitle format used on BDs/HD-DVDs
  378. Duration                                 : 2 h 28 min
  379. Bit rate                                 : 26.0 kb/s
  380. Count of elements                        : 3586
  381. Stream size                              : 27.7 MiB (0%)
  382. Title                                    : French-PGS
  383. Language                                 : French
  384. Default                                  : No
  385. Forced                                   : No
  386. Original source medium                   : Blu-ray
  387. Text #4
  388. ID                                       : 19
  389. ID in the original source medium         : 4770 (0x12A2)
  390. Format                                   : PGS
  391. Muxing mode                              : zlib
  392. Codec ID                                 : S_HDMV/PGS
  393. Codec ID/Info                            : Picture based subtitle format used on BDs/HD-DVDs
  394. Duration                                 : 2 h 24 min
  395. Bit rate                                 : 37.8 kb/s
  396. Count of elements                        : 4126
  397. Stream size                              : 38.9 MiB (0%)
  398. Title                                    : German-PGS
  399. Language                                 : German
  400. Default                                  : No
  401. Forced                                   : No
  402. Original source medium                   : Blu-ray
  403. Text #5
  404. ID                                       : 20
  405. ID in the original source medium         : 4771 (0x12A3)
  406. Format                                   : PGS
  407. Muxing mode                              : zlib
  408. Codec ID                                 : S_HDMV/PGS
  409. Codec ID/Info                            : Picture based subtitle format used on BDs/HD-DVDs
  410. Duration                                 : 2 h 24 min
  411. Bit rate                                 : 35.5 kb/s
  412. Count of elements                        : 4220
  413. Stream size                              : 36.5 MiB (0%)
  414. Title                                    : Italian-PGS
  415. Language                                 : Italian
  416. Default                                  : No
  417. Forced                                   : No
  418. Original source medium                   : Blu-ray
  419. Text #6
  420. ID                                       : 21
  421. ID in the original source medium         : 4772 (0x12A4)
  422. Format                                   : PGS
  423. Muxing mode                              : zlib
  424. Codec ID                                 : S_HDMV/PGS
  425. Codec ID/Info                            : Picture based subtitle format used on BDs/HD-DVDs
  426. Duration                                 : 2 h 28 min
  427. Bit rate                                 : 32.2 kb/s
  428. Count of elements                        : 3668
  429. Stream size                              : 34.2 MiB (0%)
  430. Title                                    : Spanish-PGS
  431. Language                                 : Spanish
  432. Default                                  : No
  433. Forced                                   : No
  434. Original source medium                   : Blu-ray
  435. Text #7
  436. ID                                       : 22
  437. ID in the original source medium         : 4773 (0x12A5)
  438. Format                                   : PGS
  439. Muxing mode                              : zlib
  440. Codec ID                                 : S_HDMV/PGS
  441. Codec ID/Info                            : Picture based subtitle format used on BDs/HD-DVDs
  442. Duration                                 : 2 h 28 min
  443. Bit rate                                 : 29.0 kb/s
  444. Count of elements                        : 2790
  445. Stream size                              : 30.8 MiB (0%)
  446. Title                                    : Dutch-PGS
  447. Language                                 : Dutch
  448. Default                                  : No
  449. Forced                                   : No
  450. Original source medium                   : Blu-ray
  451. Text #8
  452. ID                                       : 23
  453. ID in the original source medium         : 4774 (0x12A6)
  454. Format                                   : PGS
  455. Muxing mode                              : zlib
  456. Codec ID                                 : S_HDMV/PGS
  457. Codec ID/Info                            : Picture based subtitle format used on BDs/HD-DVDs
  458. Duration                                 : 2 h 22 min
  459. Bit rate                                 : 30.9 kb/s
  460. Count of elements                        : 3350
  461. Stream size                              : 31.5 MiB (0%)
  462. Title                                    : Chinese-PGS
  463. Language                                 : Chinese
  464. Default                                  : No
  465. Forced                                   : No
  466. Original source medium                   : Blu-ray
  467. Text #9
  468. ID                                       : 24
  469. ID in the original source medium         : 4775 (0x12A7)
  470. Format                                   : PGS
  471. Muxing mode                              : zlib
  472. Codec ID                                 : S_HDMV/PGS
  473. Codec ID/Info                            : Picture based subtitle format used on BDs/HD-DVDs
  474. Duration                                 : 2 h 22 min
  475. Bit rate                                 : 32.8 kb/s
  476. Count of elements                        : 3520
  477. Stream size                              : 33.5 MiB (0%)
  478. Title                                    : Chinese-PGS
  479. Language                                 : Chinese
  480. Default                                  : No
  481. Forced                                   : No
  482. Original source medium                   : Blu-ray
  483. Text #10
  484. ID                                       : 25
  485. ID in the original source medium         : 4776 (0x12A8)
  486. Format                                   : PGS
  487. Muxing mode                              : zlib
  488. Codec ID                                 : S_HDMV/PGS
  489. Codec ID/Info                            : Picture based subtitle format used on BDs/HD-DVDs
  490. Duration                                 : 2 h 28 min
  491. Bit rate                                 : 29.6 kb/s
  492. Count of elements                        : 3640
  493. Stream size                              : 31.4 MiB (0%)
  494. Title                                    : Chinese-PGS
  495. Language                                 : Chinese
  496. Default                                  : No
  497. Forced                                   : No
  498. Original source medium                   : Blu-ray
  499. Text #11
  500. ID                                       : 26
  501. ID in the original source medium         : 4777 (0x12A9)
  502. Format                                   : PGS
  503. Muxing mode                              : zlib
  504. Codec ID                                 : S_HDMV/PGS
  505. Codec ID/Info                            : Picture based subtitle format used on BDs/HD-DVDs
  506. Duration                                 : 2 h 28 min
  507. Bit rate                                 : 18.4 kb/s
  508. Count of elements                        : 3544
  509. Stream size                              : 19.6 MiB (0%)
  510. Title                                    : Korean-PGS
  511. Language                                 : Korean
  512. Default                                  : No
  513. Forced                                   : No
  514. Original source medium                   : Blu-ray
  515. Text #12
  516. ID                                       : 27
  517. ID in the original source medium         : 4778 (0x12AA)
  518. Format                                   : PGS
  519. Muxing mode                              : zlib
  520. Codec ID                                 : S_HDMV/PGS
  521. Codec ID/Info                            : Picture based subtitle format used on BDs/HD-DVDs
  522. Duration                                 : 2 h 22 min
  523. Bit rate                                 : 33.8 kb/s
  524. Count of elements                        : 3656
  525. Stream size                              : 34.5 MiB (0%)
  526. Title                                    : Spanish-PGS
  527. Language                                 : Spanish
  528. Default                                  : No
  529. Forced                                   : No
  530. Original source medium                   : Blu-ray
  531. Text #13
  532. ID                                       : 28
  533. ID in the original source medium         : 4779 (0x12AB)
  534. Format                                   : PGS
  535. Muxing mode                              : zlib
  536. Codec ID                                 : S_HDMV/PGS
  537. Codec ID/Info                            : Picture based subtitle format used on BDs/HD-DVDs
  538. Duration                                 : 2 h 28 min
  539. Bit rate                                 : 27.4 kb/s
  540. Count of elements                        : 3646
  541. Stream size                              : 29.1 MiB (0%)
  542. Title                                    : Czech-PGS
  543. Language                                 : Czech
  544. Default                                  : No
  545. Forced                                   : No
  546. Original source medium                   : Blu-ray
  547. Text #14
  548. ID                                       : 29
  549. ID in the original source medium         : 4780 (0x12AC)
  550. Format                                   : PGS
  551. Muxing mode                              : zlib
  552. Codec ID                                 : S_HDMV/PGS
  553. Codec ID/Info                            : Picture based subtitle format used on BDs/HD-DVDs
  554. Duration                                 : 2 h 28 min
  555. Bit rate                                 : 29.5 kb/s
  556. Count of elements                        : 2554
  557. Stream size                              : 31.3 MiB (0%)
  558. Title                                    : Danish-PGS
  559. Language                                 : Danish
  560. Default                                  : No
  561. Forced                                   : No
  562. Original source medium                   : Blu-ray
  563. Text #15
  564. ID                                       : 30
  565. ID in the original source medium         : 4781 (0x12AD)
  566. Format                                   : PGS
  567. Muxing mode                              : zlib
  568. Codec ID                                 : S_HDMV/PGS
  569. Codec ID/Info                            : Picture based subtitle format used on BDs/HD-DVDs
  570. Duration                                 : 2 h 28 min
  571. Bit rate                                 : 32.6 kb/s
  572. Count of elements                        : 3692
  573. Stream size                              : 34.6 MiB (0%)
  574. Title                                    : Finnish-PGS
  575. Language                                 : Finnish
  576. Default                                  : No
  577. Forced                                   : No
  578. Original source medium                   : Blu-ray
  579. Text #16
  580. ID                                       : 31
  581. ID in the original source medium         : 4782 (0x12AE)
  582. Format                                   : PGS
  583. Muxing mode                              : zlib
  584. Codec ID                                 : S_HDMV/PGS
  585. Codec ID/Info                            : Picture based subtitle format used on BDs/HD-DVDs
  586. Duration                                 : 2 h 28 min
  587. Bit rate                                 : 26.6 kb/s
  588. Count of elements                        : 2596
  589. Stream size                              : 28.2 MiB (0%)
  590. Title                                    : Hungarian-PGS
  591. Language                                 : Hungarian
  592. Default                                  : No
  593. Forced                                   : No
  594. Original source medium                   : Blu-ray
  595. Text #17
  596. ID                                       : 32
  597. ID in the original source medium         : 4783 (0x12AF)
  598. Format                                   : PGS
  599. Muxing mode                              : zlib
  600. Codec ID                                 : S_HDMV/PGS
  601. Codec ID/Info                            : Picture based subtitle format used on BDs/HD-DVDs
  602. Duration                                 : 2 h 28 min
  603. Bit rate                                 : 28.1 kb/s
  604. Count of elements                        : 2622
  605. Stream size                              : 29.8 MiB (0%)
  606. Title                                    : Norwegian-PGS
  607. Language                                 : Norwegian
  608. Default                                  : No
  609. Forced                                   : No
  610. Original source medium                   : Blu-ray
  611. Text #18
  612. ID                                       : 33
  613. ID in the original source medium         : 4784 (0x12B0)
  614. Format                                   : PGS
  615. Muxing mode                              : zlib
  616. Codec ID                                 : S_HDMV/PGS
  617. Codec ID/Info                            : Picture based subtitle format used on BDs/HD-DVDs
  618. Duration                                 : 2 h 28 min
  619. Bit rate                                 : 26.2 kb/s
  620. Count of elements                        : 3550
  621. Stream size                              : 27.9 MiB (0%)
  622. Title                                    : Polish-PGS
  623. Language                                 : Polish
  624. Default                                  : No
  625. Forced                                   : No
  626. Original source medium                   : Blu-ray
  627. Text #19
  628. ID                                       : 34
  629. ID in the original source medium         : 4785 (0x12B1)
  630. Format                                   : PGS
  631. Muxing mode                              : zlib
  632. Codec ID                                 : S_HDMV/PGS
  633. Codec ID/Info                            : Picture based subtitle format used on BDs/HD-DVDs
  634. Duration                                 : 2 h 28 min
  635. Bit rate                                 : 30.3 kb/s
  636. Count of elements                        : 3636
  637. Stream size                              : 32.2 MiB (0%)
  638. Title                                    : Portuguese-PGS
  639. Language                                 : Portuguese
  640. Default                                  : No
  641. Forced                                   : No
  642. Original source medium                   : Blu-ray
  643. Text #20
  644. ID                                       : 35
  645. ID in the original source medium         : 4786 (0x12B2)
  646. Format                                   : PGS
  647. Muxing mode                              : zlib
  648. Codec ID                                 : S_HDMV/PGS
  649. Codec ID/Info                            : Picture based subtitle format used on BDs/HD-DVDs
  650. Duration                                 : 2 h 28 min
  651. Bit rate                                 : 29.6 kb/s
  652. Count of elements                        : 2758
  653. Stream size                              : 31.5 MiB (0%)
  654. Title                                    : Swedish-PGS
  655. Language                                 : Swedish
  656. Default                                  : No
  657. Forced                                   : No
  658. Original source medium                   : Blu-ray
  659. Text #21
  660. ID                                       : 36
  661. ID in the original source medium         : 4787 (0x12B3)
  662. Format                                   : PGS
  663. Muxing mode                              : zlib
  664. Codec ID                                 : S_HDMV/PGS
  665. Codec ID/Info                            : Picture based subtitle format used on BDs/HD-DVDs
  666. Duration                                 : 2 h 28 min
  667. Bit rate                                 : 28.8 kb/s
  668. Count of elements                        : 3684
  669. Stream size                              : 30.6 MiB (0%)
  670. Title                                    : Thai-PGS
  671. Language                                 : Thai
  672. Default                                  : No
  673. Forced                                   : No
  674. Original source medium                   : Blu-ray
  675. Text #22
  676. ID                                       : 37
  677. ID in the original source medium         : 4788 (0x12B4)
  678. Format                                   : PGS
  679. Muxing mode                              : zlib
  680. Codec ID                                 : S_HDMV/PGS
  681. Codec ID/Info                            : Picture based subtitle format used on BDs/HD-DVDs
  682. Duration                                 : 2 h 12 min
  683. Bit rate                                 : 228 b/s
  684. Count of elements                        : 28
  685. Stream size                              : 221 KiB (0%)
  686. Title                                    : French-FORCED-PGS
  687. Language                                 : French
  688. Default                                  : No
  689. Forced                                   : No
  690. Original source medium                   : Blu-ray
  691. Text #23
  692. ID                                       : 38
  693. ID in the original source medium         : 4789 (0x12B5)
  694. Format                                   : PGS
  695. Muxing mode                              : zlib
  696. Codec ID                                 : S_HDMV/PGS
  697. Codec ID/Info                            : Picture based subtitle format used on BDs/HD-DVDs
  698. Duration                                 : 2 h 12 min
  699. Bit rate                                 : 204 b/s
  700. Count of elements                        : 34
  701. Stream size                              : 198 KiB (0%)
  702. Title                                    : French-FORCED-PGS
  703. Language                                 : French
  704. Default                                  : No
  705. Forced                                   : No
  706. Original source medium                   : Blu-ray
  707. Text #24
  708. ID                                       : 39
  709. ID in the original source medium         : 4790 (0x12B6)
  710. Format                                   : PGS
  711. Muxing mode                              : zlib
  712. Codec ID                                 : S_HDMV/PGS
  713. Codec ID/Info                            : Picture based subtitle format used on BDs/HD-DVDs
  714. Duration                                 : 2 h 12 min
  715. Bit rate                                 : 144 b/s
  716. Count of elements                        : 22
  717. Stream size                              : 140 KiB (0%)
  718. Title                                    : German-FORCED-PGS
  719. Language                                 : German
  720. Default                                  : No
  721. Forced                                   : No
  722. Original source medium                   : Blu-ray
  723. Text #25
  724. ID                                       : 40
  725. ID in the original source medium         : 4791 (0x12B7)
  726. Format                                   : PGS
  727. Muxing mode                              : zlib
  728. Codec ID                                 : S_HDMV/PGS
  729. Codec ID/Info                            : Picture based subtitle format used on BDs/HD-DVDs
  730. Duration                                 : 2 h 12 min
  731. Bit rate                                 : 216 b/s
  732. Count of elements                        : 32
  733. Stream size                              : 210 KiB (0%)
  734. Title                                    : Italian-FORCED-PGS
  735. Language                                 : Italian
  736. Default                                  : No
  737. Forced                                   : No
  738. Original source medium                   : Blu-ray
  739. Text #26
  740. ID                                       : 41
  741. ID in the original source medium         : 4792 (0x12B8)
  742. Format                                   : PGS
  743. Muxing mode                              : zlib
  744. Codec ID                                 : S_HDMV/PGS
  745. Codec ID/Info                            : Picture based subtitle format used on BDs/HD-DVDs
  746. Duration                                 : 2 h 12 min
  747. Bit rate                                 : 204 b/s
  748. Count of elements                        : 32
  749. Stream size                              : 198 KiB (0%)
  750. Title                                    : Spanish-FORCED-PGS
  751. Language                                 : Spanish
  752. Default                                  : No
  753. Forced                                   : No
  754. Original source medium                   : Blu-ray
  755. Text #27
  756. ID                                       : 42
  757. ID in the original source medium         : 4793 (0x12B9)
  758. Format                                   : PGS
  759. Muxing mode                              : zlib
  760. Codec ID                                 : S_HDMV/PGS
  761. Codec ID/Info                            : Picture based subtitle format used on BDs/HD-DVDs
  762. Duration                                 : 104 ms
  763. Bit rate                                 : 5 384 b/s
  764. Count of elements                        : 2
  765. Stream size                              : 70.0 Bytes (0%)
  766. Title                                    : Spanish-FORCED-PGS
  767. Language                                 : Spanish
  768. Default                                  : No
  769. Forced                                   : No
  770. Original source medium                   : Blu-ray
  771. Text #28
  772. ID                                       : 43
  773. ID in the original source medium         : 4794 (0x12BA)
  774. Format                                   : PGS
  775. Muxing mode                              : zlib
  776. Codec ID                                 : S_HDMV/PGS
  777. Codec ID/Info                            : Picture based subtitle format used on BDs/HD-DVDs
  778. Duration                                 : 2 h 12 min
  779. Bit rate                                 : 146 b/s
  780. Count of elements                        : 28
  781. Stream size                              : 142 KiB (0%)
  782. Title                                    : Czech-FORCED-PGS
  783. Language                                 : Czech
  784. Default                                  : No
  785. Forced                                   : No
  786. Original source medium                   : Blu-ray
  787. Text #29
  788. ID                                       : 44
  789. ID in the original source medium         : 4795 (0x12BB)
  790. Format                                   : PGS
  791. Muxing mode                              : zlib
  792. Codec ID                                 : S_HDMV/PGS
  793. Codec ID/Info                            : Picture based subtitle format used on BDs/HD-DVDs
  794. Duration                                 : 2 h 12 min
  795. Bit rate                                 : 154 b/s
  796. Count of elements                        : 28
  797. Stream size                              : 149 KiB (0%)
  798. Title                                    : Hindi-FORCED-PGS
  799. Language                                 : Hindi
  800. Default                                  : No
  801. Forced                                   : No
  802. Original source medium                   : Blu-ray
  803. Text #30
  804. ID                                       : 45
  805. ID in the original source medium         : 4796 (0x12BC)
  806. Format                                   : PGS
  807. Muxing mode                              : zlib
  808. Codec ID                                 : S_HDMV/PGS
  809. Codec ID/Info                            : Picture based subtitle format used on BDs/HD-DVDs
  810. Duration                                 : 2 h 21 min
  811. Bit rate                                 : 276 b/s
  812. Count of elements                        : 52
  813. Stream size                              : 287 KiB (0%)
  814. Title                                    : Thai-FORCED-PGS
  815. Language                                 : Thai
  816. Default                                  : No
  817. Forced                                   : No
  818. Original source medium                   : Blu-ray
  819. Text #31
  820. ID                                       : 46
  821. ID in the original source medium         : 4797 (0x12BD)
  822. Format                                   : PGS
  823. Muxing mode                              : zlib
  824. Codec ID                                 : S_HDMV/PGS
  825. Codec ID/Info                            : Picture based subtitle format used on BDs/HD-DVDs
  826. Duration                                 : 2 h 22 min
  827. Bit rate                                 : 19.9 kb/s
  828. Count of elements                        : 3243
  829. Stream size                              : 20.3 MiB (0%)
  830. Title                                    : Japanese-PGS
  831. Language                                 : Japanese
  832. Default                                  : No
  833. Forced                                   : No
  834. Original source medium                   : Blu-ray
  835. Text #32
  836. ID                                       : 47
  837. ID in the original source medium         : 4798 (0x12BE)
  838. Format                                   : PGS
  839. Muxing mode                              : zlib
  840. Codec ID                                 : S_HDMV/PGS
  841. Codec ID/Info                            : Picture based subtitle format used on BDs/HD-DVDs
  842. Duration                                 : 2 h 12 min
  843. Bit rate                                 : 187 b/s
  844. Count of elements                        : 36
  845. Stream size                              : 182 KiB (0%)
  846. Title                                    : Japanese-FORCED-PGS
  847. Language                                 : Japanese
  848. Default                                  : No
  849. Forced                                   : No
  850. Original source medium                   : Blu-ray
  851. Menu
  852. 00:00:00.000                             : en:Chapter 01
  853. 00:09:39.412                             : en:Chapter 02
  854. 00:19:30.502                             : en:Chapter 03
  855. 00:28:18.238                             : en:Chapter 04
  856. 00:38:49.368                             : en:Chapter 05
  857. 00:49:20.165                             : en:Chapter 06
  858. 01:00:33.254                             : en:Chapter 07
  859. 01:09:41.260                             : en:Chapter 08
  860. 01:22:36.368                             : en:Chapter 09
  861. 01:30:54.740                             : en:Chapter 10
  862. 01:39:40.391                             : en:Chapter 11
  863. 01:51:02.572                             : en:Chapter 12
  864. 01:59:40.756                             : en:Chapter 13
  865. 02:11:42.853                             : en:Chapter 14
  866. 02:19:06.838                             : en:Chapter 15
复制代码



                                       
                                       

                                       
                                       
                                       




回复

使用道具 举报

懒得打字嘛,点击右侧快捷回复 【右侧内容,后台自定义】
您需要登录后才可以回帖 登录 | 立即加入

本版积分规则

Archiver|小黑屋| 蓝光电影网 |网站地图

Copyright © 2021 Comsenz Inc. Powered by 蓝光电影网

蓝光电影网

本站内容由用户自主分享和转载自互联网,转载目的在于传递更多信息,并不代表本网赞同其观点和对其真实性负责。

如有侵权、违反国家法律政策行为,请联系我们,我们会第一时间及时清除和处理!

举报反馈邮箱:4k1080.com@gmail.com

快速回复 返回顶部 返回列表