找回密码

蓝光电影网

查看: 124|回复: 0

[UHD.HEVC] 霍比特人2:史矛革之战 The.Hobbit.The.Desolation.of.Smaug.2013.EXTENDED.2160p.BluRay.REMUX.HEVC.DTS-HD.MA.TrueHD.7.1.Atmos-FGT 84.93GB

[复制链接]
蓝光币
1082
发表于 2020-12-3 10:20:46 | 显示全部楼层 |阅读模式


◎译  名 霍比特人2:史矛革之战/The Hobbit: Part 2/哈比人:荒谷恶龙(台)/哈比人:荒谷魔龙(港)/指环王前传:霍比特人(中)/霍比特人2:史矛革荒凉/霍比特人2:斯毛戈荒凉
◎片  名 The Hobbit: The Desolation of Smaug
◎年  代 2013
◎产  地 美国,新西兰
◎类  别 行动 / 奇异 / 冒险
◎语  言 英语
◎上映日期 2013-12-13(美国) / 2014-02-21(中国大陆)
◎IMDb评分  7.8/10 from 595670 users
◎IMDb链接  https://www.imdb.com/title/tt1170358/
◎豆瓣评分 8.4/10 from 300410 users
◎豆瓣链接 https://movie.douban.com/subject/11606328/
◎片  长 161分钟
◎导  演 彼得·杰克逊 Peter Jackson
◎编  剧 J·R·R·托尔金 J.R.R. Tolkien / 弗兰·威尔士 Fran Walsh / 菲利帕·鲍恩斯 Philippa Boyens / 彼得·杰克逊 Peter Jackson / 吉尔莫·德尔·托罗 Guillermo del Toro
◎主  演 伊恩·麦克莱恩 Ian McKellen
       马丁·弗瑞曼 Martin Freeman
       理查德·阿米蒂奇 Richard Armitage
       本尼迪克特·康伯巴奇 Benedict Cumberbatch
       奥兰多·布鲁姆 Orlando Bloom
       伊万杰琳·莉莉 Evangeline Lilly
       李·佩斯 Lee Pace
       卢克·伊万斯 Luke Evans
       斯蒂芬·弗雷 Stephen Fry
       肯·斯托特 Ken Stott
       詹姆斯·内斯比特 James Nesbitt
       约翰·贝尔 John Bell
       马努·贝内特 Manu Bennett
       杰德·布罗菲 Jed Brophy
       亚当·布朗 Adam Brown
       约翰·凯伦 John Callen
       瑞安·盖奇 Ryan Gage
       马克·哈德洛 Mark Hadlow
       彼得·汉布尔顿 Peter Hambleton
       斯蒂芬·亨特 Stephen Hunter
       威廉·基尔舍 William Kircher
       西尔维斯特·迈可伊 Sylvester McCoy
       格拉汉姆·麦克泰维什 Graham McTavish
       迪恩·奥戈曼 Dean O'Gorman
       米卡埃尔·佩斯布兰特 Mikael Persbrandt
       艾丹·特纳 Aidan Turner
       劳伦斯·马克奥雷 Lawrence Makoare
       克里格·霍尔 Craig Hall
       达拉斯·巴内特 Dallas Barnett
       格雷格·埃利斯 Greg Ellis
       史蒂芬·寇贝尔 Stephen Colbert
       彼得·杰克逊 Peter Jackson
       姜广涛 Guangtao Jiang
       泰瑞·诺塔里 Terry Notary
       佩吉·内斯比特 Peggy Nesbitt
       玛丽·内斯比特 Mary Nesbitt
       伊利亚·伍德 Elijah Wood
       雨果·维文 Hugo Weaving
       凯特·布兰切特 Cate Blanchett
       Robin Kerr
       克里斯托弗·李 Christopher Lee
◎标  签 魔幻 | 魔戒 | 史诗 | 美国 | 奇异 | 美国电影 | 2013 | 冒险
◎简  介


  间隔孤山越来越近,矮人远征军的门路却变得异常艰险。他们躲过了苍白半兽人的不懈追杀,在阴暗密林前和甘道夫(伊恩·麦凯伦 Ian McKellen 饰)兵分两路,后者前往多尔哥多探访索伦的意向,而霍比特人比尔博·巴金斯(马丁·弗里曼 Martin John C. Freeman 饰)和矮人们先是遭到庞大蜘蛛的攻击,随后又被精灵王子莱戈拉斯(奥兰多·布鲁姆 Orlando Bloom 饰)及其木精灵同伴捕捉。比尔博情急智生,操纵魔戒救出伙伴,继而激发了木精灵、半兽人和矮人远征军之间出色纷呈的三方会战。借助巴德(卢克·伊万斯 Luke Evans 饰)的帮助,疲惫的矮人们临时落脚长湖镇。近在天涯的孤山城堡,沉睡在玉帛中的巨龙行将醒来……
  
  本片按照J.R.R·托尔金的同名原著改编。
◎获奖情况
  第86届奥斯卡金像奖 ?(2014)
  最好视觉结果(提名) 大卫·克莱顿?/?埃里克·赛恩登?/?乔·莱特瑞?/?埃里克·雷诺兹
  最好混音(提名) 迈克·亨吉斯?/?托尼·约翰逊?/?克里斯托弗·博伊斯?/?迈克尔·斯曼外科
  最好音效剪辑(提名) 布伦特·布鲁格
  
  第42届动画安妮奖 ?(2015)
  最好真人电影动画结果(提名) 阿雷托·埃切瓦里亚
  最好真人电影动画脚色(提名) 大卫·克莱顿?/?埃里克·雷诺兹
  
  第23届MTV电影奖 ?(2014)
  MTV电影奖年度电影(提名)
  MTV电影奖最好打架(提名)
  MTV电影奖最好银幕形象改变(提名) 奥兰多·布鲁姆
  MTV电影奖最好豪杰形象(提名) 马丁·弗瑞曼
  
  第16届美国打扮设想工会奖 ?(2014)
  科幻/奇异题材电影最好打扮设想(提名) 鲍勃·巴克?/?安·马斯克里?/?理查德·泰勒
  
  第61届美国音效剪辑协会奖 ?(2014)
  金卷轴奖最好电影音效剪辑(提名) 大卫·法默?/?克里斯·瓦尔德?/?海顿·科娄?/?克雷格·汤姆林森?/?贾斯汀·维布斯特?/?戴夫·怀特海德?/?梅兰妮·格拉汉姆?/?约翰·辛普森
  金卷轴奖最好配乐剪辑(提名) 乔纳森·舒尔茨?/?史蒂夫·加拉格尔?/?尼杰尔·斯科特?/?马克·威尔舍尔?/?基尔斯蒂·瓦利
  
  第12届美国视觉结果协会奖 ?(2014)
  最好殊效电影视觉结果(提名) 大卫·克莱顿?/?埃里克·赛恩登?/?乔·莱特瑞
  最好真人电影CG动画脚色 大卫·克莱顿?/?埃里克·雷诺兹
  最好电影虚拟摄影(提名) 克里斯蒂安·瑞沃斯?/?塞尔温·卡贝扎斯
  最好真人电影模拟动画结果(提名) 阿雷托·埃切瓦里亚
  最好电影视觉结果分解(提名) 朱塞佩·泰格利亚维尼?/?查尔斯·泰特?/?罗宾·霍兰德尔
  
  第19届美国批评家挑选电影奖 ?(2014)
  行动片最好女配角(提名) 伊万杰琳·莉莉
  最好美术指导(提名) 丹·汉纳?/?拉·文森特
  最好打扮设想(提名) 鲍勃·巴克?/?LesleyBurkes-Harding?/?安·马斯克里?/?理查德·泰勒
  最好发型化装(提名)
  最好视觉结果(提名)
  
  第18届金卫星奖 ?(2014)
  电影部分最好原创歌曲(提名)
  
  第13届凤凰城影评人协会奖 ?(2013)
  最好原创配乐(提名) 霍华德·肖
  
  第16届美国青少年挑选奖 ?(2014)
  最好动画配音(提名) 本尼迪克特·康伯巴奇
  
  第1届豆瓣电影年度榜单 ?(2014)
  2月最受关注电影(提名)
  1. Video
  2. ID                                       : 1
  3. ID in the original source medium         : 4113 (0x1011)
  4. Format                                   : HEVC
  5. Format/Info                              : High Efficiency Video Coding
  6. Format profile                           : Main [email protected]@High
  7. HDR format                               : SMPTE ST 2086, HDR10 compatible
  8. Codec ID                                 : V_MPEGH/ISO/HEVC
  9. Duration                                 : 3 h 6 min
  10. Bit rate                                 : 55.7 Mb/s
  11. Width                                    : 3 840 pixels
  12. Height                                   : 2 160 pixels
  13. Display aspect ratio                     : 16:9
  14. Frame rate mode                          : Constant
  15. Frame rate                               : 23.976 (24000/1001/189150) FPS
  16. Color space                              : YUV
  17. Chroma subsampling                       : 4:2:0 (Type 2)
  18. Bit depth                                : 10 bits
  19. Bits/(Pixel*Frame)                       : 0.280
  20. Stream size                              : 72.6 GiB (86%)
  21. Title                                    : The.Hobbit.The.Desolation.of.Smaug.2013.EXTENDED.2160p.BluRay.REMUX.HEVC.DTS-HD.MA.TrueHD.7.1.Atmos-FGT
  22. Language                                 : English
  23. Default                                  : No
  24. Forced                                   : No
  25. Color range                              : Limited
  26. Color primaries                          : BT.2020
  27. Transfer characteristics                 : PQ
  28. Matrix coefficients                      : BT.2020 non-constant
  29. Mastering display color primaries        : Display P3
  30. Mastering display luminance              : min: 0.0050 cd/m2, max: 4000 cd/m2
  31. Maximum Content Light Level              : 1122 cd/m2
  32. Maximum Frame-Average Light Level        : 216 cd/m2
  33. Original source medium                   : Blu-ray
  34. Audio #1
  35. ID                                       : 2
  36. ID in the original source medium         : 4352 (0x1100)
  37. Format                                   : MLP FBA 16-ch
  38. Format/Info                              : Meridian Lossless Packing FBA with 16-channel presentation
  39. Commercial name                          : Dolby TrueHD with Dolby Atmos
  40. Codec ID                                 : A_TRUEHD
  41. Duration                                 : 3 h 6 min
  42. Bit rate mode                            : Variable
  43. Bit rate                                 : 3 200 kb/s
  44. Maximum bit rate                         : 5 031 kb/s
  45. Channel(s)                               : 8 channels
  46. Channel layout                           : L R C LFE Ls Rs Lb Rb
  47. Sampling rate                            : 48.0 kHz
  48. Frame rate                               : 1 200.000 FPS (40 SPF)
  49. Compression mode                         : Lossless
  50. Stream size                              : 4.17 GiB (5%)
  51. Title                                    : The.Hobbit.The.Desolation.of.Smaug.2013.EXTENDED.2160p.BluRay.REMUX.HEVC.DTS-HD.MA.TrueHD.7.1.Atmos-FGT
  52. Language                                 : English
  53. Default                                  : Yes
  54. Forced                                   : No
  55. Original source medium                   : Blu-ray
  56. Number of dynamic objects                : 11
  57. Bed channel count                        : 1 channel
  58. Bed channel configuration                : LFE
  59. Audio #2
  60. ID                                       : 3
  61. Format                                   : DTS XLL
  62. Format/Info                              : Digital Theater Systems
  63. Commercial name                          : DTS-HD Master Audio
  64. Codec ID                                 : A_DTS
  65. Duration                                 : 3 h 6 min
  66. Bit rate mode                            : Variable
  67. Bit rate                                 : 4 257 kb/s
  68. Channel(s)                               : 8 channels
  69. Channel layout                           : C L R LFE Lb Rb Lss Rss
  70. Sampling rate                            : 48.0 kHz
  71. Frame rate                               : 93.750 FPS (512 SPF)
  72. Bit depth                                : 24 bits
  73. Compression mode                         : Lossless
  74. Stream size                              : 5.55 GiB (7%)
  75. Title                                    : The.Hobbit.The.Desolation.of.Smaug.2013.EXTENDED.2160p.BluRay.REMUX.HEVC.DTS-HD.MA.TrueHD.7.1.Atmos-FGT
  76. Language                                 : English
  77. Default                                  : No
  78. Forced                                   : No
  79. Audio #3
  80. ID                                       : 4
  81. ID in the original source medium         : 4352 (0x1100)
  82. Format                                   : AC-3
  83. Format/Info                              : Audio Coding 3
  84. Commercial name                          : Dolby Digital
  85. Codec ID                                 : A_AC3
  86. Duration                                 : 3 h 6 min
  87. Bit rate mode                            : Constant
  88. Bit rate                                 : 448 kb/s
  89. Channel(s)                               : 6 channels
  90. Channel layout                           : L R C LFE Ls Rs
  91. Sampling rate                            : 48.0 kHz
  92. Frame rate                               : 31.250 FPS (1536 SPF)
  93. Compression mode                         : Lossy
  94. Stream size                              : 598 MiB (1%)
  95. Title                                    : The.Hobbit.The.Desolation.of.Smaug.2013.EXTENDED.2160p.BluRay.REMUX.HEVC.DTS-HD.MA.TrueHD.7.1.Atmos-FGT
  96. Language                                 : English
  97. Service kind                             : Complete Main
  98. Default                                  : No
  99. Forced                                   : No
  100. Original source medium                   : Blu-ray
  101. Audio #4
  102. ID                                       : 5
  103. ID in the original source medium         : 4353 (0x1101)
  104. Format                                   : AC-3
  105. Format/Info                              : Audio Coding 3
  106. Commercial name                          : Dolby Digital
  107. Codec ID                                 : A_AC3
  108. Duration                                 : 3 h 6 min
  109. Bit rate mode                            : Constant
  110. Bit rate                                 : 448 kb/s
  111. Channel(s)                               : 6 channels
  112. Channel layout                           : L R C LFE Ls Rs
  113. Sampling rate                            : 48.0 kHz
  114. Frame rate                               : 31.250 FPS (1536 SPF)
  115. Compression mode                         : Lossy
  116. Stream size                              : 598 MiB (1%)
  117. Title                                    : The.Hobbit.The.Desolation.of.Smaug.2013.EXTENDED.2160p.BluRay.REMUX.HEVC.DTS-HD.MA.TrueHD.7.1.Atmos-FGT
  118. Language                                 : Italian
  119. Service kind                             : Complete Main
  120. Default                                  : No
  121. Forced                                   : No
  122. Original source medium                   : Blu-ray
  123. Audio #5
  124. ID                                       : 6
  125. ID in the original source medium         : 4354 (0x1102)
  126. Format                                   : AC-3
  127. Format/Info                              : Audio Coding 3
  128. Commercial name                          : Dolby Digital
  129. Codec ID                                 : A_AC3
  130. Duration                                 : 3 h 6 min
  131. Bit rate mode                            : Constant
  132. Bit rate                                 : 448 kb/s
  133. Channel(s)                               : 6 channels
  134. Channel layout                           : L R C LFE Ls Rs
  135. Sampling rate                            : 48.0 kHz
  136. Frame rate                               : 31.250 FPS (1536 SPF)
  137. Compression mode                         : Lossy
  138. Stream size                              : 598 MiB (1%)
  139. Title                                    : The.Hobbit.The.Desolation.of.Smaug.2013.EXTENDED.2160p.BluRay.REMUX.HEVC.DTS-HD.MA.TrueHD.7.1.Atmos-FGT
  140. Language                                 : Spanish
  141. Service kind                             : Complete Main
  142. Default                                  : No
  143. Forced                                   : No
  144. Original source medium                   : Blu-ray
  145. Audio #6
  146. ID                                       : 7
  147. ID in the original source medium         : 4355 (0x1103)
  148. Format                                   : AC-3
  149. Format/Info                              : Audio Coding 3
  150. Commercial name                          : Dolby Digital
  151. Codec ID                                 : A_AC3
  152. Duration                                 : 3 h 6 min
  153. Bit rate mode                            : Constant
  154. Bit rate                                 : 448 kb/s
  155. Channel(s)                               : 6 channels
  156. Channel layout                           : L R C LFE Ls Rs
  157. Sampling rate                            : 48.0 kHz
  158. Frame rate                               : 31.250 FPS (1536 SPF)
  159. Compression mode                         : Lossy
  160. Stream size                              : 598 MiB (1%)
  161. Title                                    : The.Hobbit.The.Desolation.of.Smaug.2013.EXTENDED.2160p.BluRay.REMUX.HEVC.DTS-HD.MA.TrueHD.7.1.Atmos-FGT
  162. Language                                 : Czech
  163. Service kind                             : Complete Main
  164. Default                                  : No
  165. Forced                                   : No
  166. Original source medium                   : Blu-ray
  167. Text #1
  168. ID                                       : 8
  169. Format                                   : UTF-8
  170. Codec ID                                 : S_TEXT/UTF8
  171. Codec ID/Info                            : UTF-8 Plain Text
  172. Duration                                 : 2 h 54 min
  173. Bit rate                                 : 38 b/s
  174. Count of elements                        : 2037
  175. Stream size                              : 48.9 KiB (0%)
  176. Title                                    : English-SRT
  177. Language                                 : English
  178. Default                                  : Yes
  179. Forced                                   : No
  180. Text #2
  181. ID                                       : 9
  182. ID in the original source medium         : 4768 (0x12A0)
  183. Format                                   : PGS
  184. Muxing mode                              : zlib
  185. Codec ID                                 : S_HDMV/PGS
  186. Codec ID/Info                            : Picture based subtitle format used on BDs/HD-DVDs
  187. Duration                                 : 2 h 54 min
  188. Bit rate                                 : 25.2 kb/s
  189. Count of elements                        : 4558
  190. Stream size                              : 31.6 MiB (0%)
  191. Title                                    : English-PGS
  192. Language                                 : English
  193. Default                                  : No
  194. Forced                                   : No
  195. Original source medium                   : Blu-ray
  196. Text #3
  197. ID                                       : 10
  198. ID in the original source medium         : 4769 (0x12A1)
  199. Format                                   : PGS
  200. Muxing mode                              : zlib
  201. Codec ID                                 : S_HDMV/PGS
  202. Codec ID/Info                            : Picture based subtitle format used on BDs/HD-DVDs
  203. Duration                                 : 3 h 5 min
  204. Bit rate                                 : 25.4 kb/s
  205. Count of elements                        : 4706
  206. Stream size                              : 33.8 MiB (0%)
  207. Title                                    : Italian-PGS
  208. Language                                 : Italian
  209. Default                                  : No
  210. Forced                                   : No
  211. Original source medium                   : Blu-ray
  212. Text #4
  213. ID                                       : 11
  214. ID in the original source medium         : 4770 (0x12A2)
  215. Format                                   : PGS
  216. Muxing mode                              : zlib
  217. Codec ID                                 : S_HDMV/PGS
  218. Codec ID/Info                            : Picture based subtitle format used on BDs/HD-DVDs
  219. Duration                                 : 3 h 5 min
  220. Bit rate                                 : 21.3 kb/s
  221. Count of elements                        : 4178
  222. Stream size                              : 28.3 MiB (0%)
  223. Title                                    : Spanish-PGS
  224. Language                                 : Spanish
  225. Default                                  : No
  226. Forced                                   : No
  227. Original source medium                   : Blu-ray
  228. Text #5
  229. ID                                       : 12
  230. ID in the original source medium         : 4771 (0x12A3)
  231. Format                                   : PGS
  232. Muxing mode                              : zlib
  233. Codec ID                                 : S_HDMV/PGS
  234. Codec ID/Info                            : Picture based subtitle format used on BDs/HD-DVDs
  235. Duration                                 : 3 h 5 min
  236. Bit rate                                 : 19.7 kb/s
  237. Count of elements                        : 4224
  238. Stream size                              : 26.1 MiB (0%)
  239. Title                                    : Chinese-PGS
  240. Language                                 : Chinese
  241. Default                                  : No
  242. Forced                                   : No
  243. Original source medium                   : Blu-ray
  244. Text #6
  245. ID                                       : 13
  246. ID in the original source medium         : 4772 (0x12A4)
  247. Format                                   : PGS
  248. Muxing mode                              : zlib
  249. Codec ID                                 : S_HDMV/PGS
  250. Codec ID/Info                            : Picture based subtitle format used on BDs/HD-DVDs
  251. Duration                                 : 3 h 5 min
  252. Bit rate                                 : 16.8 kb/s
  253. Count of elements                        : 4068
  254. Stream size                              : 22.2 MiB (0%)
  255. Title                                    : Korean-PGS
  256. Language                                 : Korean
  257. Default                                  : No
  258. Forced                                   : No
  259. Original source medium                   : Blu-ray
  260. Text #7
  261. ID                                       : 14
  262. ID in the original source medium         : 4773 (0x12A5)
  263. Format                                   : PGS
  264. Muxing mode                              : zlib
  265. Codec ID                                 : S_HDMV/PGS
  266. Codec ID/Info                            : Picture based subtitle format used on BDs/HD-DVDs
  267. Duration                                 : 3 h 5 min
  268. Bit rate                                 : 18.4 kb/s
  269. Count of elements                        : 4240
  270. Stream size                              : 24.4 MiB (0%)
  271. Title                                    : Czech-PGS
  272. Language                                 : Czech
  273. Default                                  : No
  274. Forced                                   : No
  275. Original source medium                   : Blu-ray
  276. Text #8
  277. ID                                       : 15
  278. ID in the original source medium         : 4774 (0x12A6)
  279. Format                                   : PGS
  280. Muxing mode                              : zlib
  281. Codec ID                                 : S_HDMV/PGS
  282. Codec ID/Info                            : Picture based subtitle format used on BDs/HD-DVDs
  283. Duration                                 : 3 h 5 min
  284. Bit rate                                 : 19.4 kb/s
  285. Count of elements                        : 4246
  286. Stream size                              : 25.8 MiB (0%)
  287. Title                                    : Danish-PGS
  288. Language                                 : Danish
  289. Default                                  : No
  290. Forced                                   : No
  291. Original source medium                   : Blu-ray
  292. Text #9
  293. ID                                       : 16
  294. ID in the original source medium         : 4775 (0x12A7)
  295. Format                                   : PGS
  296. Muxing mode                              : zlib
  297. Codec ID                                 : S_HDMV/PGS
  298. Codec ID/Info                            : Picture based subtitle format used on BDs/HD-DVDs
  299. Duration                                 : 3 h 5 min
  300. Bit rate                                 : 19.7 kb/s
  301. Count of elements                        : 4070
  302. Stream size                              : 26.2 MiB (0%)
  303. Title                                    : Finnish-PGS
  304. Language                                 : Finnish
  305. Default                                  : No
  306. Forced                                   : No
  307. Original source medium                   : Blu-ray
  308. Text #10
  309. ID                                       : 17
  310. ID in the original source medium         : 4776 (0x12A8)
  311. Format                                   : PGS
  312. Muxing mode                              : zlib
  313. Codec ID                                 : S_HDMV/PGS
  314. Codec ID/Info                            : Picture based subtitle format used on BDs/HD-DVDs
  315. Duration                                 : 3 h 5 min
  316. Bit rate                                 : 20.2 kb/s
  317. Count of elements                        : 4208
  318. Stream size                              : 26.8 MiB (0%)
  319. Title                                    : Norwegian-PGS
  320. Language                                 : Norwegian
  321. Default                                  : No
  322. Forced                                   : No
  323. Original source medium                   : Blu-ray
  324. Text #11
  325. ID                                       : 18
  326. ID in the original source medium         : 4777 (0x12A9)
  327. Format                                   : PGS
  328. Muxing mode                              : zlib
  329. Codec ID                                 : S_HDMV/PGS
  330. Codec ID/Info                            : Picture based subtitle format used on BDs/HD-DVDs
  331. Duration                                 : 3 h 5 min
  332. Bit rate                                 : 19.1 kb/s
  333. Count of elements                        : 4210
  334. Stream size                              : 25.4 MiB (0%)
  335. Title                                    : Polish-PGS
  336. Language                                 : Polish
  337. Default                                  : No
  338. Forced                                   : No
  339. Original source medium                   : Blu-ray
  340. Text #12
  341. ID                                       : 19
  342. ID in the original source medium         : 4778 (0x12AA)
  343. Format                                   : PGS
  344. Muxing mode                              : zlib
  345. Codec ID                                 : S_HDMV/PGS
  346. Codec ID/Info                            : Picture based subtitle format used on BDs/HD-DVDs
  347. Duration                                 : 3 h 5 min
  348. Bit rate                                 : 20.5 kb/s
  349. Count of elements                        : 4142
  350. Stream size                              : 27.2 MiB (0%)
  351. Title                                    : Swedish-PGS
  352. Language                                 : Swedish
  353. Default                                  : No
  354. Forced                                   : No
  355. Original source medium                   : Blu-ray
  356. Text #13
  357. ID                                       : 20
  358. ID in the original source medium         : 4779 (0x12AB)
  359. Format                                   : PGS
  360. Muxing mode                              : zlib
  361. Codec ID                                 : S_HDMV/PGS
  362. Codec ID/Info                            : Picture based subtitle format used on BDs/HD-DVDs
  363. Duration                                 : 2 h 55 min
  364. Bit rate                                 : 21.1 kb/s
  365. Count of elements                        : 4244
  366. Stream size                              : 26.4 MiB (0%)
  367. Title                                    : Thai-PGS
  368. Language                                 : Thai
  369. Default                                  : No
  370. Forced                                   : No
  371. Original source medium                   : Blu-ray
  372. Text #14
  373. ID                                       : 21
  374. ID in the original source medium         : 4780 (0x12AC)
  375. Format                                   : PGS
  376. Muxing mode                              : zlib
  377. Codec ID                                 : S_HDMV/PGS
  378. Codec ID/Info                            : Picture based subtitle format used on BDs/HD-DVDs
  379. Duration                                 : 3 h 4 min
  380. Bit rate                                 : 894 b/s
  381. Count of elements                        : 190
  382. Stream size                              : 1.18 MiB (0%)
  383. Title                                    : Italian-FORCED-PGS
  384. Language                                 : Italian
  385. Default                                  : No
  386. Forced                                   : No
  387. Original source medium                   : Blu-ray
  388. Text #15
  389. ID                                       : 22
  390. ID in the original source medium         : 4781 (0x12AD)
  391. Format                                   : PGS
  392. Muxing mode                              : zlib
  393. Codec ID                                 : S_HDMV/PGS
  394. Codec ID/Info                            : Picture based subtitle format used on BDs/HD-DVDs
  395. Duration                                 : 3 h 4 min
  396. Bit rate                                 : 904 b/s
  397. Count of elements                        : 192
  398. Stream size                              : 1.20 MiB (0%)
  399. Title                                    : Spanish-FORCED-PGS
  400. Language                                 : Spanish
  401. Default                                  : No
  402. Forced                                   : No
  403. Original source medium                   : Blu-ray
  404. Text #16
  405. ID                                       : 23
  406. ID in the original source medium         : 4782 (0x12AE)
  407. Format                                   : PGS
  408. Muxing mode                              : zlib
  409. Codec ID                                 : S_HDMV/PGS
  410. Codec ID/Info                            : Picture based subtitle format used on BDs/HD-DVDs
  411. Duration                                 : 2 h 40 min
  412. Bit rate                                 : 877 b/s
  413. Count of elements                        : 192
  414. Stream size                              : 1.01 MiB (0%)
  415. Title                                    : Czech-FORCED-PGS
  416. Language                                 : Czech
  417. Default                                  : No
  418. Forced                                   : No
  419. Original source medium                   : Blu-ray
  420. Menu
  421. 00:00:00.000                             : en:Chapter 01
  422. 00:07:33.035                             : en:Chapter 02
  423. 00:11:59.802                             : en:Chapter 03
  424. 00:12:58.819                             : en:Chapter 04
  425. 00:15:54.995                             : en:Chapter 05
  426. 00:20:56.546                             : en:Chapter 06
  427. 00:23:14.935                             : en:Chapter 07
  428. 00:25:52.300                             : en:Chapter 08
  429. 00:29:58.880                             : en:Chapter 09
  430. 00:38:13.416                             : en:Chapter 10
  431. 00:46:43.467                             : en:Chapter 11
  432. 00:49:45.941                             : en:Chapter 12
  433. 00:53:19.154                             : en:Chapter 13
  434. 00:55:09.848                             : en:Chapter 14
  435. 00:58:07.484                             : en:Chapter 15
  436. 01:08:41.826                             : en:Chapter 16
  437. 01:12:21.962                             : en:Chapter 17
  438. 01:15:45.332                             : en:Chapter 18
  439. 01:19:09.786                             : en:Chapter 19
  440. 01:22:46.461                             : en:Chapter 20
  441. 01:25:08.978                             : en:Chapter 21
  442. 01:28:07.198                             : en:Chapter 22
  443. 01:31:15.011                             : en:Chapter 23
  444. 01:36:02.381                             : en:Chapter 24
  445. 01:37:35.516                             : en:Chapter 25
  446. 01:40:35.029                             : en:Chapter 26
  447. 01:45:16.143                             : en:Chapter 27
  448. 01:48:43.725                             : en:Chapter 28
  449. 01:50:31.207                             : en:Chapter 29
  450. 01:52:36.166                             : en:Chapter 30
  451. 01:53:08.072                             : en:Chapter 31
  452. 01:59:15.982                             : en:Chapter 32
  453. 02:07:11.123                             : en:Chapter 33
  454. 02:07:38.442                             : en:Chapter 34
  455. 02:09:22.296                             : en:Chapter 35
  456. 02:12:48.335                             : en:Chapter 36
  457. 02:22:00.470                             : en:Chapter 37
  458. 02:22:43.054                             : en:Chapter 38
  459. 02:23:17.547                             : en:Chapter 39
  460. 02:24:56.020                             : en:Chapter 40
  461. 02:26:44.712                             : en:Chapter 41
  462. 02:29:18.449                             : en:Chapter 42
  463. 02:33:12.516                             : en:Chapter 43
  464. 02:34:57.246                             : en:Chapter 44
  465. 02:36:12.780                             : en:Chapter 45
  466. 02:37:45.581                             : en:Chapter 46
  467. 02:39:08.455                             : en:Chapter 47
  468. 02:41:39.564                             : en:Chapter 48
  469. 02:44:05.627                             : en:Chapter 49
  470. 02:51:16.599                             : en:Chapter 50
  471. 02:56:04.845                             : en:Chapter 51
复制代码



                                       
                                       

                                       
                                       
                                       




霍比特人2:史矛革之战 The.Hobbit.The.Desolation.of.Smaug.2013.EXTENDED.2160p.BluRay.REMUX.HEVC.DTS-HD.MA.TrueHD.7.1.Atmos-FGT 84.93GB

The.Hobbit.The.Desolation.of.Smaug.2013.EXTENDED.2160p.BluRay.REMUX.HEVC.DTS-HD..zip

213.15 KB, 下载次数: 21, 下载积分: 蓝光币 -2

回复

使用道具 举报

懒得打字嘛,点击右侧快捷回复 【右侧内容,后台自定义】
您需要登录后才可以回帖 登录 | 立即加入

本版积分规则

Archiver|小黑屋| 蓝光电影网 |网站地图

Copyright © 2021 Comsenz Inc. Powered by 蓝光电影网

蓝光电影网

本站内容由用户自主分享和转载自互联网,转载目的在于传递更多信息,并不代表本网赞同其观点和对其真实性负责。

如有侵权、违反国家法律政策行为,请联系我们,我们会第一时间及时清除和处理!

举报反馈邮箱:[email protected]

快速回复 返回顶部 返回列表