找回密码

蓝光电影网

查看: 285|回复: 0

[UHD.HEVC] 刀锋战士/刀锋 Blade.1998.2160p.BluRay.REMUX.HEVC.DTS-HD.MA.TrueHD.7.1.Atmos-FGT 54.94GB

[复制链接]
蓝光币
1084
发表于 2020-12-3 10:15:15 | 显示全部楼层 |阅读模式


◎译  名 刀锋战士/刀锋/鬼魂刺客
◎片  名 Blade
◎年  代 1998
◎产  地 美国
◎类  别 行动 / 惊悚 / 可骇 / 奇异 / 冒险
◎语  言 英语,俄语
◎上映日期 1998-08-21
◎IMDb评分  7.1/10 from 242862 users
◎IMDb链接  https://www.imdb.com/title/tt0120611/
◎豆瓣评分 7.0/10 from 54244 users
◎豆瓣链接 https://movie.douban.com/subject/1298120/
◎片  长 120 分钟
◎导  演 斯蒂芬·诺林顿 Stephen Norrington
◎编  剧 大卫·S·高耶 David S. Goyer
◎主  演 韦斯利·斯奈普斯 Wesley Snipes
       斯蒂芬·多尔夫 Stephen Dorff
       克里斯·克里斯托佛森 Kris Kristofferson
       恩布希·赖特 N'Bushe Wright
       唐纳尔·罗格 Donal Logue
       Andray Johnson
       西德尼·S·柳法 Sidney S. Liufau
       简雅·拉诺 Jenya Lano
       马特·斯查尔兹 Matt Schulze
       Richard 'Dr.' Baily
       斯蒂芬·诺林顿 Stephen Norrington
       Stephen R. Peluso
       李香凝 Shannon Lee
       雅丽·乔维尔 Arly Jover
       杰夫·伊马达 Jeff Imada
       泰德·金 Ted King
       Carmen Thomas
       Ryan Glorioso
       桑娜·莱瑟 Sanaa Lathan
       Judson Earney Scott
       列万·乌恰尼什维利 Levan Uchaneishvili
       约翰·伊诺斯三世 John Enos III
       奇希·劳尔兹 Traci Lords
       蒂姆·金尼 Tim Guinee
       莱尔·康威 Lyle Conway
       Lennox Brown
       D·V·德文森蒂斯 D.V. DeVincentis
       埃里克·爱德华兹 Eric Edwards
       乌多·基尔 Udo Kier
       肯尼·约翰逊 Kenny Johnson
       Keith Leon Williams
◎标  签 吸血鬼 | 行动 | 美国 | 科幻 | 刀锋战士 | 美国电影 | 魔幻 | 1998
◎简  介


  刀锋战士布莱德的母亲怀孕时被吸血鬼咬伤了,生下他后就归天了,由此布莱德(韦斯利?斯奈普斯 Wesley Snipes 饰)带上了一半吸血鬼的血。布莱德自幼在兵器专家阿伯拉罕家长大,阿伯拉罕(克里斯?克里斯托佛森 Kris Kristofferson 饰)为他打造能力最强大的对于吸血鬼的兵器和为他注射药物免得他变成吸血鬼。
  
  布莱德一向是人类庇护神,吸血鬼的克星。当他一次次破坏吸血鬼的好事,猎杀无数吸血鬼后,吸血鬼王佛斯特(斯蒂芬?多尔夫 Stephen Dorff 饰)立誓要撤除这个心头大患。他先是劝说布莱德加入他们的行列,这样的话他们就全国无敌。然后设想弄到布莱德的血,由于这样他就能用他的血实施血祭,唤出血潮,这样一切的人就城市变成吸血鬼。布莱德终极能克服这个强敌吗?
  1. Video
  2. ID                                       : 1
  3. ID in the original source medium         : 4113 (0x1011)
  4. Format                                   : HEVC
  5. Format/Info                              : High Efficiency Video Coding
  6. Format profile                           : Main [email protected]@High
  7. HDR format                               : SMPTE ST 2086, HDR10 compatible
  8. Codec ID                                 : V_MPEGH/ISO/HEVC
  9. Duration                                 : 2 h 0 min
  10. Bit rate                                 : 54.3 Mb/s
  11. Width                                    : 3 840 pixels
  12. Height                                   : 2 160 pixels
  13. Display aspect ratio                     : 16:9
  14. Frame rate mode                          : Constant
  15. Frame rate                               : 23.976 (24000/1001/189150) FPS
  16. Color space                              : YUV
  17. Chroma subsampling                       : 4:2:0 (Type 2)
  18. Bit depth                                : 10 bits
  19. Bits/(Pixel*Frame)                       : 0.273
  20. Stream size                              : 45.6 GiB (83%)
  21. Title                                    : Blade.1998.2160p.BluRay.REMUX.HEVC.DTS-HD.MA.TrueHD.7.1.Atmos-FGT
  22. Writing library                          : ATEME Titan File 3.9.6 (4.9.6.2)        
  23. Language                                 : English
  24. Default                                  : No
  25. Forced                                   : No
  26. Color range                              : Limited
  27. Color primaries                          : BT.2020
  28. Transfer characteristics                 : PQ
  29. Matrix coefficients                      : BT.2020 non-constant
  30. Mastering display color primaries        : Display P3
  31. Mastering display luminance              : min: 0.0001 cd/m2, max: 1000 cd/m2
  32. Maximum Content Light Level              : 996 cd/m2
  33. Maximum Frame-Average Light Level        : 329 cd/m2
  34. Original source medium                   : Blu-ray
  35. Audio #1
  36. ID                                       : 2
  37. ID in the original source medium         : 4352 (0x1100)
  38. Format                                   : MLP FBA 16-ch
  39. Format/Info                              : Meridian Lossless Packing FBA with 16-channel presentation
  40. Commercial name                          : Dolby TrueHD with Dolby Atmos
  41. Codec ID                                 : A_TRUEHD
  42. Duration                                 : 2 h 0 min
  43. Bit rate mode                            : Variable
  44. Bit rate                                 : 3 575 kb/s
  45. Maximum bit rate                         : 6 582 kb/s
  46. Channel(s)                               : 8 channels
  47. Channel layout                           : L R C LFE Ls Rs Lb Rb
  48. Sampling rate                            : 48.0 kHz
  49. Frame rate                               : 1 200.000 FPS (40 SPF)
  50. Compression mode                         : Lossless
  51. Stream size                              : 3.00 GiB (5%)
  52. Title                                    : Blade.1998.2160p.BluRay.REMUX.HEVC.DTS-HD.MA.TrueHD.7.1.Atmos-FGT
  53. Language                                 : English
  54. Default                                  : Yes
  55. Forced                                   : No
  56. Original source medium                   : Blu-ray
  57. Number of dynamic objects                : 11
  58. Bed channel count                        : 1 channel
  59. Bed channel configuration                : LFE
  60. Audio #2
  61. ID                                       : 3
  62. Format                                   : DTS XLL
  63. Format/Info                              : Digital Theater Systems
  64. Commercial name                          : DTS-HD Master Audio
  65. Codec ID                                 : A_DTS
  66. Duration                                 : 2 h 0 min
  67. Bit rate mode                            : Variable
  68. Bit rate                                 : 3 806 kb/s
  69. Channel(s)                               : 8 channels
  70. Channel layout                           : C L R LFE Lb Rb Lss Rss
  71. Sampling rate                            : 48.0 kHz
  72. Frame rate                               : 93.750 FPS (512 SPF)
  73. Bit depth                                : 24 bits
  74. Compression mode                         : Lossless
  75. Stream size                              : 3.20 GiB (6%)
  76. Title                                    : Blade.1998.2160p.BluRay.REMUX.HEVC.DTS-HD.MA.TrueHD.7.1.Atmos-FGT
  77. Language                                 : English
  78. Default                                  : No
  79. Forced                                   : No
  80. Audio #3
  81. ID                                       : 4
  82. ID in the original source medium         : 4352 (0x1100)
  83. Format                                   : AC-3
  84. Format/Info                              : Audio Coding 3
  85. Commercial name                          : Dolby Digital
  86. Codec ID                                 : A_AC3
  87. Duration                                 : 2 h 0 min
  88. Bit rate mode                            : Constant
  89. Bit rate                                 : 448 kb/s
  90. Channel(s)                               : 6 channels
  91. Channel layout                           : L R C LFE Ls Rs
  92. Sampling rate                            : 48.0 kHz
  93. Frame rate                               : 31.250 FPS (1536 SPF)
  94. Compression mode                         : Lossy
  95. Stream size                              : 385 MiB (1%)
  96. Title                                    : Blade.1998.2160p.BluRay.REMUX.HEVC.DTS-HD.MA.TrueHD.7.1.Atmos-FGT
  97. Language                                 : English
  98. Service kind                             : Complete Main
  99. Default                                  : No
  100. Forced                                   : No
  101. Original source medium                   : Blu-ray
  102. Audio #4
  103. ID                                       : 5
  104. ID in the original source medium         : 4353 (0x1101)
  105. Format                                   : AC-3
  106. Format/Info                              : Audio Coding 3
  107. Commercial name                          : Dolby Digital
  108. Codec ID                                 : A_AC3
  109. Duration                                 : 2 h 0 min
  110. Bit rate mode                            : Constant
  111. Bit rate                                 : 640 kb/s
  112. Channel(s)                               : 6 channels
  113. Channel layout                           : L R C LFE Ls Rs
  114. Sampling rate                            : 48.0 kHz
  115. Frame rate                               : 31.250 FPS (1536 SPF)
  116. Compression mode                         : Lossy
  117. Stream size                              : 550 MiB (1%)
  118. Title                                    : Blade.1998.2160p.BluRay.REMUX.HEVC.DTS-HD.MA.TrueHD.7.1.Atmos-FGT
  119. Language                                 : French
  120. Service kind                             : Complete Main
  121. Default                                  : No
  122. Forced                                   : No
  123. Original source medium                   : Blu-ray
  124. Audio #5
  125. ID                                       : 6
  126. ID in the original source medium         : 4354 (0x1102)
  127. Format                                   : AC-3
  128. Format/Info                              : Audio Coding 3
  129. Commercial name                          : Dolby Digital
  130. Codec ID                                 : A_AC3
  131. Duration                                 : 2 h 0 min
  132. Bit rate mode                            : Constant
  133. Bit rate                                 : 640 kb/s
  134. Channel(s)                               : 6 channels
  135. Channel layout                           : L R C LFE Ls Rs
  136. Sampling rate                            : 48.0 kHz
  137. Frame rate                               : 31.250 FPS (1536 SPF)
  138. Compression mode                         : Lossy
  139. Stream size                              : 550 MiB (1%)
  140. Title                                    : Blade.1998.2160p.BluRay.REMUX.HEVC.DTS-HD.MA.TrueHD.7.1.Atmos-FGT
  141. Language                                 : German
  142. Service kind                             : Complete Main
  143. Default                                  : No
  144. Forced                                   : No
  145. Original source medium                   : Blu-ray
  146. Audio #6
  147. ID                                       : 7
  148. ID in the original source medium         : 4355 (0x1103)
  149. Format                                   : AC-3
  150. Format/Info                              : Audio Coding 3
  151. Commercial name                          : Dolby Digital
  152. Codec ID                                 : A_AC3
  153. Duration                                 : 2 h 0 min
  154. Bit rate mode                            : Constant
  155. Bit rate                                 : 640 kb/s
  156. Channel(s)                               : 6 channels
  157. Channel layout                           : L R C LFE Ls Rs
  158. Sampling rate                            : 48.0 kHz
  159. Frame rate                               : 31.250 FPS (1536 SPF)
  160. Compression mode                         : Lossy
  161. Stream size                              : 550 MiB (1%)
  162. Title                                    : Blade.1998.2160p.BluRay.REMUX.HEVC.DTS-HD.MA.TrueHD.7.1.Atmos-FGT
  163. Language                                 : Italian
  164. Service kind                             : Complete Main
  165. Default                                  : No
  166. Forced                                   : No
  167. Original source medium                   : Blu-ray
  168. Audio #7
  169. ID                                       : 8
  170. ID in the original source medium         : 4356 (0x1104)
  171. Format                                   : AC-3
  172. Format/Info                              : Audio Coding 3
  173. Commercial name                          : Dolby Digital
  174. Codec ID                                 : A_AC3
  175. Duration                                 : 2 h 0 min
  176. Bit rate mode                            : Constant
  177. Bit rate                                 : 192 kb/s
  178. Channel(s)                               : 2 channels
  179. Channel layout                           : L R
  180. Sampling rate                            : 48.0 kHz
  181. Frame rate                               : 31.250 FPS (1536 SPF)
  182. Compression mode                         : Lossy
  183. Stream size                              : 165 MiB (0%)
  184. Title                                    : Blade.1998.2160p.BluRay.REMUX.HEVC.DTS-HD.MA.TrueHD.7.1.Atmos-FGT
  185. Language                                 : Spanish
  186. Service kind                             : Complete Main
  187. Default                                  : No
  188. Forced                                   : No
  189. Original source medium                   : Blu-ray
  190. Audio #8
  191. ID                                       : 9
  192. ID in the original source medium         : 4357 (0x1105)
  193. Format                                   : AC-3
  194. Format/Info                              : Audio Coding 3
  195. Commercial name                          : Dolby Digital
  196. Codec ID                                 : A_AC3
  197. Duration                                 : 2 h 0 min
  198. Bit rate mode                            : Constant
  199. Bit rate                                 : 448 kb/s
  200. Channel(s)                               : 6 channels
  201. Channel layout                           : L R C LFE Ls Rs
  202. Sampling rate                            : 48.0 kHz
  203. Frame rate                               : 31.250 FPS (1536 SPF)
  204. Compression mode                         : Lossy
  205. Stream size                              : 385 MiB (1%)
  206. Title                                    : Blade.1998.2160p.BluRay.REMUX.HEVC.DTS-HD.MA.TrueHD.7.1.Atmos-FGT
  207. Language                                 : Polish
  208. Service kind                             : Complete Main
  209. Default                                  : No
  210. Forced                                   : No
  211. Original source medium                   : Blu-ray
  212. Audio #9
  213. ID                                       : 10
  214. ID in the original source medium         : 4359 (0x1107)
  215. Format                                   : AC-3
  216. Format/Info                              : Audio Coding 3
  217. Commercial name                          : Dolby Digital
  218. Codec ID                                 : A_AC3
  219. Duration                                 : 2 h 0 min
  220. Bit rate mode                            : Constant
  221. Bit rate                                 : 192 kb/s
  222. Channel(s)                               : 2 channels
  223. Channel layout                           : L R
  224. Sampling rate                            : 48.0 kHz
  225. Frame rate                               : 31.250 FPS (1536 SPF)
  226. Compression mode                         : Lossy
  227. Stream size                              : 165 MiB (0%)
  228. Title                                    : Blade.1998.2160p.BluRay.REMUX.HEVC.DTS-HD.MA.TrueHD.7.1.Atmos-FGT
  229. Language                                 : English
  230. Service kind                             : Complete Main
  231. Default                                  : No
  232. Forced                                   : No
  233. Original source medium                   : Blu-ray
  234. Audio #10
  235. ID                                       : 11
  236. ID in the original source medium         : 4360 (0x1108)
  237. Format                                   : AC-3
  238. Format/Info                              : Audio Coding 3
  239. Commercial name                          : Dolby Digital
  240. Codec ID                                 : A_AC3
  241. Duration                                 : 2 h 0 min
  242. Bit rate mode                            : Constant
  243. Bit rate                                 : 192 kb/s
  244. Channel(s)                               : 2 channels
  245. Channel layout                           : L R
  246. Sampling rate                            : 48.0 kHz
  247. Frame rate                               : 31.250 FPS (1536 SPF)
  248. Compression mode                         : Lossy
  249. Stream size                              : 165 MiB (0%)
  250. Title                                    : Blade.1998.2160p.BluRay.REMUX.HEVC.DTS-HD.MA.TrueHD.7.1.Atmos-FGT
  251. Language                                 : English
  252. Service kind                             : Complete Main
  253. Default                                  : No
  254. Forced                                   : No
  255. Original source medium                   : Blu-ray
  256. Audio #11
  257. ID                                       : 12
  258. ID in the original source medium         : 4361 (0x1109)
  259. Format                                   : AC-3
  260. Format/Info                              : Audio Coding 3
  261. Commercial name                          : Dolby Digital
  262. Codec ID                                 : A_AC3
  263. Duration                                 : 2 h 0 min
  264. Bit rate mode                            : Constant
  265. Bit rate                                 : 192 kb/s
  266. Channel(s)                               : 2 channels
  267. Channel layout                           : L R
  268. Sampling rate                            : 48.0 kHz
  269. Frame rate                               : 31.250 FPS (1536 SPF)
  270. Compression mode                         : Lossy
  271. Stream size                              : 165 MiB (0%)
  272. Title                                    : Blade.1998.2160p.BluRay.REMUX.HEVC.DTS-HD.MA.TrueHD.7.1.Atmos-FGT
  273. Language                                 : Czech
  274. Service kind                             : Complete Main
  275. Default                                  : No
  276. Forced                                   : No
  277. Original source medium                   : Blu-ray
  278. Text #1
  279. ID                                       : 13
  280. Format                                   : UTF-8
  281. Codec ID                                 : S_TEXT/UTF8
  282. Codec ID/Info                            : UTF-8 Plain Text
  283. Duration                                 : 1 h 53 min
  284. Bit rate                                 : 35 b/s
  285. Count of elements                        : 894
  286. Stream size                              : 29.8 KiB (0%)
  287. Title                                    : English-SRT
  288. Language                                 : English
  289. Default                                  : Yes
  290. Forced                                   : No
  291. Text #2
  292. ID                                       : 14
  293. ID in the original source medium         : 4768 (0x12A0)
  294. Format                                   : PGS
  295. Muxing mode                              : zlib
  296. Codec ID                                 : S_HDMV/PGS
  297. Codec ID/Info                            : Picture based subtitle format used on BDs/HD-DVDs
  298. Duration                                 : 1 h 53 min
  299. Bit rate                                 : 21.8 kb/s
  300. Count of elements                        : 1948
  301. Stream size                              : 17.8 MiB (0%)
  302. Title                                    : English-PGS
  303. Language                                 : English
  304. Default                                  : No
  305. Forced                                   : No
  306. Original source medium                   : Blu-ray
  307. Text #3
  308. ID                                       : 15
  309. ID in the original source medium         : 4769 (0x12A1)
  310. Format                                   : PGS
  311. Muxing mode                              : zlib
  312. Codec ID                                 : S_HDMV/PGS
  313. Codec ID/Info                            : Picture based subtitle format used on BDs/HD-DVDs
  314. Duration                                 : 1 h 59 min
  315. Bit rate                                 : 17.3 kb/s
  316. Count of elements                        : 1810
  317. Stream size                              : 14.7 MiB (0%)
  318. Title                                    : French-PGS
  319. Language                                 : French
  320. Default                                  : No
  321. Forced                                   : No
  322. Original source medium                   : Blu-ray
  323. Text #4
  324. ID                                       : 16
  325. ID in the original source medium         : 4770 (0x12A2)
  326. Format                                   : PGS
  327. Muxing mode                              : zlib
  328. Codec ID                                 : S_HDMV/PGS
  329. Codec ID/Info                            : Picture based subtitle format used on BDs/HD-DVDs
  330. Duration                                 : 1 h 59 min
  331. Bit rate                                 : 23.8 kb/s
  332. Count of elements                        : 1996
  333. Stream size                              : 20.3 MiB (0%)
  334. Title                                    : German-PGS
  335. Language                                 : German
  336. Default                                  : No
  337. Forced                                   : No
  338. Original source medium                   : Blu-ray
  339. Text #5
  340. ID                                       : 17
  341. ID in the original source medium         : 4771 (0x12A3)
  342. Format                                   : PGS
  343. Muxing mode                              : zlib
  344. Codec ID                                 : S_HDMV/PGS
  345. Codec ID/Info                            : Picture based subtitle format used on BDs/HD-DVDs
  346. Duration                                 : 1 h 59 min
  347. Bit rate                                 : 21.3 kb/s
  348. Count of elements                        : 2004
  349. Stream size                              : 18.2 MiB (0%)
  350. Title                                    : Italian-PGS
  351. Language                                 : Italian
  352. Default                                  : No
  353. Forced                                   : No
  354. Original source medium                   : Blu-ray
  355. Text #6
  356. ID                                       : 18
  357. ID in the original source medium         : 4772 (0x12A4)
  358. Format                                   : PGS
  359. Muxing mode                              : zlib
  360. Codec ID                                 : S_HDMV/PGS
  361. Codec ID/Info                            : Picture based subtitle format used on BDs/HD-DVDs
  362. Duration                                 : 1 h 54 min
  363. Bit rate                                 : 18.8 kb/s
  364. Count of elements                        : 1996
  365. Stream size                              : 15.4 MiB (0%)
  366. Title                                    : Spanish-PGS
  367. Language                                 : Spanish
  368. Default                                  : No
  369. Forced                                   : No
  370. Original source medium                   : Blu-ray
  371. Text #7
  372. ID                                       : 19
  373. ID in the original source medium         : 4773 (0x12A5)
  374. Format                                   : PGS
  375. Muxing mode                              : zlib
  376. Codec ID                                 : S_HDMV/PGS
  377. Codec ID/Info                            : Picture based subtitle format used on BDs/HD-DVDs
  378. Duration                                 : 1 h 53 min
  379. Bit rate                                 : 563 b/s
  380. Count of elements                        : 62
  381. Stream size                              : 469 KiB (0%)
  382. Title                                    : French-FORCED-PGS
  383. Language                                 : French
  384. Default                                  : No
  385. Forced                                   : No
  386. Original source medium                   : Blu-ray
  387. Text #8
  388. ID                                       : 20
  389. ID in the original source medium         : 4774 (0x12A6)
  390. Format                                   : PGS
  391. Muxing mode                              : zlib
  392. Codec ID                                 : S_HDMV/PGS
  393. Codec ID/Info                            : Picture based subtitle format used on BDs/HD-DVDs
  394. Duration                                 : 1 h 48 min
  395. Bit rate                                 : 134 b/s
  396. Count of elements                        : 16
  397. Stream size                              : 107 KiB (0%)
  398. Title                                    : Spanish-FORCED-PGS
  399. Language                                 : Spanish
  400. Default                                  : No
  401. Forced                                   : No
  402. Original source medium                   : Blu-ray
  403. Text #9
  404. ID                                       : 21
  405. ID in the original source medium         : 4775 (0x12A7)
  406. Format                                   : PGS
  407. Muxing mode                              : zlib
  408. Codec ID                                 : S_HDMV/PGS
  409. Codec ID/Info                            : Picture based subtitle format used on BDs/HD-DVDs
  410. Duration                                 : 1 h 52 min
  411. Bit rate                                 : 341 b/s
  412. Count of elements                        : 44
  413. Stream size                              : 282 KiB (0%)
  414. Title                                    : Czech-FORCED-PGS
  415. Language                                 : Czech
  416. Default                                  : No
  417. Forced                                   : No
  418. Original source medium                   : Blu-ray
  419. Text #10
  420. ID                                       : 22
  421. ID in the original source medium         : 4776 (0x12A8)
  422. Format                                   : PGS
  423. Muxing mode                              : zlib
  424. Codec ID                                 : S_HDMV/PGS
  425. Codec ID/Info                            : Picture based subtitle format used on BDs/HD-DVDs
  426. Duration                                 : 1 h 54 min
  427. Bit rate                                 : 15.7 kb/s
  428. Count of elements                        : 1714
  429. Stream size                              : 12.8 MiB (0%)
  430. Title                                    : Czech-PGS
  431. Language                                 : Czech
  432. Default                                  : No
  433. Forced                                   : No
  434. Original source medium                   : Blu-ray
  435. Text #11
  436. ID                                       : 23
  437. ID in the original source medium         : 4777 (0x12A9)
  438. Format                                   : PGS
  439. Muxing mode                              : zlib
  440. Codec ID                                 : S_HDMV/PGS
  441. Codec ID/Info                            : Picture based subtitle format used on BDs/HD-DVDs
  442. Duration                                 : 1 h 54 min
  443. Bit rate                                 : 16.9 kb/s
  444. Count of elements                        : 1794
  445. Stream size                              : 13.8 MiB (0%)
  446. Title                                    : Polish-PGS
  447. Language                                 : Polish
  448. Default                                  : No
  449. Forced                                   : No
  450. Original source medium                   : Blu-ray
  451. Text #12
  452. ID                                       : 24
  453. ID in the original source medium         : 4779 (0x12AB)
  454. Format                                   : PGS
  455. Muxing mode                              : zlib
  456. Codec ID                                 : S_HDMV/PGS
  457. Codec ID/Info                            : Picture based subtitle format used on BDs/HD-DVDs
  458. Duration                                 : 1 h 53 min
  459. Bit rate                                 : 620 b/s
  460. Count of elements                        : 62
  461. Stream size                              : 517 KiB (0%)
  462. Title                                    : Italian-FORCED-PGS
  463. Language                                 : Italian
  464. Default                                  : No
  465. Forced                                   : No
  466. Original source medium                   : Blu-ray
  467. Menu
  468. 00:00:00.000                             : en:Chapter 01
  469. 00:02:03.790                             : en:Chapter 02
  470. 00:03:05.852                             : en:Chapter 03
  471. 00:06:49.075                             : en:Chapter 04
  472. 00:09:49.130                             : en:Chapter 05
  473. 00:11:00.242                             : en:Chapter 06
  474. 00:13:46.826                             : en:Chapter 07
  475. 00:16:57.433                             : en:Chapter 08
  476. 00:19:32.963                             : en:Chapter 09
  477. 00:22:49.785                             : en:Chapter 10
  478. 00:23:44.423                             : en:Chapter 11
  479. 00:27:27.312                             : en:Chapter 12
  480. 00:31:04.028                             : en:Chapter 13
  481. 00:33:02.438                             : en:Chapter 14
  482. 00:35:01.224                             : en:Chapter 15
  483. 00:39:19.607                             : en:Chapter 16
  484. 00:41:46.879                             : en:Chapter 17
  485. 00:44:31.251                             : en:Chapter 18
  486. 00:47:34.768                             : en:Chapter 19
  487. 00:50:10.507                             : en:Chapter 20
  488. 00:54:00.987                             : en:Chapter 21
  489. 00:57:09.634                             : en:Chapter 22
  490. 00:58:08.151                             : en:Chapter 23
  491. 01:01:32.605                             : en:Chapter 24
  492. 01:05:21.250                             : en:Chapter 25
  493. 01:08:59.176                             : en:Chapter 26
  494. 01:12:45.277                             : en:Chapter 27
  495. 01:14:50.402                             : en:Chapter 28
  496. 01:19:15.083                             : en:Chapter 29
  497. 01:22:38.620                             : en:Chapter 30
  498. 01:24:59.969                             : en:Chapter 31
  499. 01:27:56.229                             : en:Chapter 32
  500. 01:31:32.570                             : en:Chapter 33
  501. 01:34:34.293                             : en:Chapter 34
  502. 01:37:00.064                             : en:Chapter 35
  503. 01:40:32.985                             : en:Chapter 36
  504. 01:54:02.836                             : en:Chapter 37
  505. 01:55:13.114                             : en:Chapter 38
复制代码



                                       
                                       

                                       
                                       
                                       




回复

使用道具 举报

懒得打字嘛,点击右侧快捷回复 【右侧内容,后台自定义】
您需要登录后才可以回帖 登录 | 立即加入

本版积分规则

Archiver|小黑屋| 蓝光电影网 |网站地图

Copyright © 2021 Comsenz Inc. Powered by 蓝光电影网

蓝光电影网

本站内容由用户自主分享和转载自互联网,转载目的在于传递更多信息,并不代表本网赞同其观点和对其真实性负责。

如有侵权、违反国家法律政策行为,请联系我们,我们会第一时间及时清除和处理!

举报反馈邮箱:[email protected]

快速回复 返回顶部 返回列表