找回密码

蓝光电影网

查看: 67|回复: 0

[2160p] 星际传奇 Pitch.Black.2000.DC.2160p.BluRay.x264.8bit.SDR.DTS-HD.MA.5.1-SWTYBLZ 54.40GB

[复制链接]
蓝光币
1082
发表于 2020-8-18 09:15:17 | 显示全部楼层 |阅读模式


◎译  名 星际传奇 / The Chronicles of Riddick: Pitch Black / 黝黑一片 / 黑煞天魔
◎片  名 Pitch Black
◎年  代 2000
◎产  地 美国
◎类  别 行动 / 科幻 / 惊悚
◎语  言 英语 / 阿拉伯语
◎上映日期 2000-02-18
◎IMDb评分  7.1/10 from 222171 users
◎IMDb链接  https://www.imdb.com/title/tt0134847
◎豆瓣评分 7.2/10 from 24823 users
◎豆瓣链接 https://movie.douban.com/subject/1296459/
◎片  长 109 分钟
◎导  演 David Twohy
◎编  剧 Jim Wheat / Ken Wheat / David Twohy
◎主  演 Vin Diesel
       Radha Mitchell
       Cole Hauser
       Keith David
       Lewis Fitz-Gerald

◎标  签 科幻 | 美国 | 行动 | 惊悚 | 文·迪塞尔 | 星际传奇 | 2000 | 美国电影
◎简  介

  
  在浩大的宇宙间,一艘名为猎人号的商用飞船正停止着冗长的旅程。船上搭载着40位乘客,其中包括重刑罪犯理查·雷迪克(Vin Diesel 饰)。当行驶到丹吉尔星系时,突如其来的变乱令飞船蒙受重创,空气飞速泄露,终极迫降到一颗酷热而荒凉的星球上。着陆时的庞大冲击力几近让飞船支离破裂,死伤者众多。幸存者们来到这片陌生的河山,严酷的自然情况考验着每一小我,分歧民族分歧职业的他们此时必须捐弃前嫌,结合起来。他们不但要与天空中三个太阳作抗争,还要时辰提防隐藏在黑黑暗的危险……
  本片荣获2001年澳大利亚摄影师协会年度最好摄影师和金三角架奖。
  1. Video
  2. ID                                       : 1
  3. Format                                   : AVC
  4. Format/Info                              : Advanced Video Codec
  5. Format profile                           : [email protected]
  6. Format settings                          : CABAC / 5 Ref Frames
  7. Format settings, CABAC                   : Yes
  8. Format settings, Reference frames        : 5 frames
  9. Codec ID                                 : V_MPEG4/ISO/AVC
  10. Duration                                 : 1 h 51 min
  11. Bit rate                                 : 64.5 Mb/s
  12. Width                                    : 3 840 pixels
  13. Height                                   : 1 632 pixels
  14. Display aspect ratio                     : 2.35:1
  15. Frame rate mode                          : Constant
  16. Frame rate                               : 24.000 FPS
  17. Color space                              : YUV
  18. Chroma subsampling                       : 4:2:0
  19. Bit depth                                : 8 bits
  20. Scan type                                : Progressive
  21. Bits/(Pixel*Frame)                       : 0.429
  22. Stream size                              : 50.3 GiB (93%)
  23. Title                                    : Pitch.Black.2000.DC.2160p.BluRay.x264.8bit.SDR.DTS-HD.MA.5.1-SWTYBLZ
  24. Writing library                          : x264 core 157 r2935 545de2f
  25. Encoding settings                        : cabac=1 / ref=5 / deblock=1:-1:-1 / analyse=0x3:0x113 / me=umh / subme=10 / psy=1 / psy_rd=1.00:0.15 / mixed_ref=1 / me_range=48 / chroma_me=1 / trellis=2 / 8x8dct=1 / cqm=0 / deadzone=21,11 / fast_pskip=1 / chroma_qp_offset=-3 / threads=48 / lookahead_threads=4 / sliced_threads=0 / nr=0 / decimate=0 / interlaced=0 / bluray_compat=0 / constrained_intra=0 / bframes=3 / b_pyramid=2 / b_adapt=2 / b_bias=0 / direct=3 / weightb=1 / open_gop=0 / weightp=2 / keyint=250 / keyint_min=24 / scenecut=40 / intra_refresh=0 / rc_lookahead=50 / rc=crf / mbtree=1 / crf=18.0 / qcomp=0.60 / qpmin=0 / qpmax=69 / qpstep=4 / ip_ratio=1.40 / aq=1:1.00
  26. Default                                  : Yes
  27. Forced                                   : No
  28. Audio #1
  29. ID                                       : 2
  30. ID in the original source medium         : 4352 (0x1100)
  31. Format                                   : DTS XLL
  32. Format/Info                              : Digital Theater Systems
  33. Commercial name                          : DTS-HD Master Audio
  34. Codec ID                                 : A_DTS
  35. Duration                                 : 1 h 51 min
  36. Bit rate mode                            : Variable
  37. Bit rate                                 : 4 158 kb/s
  38. Channel(s)                               : 6 channels
  39. Channel layout                           : C L R Ls Rs LFE
  40. Sampling rate                            : 48.0 kHz
  41. Frame rate                               : 93.750 FPS (512 SPF)
  42. Bit depth                                : 24 bits
  43. Compression mode                         : Lossless
  44. Stream size                              : 3.25 GiB (6%)
  45. Title                                    : Pitch.Black.2000.DC.2160p.BluRay.x264.8bit.SDR.DTS-HD.MA.5.1-SWTYBLZ
  46. Language                                 : English
  47. Default                                  : Yes
  48. Forced                                   : No
  49. Original source medium                   : Blu-ray
  50. Audio #2
  51. ID                                       : 3
  52. Format                                   : AC-3
  53. Format/Info                              : Audio Coding 3
  54. Commercial name                          : Dolby Digital
  55. Codec ID                                 : A_AC3
  56. Duration                                 : 1 h 51 min
  57. Bit rate mode                            : Constant
  58. Bit rate                                 : 640 kb/s
  59. Channel(s)                               : 6 channels
  60. Channel layout                           : L R C LFE Ls Rs
  61. Sampling rate                            : 48.0 kHz
  62. Frame rate                               : 31.250 FPS (1536 SPF)
  63. Compression mode                         : Lossy
  64. Stream size                              : 512 MiB (1%)
  65. Title                                    : Pitch.Black.2000.DC.2160p.BluRay.x264.8bit.SDR.DTS-HD.MA.5.1-SWTYBLZ
  66. Language                                 : English
  67. Service kind                             : Complete Main
  68. Default                                  : No
  69. Forced                                   : No
  70. Text #1
  71. ID                                       : 4
  72. Format                                   : UTF-8
  73. Codec ID                                 : S_TEXT/UTF8
  74. Codec ID/Info                            : UTF-8 Plain Text
  75. Duration                                 : 1 h 44 min
  76. Bit rate                                 : 37 b/s
  77. Count of elements                        : 949
  78. Stream size                              : 29.0 KiB (0%)
  79. Title                                    : English-SRT
  80. Language                                 : English
  81. Default                                  : Yes
  82. Forced                                   : No
  83. Text #2
  84. ID                                       : 5
  85. Format                                   : UTF-8
  86. Codec ID                                 : S_TEXT/UTF8
  87. Codec ID/Info                            : UTF-8 Plain Text
  88. Duration                                 : 1 h 44 min
  89. Bit rate                                 : 41 b/s
  90. Count of elements                        : 1123
  91. Stream size                              : 31.8 KiB (0%)
  92. Title                                    : English-SDH-SRT
  93. Language                                 : English
  94. Default                                  : No
  95. Forced                                   : No
  96. Text #3
  97. ID                                       : 6
  98. ID in the original source medium         : 4768 (0x12A0)
  99. Format                                   : PGS
  100. Muxing mode                              : zlib
  101. Codec ID                                 : S_HDMV/PGS
  102. Codec ID/Info                            : Picture based subtitle format used on BDs/HD-DVDs
  103. Duration                                 : 1 h 44 min
  104. Bit rate                                 : 27.8 kb/s
  105. Count of elements                        : 2246
  106. Stream size                              : 20.8 MiB (0%)
  107. Title                                    : English-PGS
  108. Language                                 : English
  109. Default                                  : No
  110. Forced                                   : No
  111. Original source medium                   : Blu-ray
  112. Menu
  113. 00:00:00.000                             : en:Chapter 01
  114. 00:11:13.500                             : en:Chapter 02
  115. 00:18:27.458                             : en:Chapter 03
  116. 00:27:09.708                             : en:Chapter 04
  117. 00:36:45.416                             : en:Chapter 05
  118. 00:46:36.458                             : en:Chapter 06
  119. 00:56:13.625                             : en:Chapter 07
  120. 01:02:39.666                             : en:Chapter 08
  121. 01:12:17.333                             : en:Chapter 09
  122. 01:19:15.375                             : en:Chapter 10
  123. 01:33:36.750                             : en:Chapter 11
  124. 01:39:17.791                             : en:Chapter 12
复制代码



                                       
                                       

                                       
                                       
                                       




回复

使用道具 举报

懒得打字嘛,点击右侧快捷回复 【右侧内容,后台自定义】
您需要登录后才可以回帖 登录 | 立即加入

本版积分规则

Archiver|小黑屋| 蓝光电影网 |网站地图

Copyright © 2021 Comsenz Inc. Powered by 蓝光电影网

蓝光电影网

本站内容由用户自主分享和转载自互联网,转载目的在于传递更多信息,并不代表本网赞同其观点和对其真实性负责。

如有侵权、违反国家法律政策行为,请联系我们,我们会第一时间及时清除和处理!

举报反馈邮箱:[email protected]

快速回复 返回顶部 返回列表