找回密码

蓝光电影网

查看: 102|回复: 0

[2160p] 超能计划 Project.Power.2020.2160p.NF.WEBRip.x265.10bit.SDR.DDP5.1.Atmos-TOMMY 19.04GB

[复制链接]
蓝光币
1084
发表于 2020-8-15 20:48:40 | 显示全部楼层 |阅读模式


◎译  名 超能计划 / Power / 超能计画(台)
◎片  名 Project Power
◎年  代 2020
◎产  地 美国
◎类  别 科幻 / 惊悚
◎语  言 英语
◎上映日期 2020-08-14(美国)
◎IMDb评分  7.1/10 from 17 users
◎IMDb链接  https://www.imdb.com/title/tt7550000
◎豆瓣评分 5.7/10 from 144 users
◎豆瓣链接 https://movie.douban.com/subject/30330875/
◎片  长 111分钟
◎导  演 亨利·朱斯特 Henry Joost / 阿里尔·舒曼 Ariel Schulman
◎编  剧 马特森·汤姆林 Mattson Tomlin
◎主  演 约瑟夫·高登-莱维特 Joseph Gordon-Levitt
       杰米·福克斯 Jamie Foxx
       罗德里戈·桑托罗 Rodrigo Santoro
       机关枪凯利 Machine Gun Kelly
       艾米·兰德克 Amy Landecker
       考特尼·万斯 Courtney B. Vance
       泰特·弗莱彻 Tait Fletcher
       约书亚·萨达索 Yoshua Sudarso
       阿伦·马尔多纳多 Allen Maldonado
       多米尼克·菲什巴克 Dominique Fishback
       吉姆·克洛克 Jim Klock
       可亚娜·西蒙妮·辛普森 Kyanna Simone Simpson
       卢克·霍克斯 Luke Hawx
       托尼·查普曼·斯蒂尔 Toney Chapman Steele
       彼得·詹梅斯 Peter Jaymes Jr.
       贾斯汀·贾木什 Justin Carmouche
       戈登·德克海默 Gordon Dexheimer
       Casey Neistat
       Azhar Khan
       Joseph Poliquin
       Andrene Ward-Hammond

◎标  签 科幻 | Netflix | 美国 | 2020 | 惊悚 | 美国电影 | 电影 | 杰米·福克斯
◎简  介

  
  在新奥尔良的街道上,关于奥秘新药丸的消息起头传布开来,这类药丸可以解锁每位利用者怪异的超才能。但题目是:在服用之前,没人晓得用药后会发生什么。一些人会进化出防弹皮肤、隐形才能和超强气力,也有很多人会表示出更致命的反应。可是,当药丸使城市内的犯罪升级到危险水平常,当地差人(约瑟夫·高登-莱维特饰)与一位少女小贩(多米尼克·菲什巴克饰)和誓报私仇的退伍兵士(杰米·福克斯饰)联手以硬碰硬,他们冒着服用药丸的风险,以追踪并制止制造出该药丸的团队。
  1. Video
  2. ID                                       : 33
  3. Format                                   : HEVC
  4. Format/Info                              : High Efficiency Video Coding
  5. Format profile                           : Main [email protected]@High
  6. Codec ID                                 : V_MPEGH/ISO/HEVC
  7. Duration                                 : 1 h 53 min
  8. Bit rate                                 : 23.3 Mb/s
  9. Width                                    : 3 840 pixels
  10. Height                                   : 1 920 pixels
  11. Display aspect ratio                     : 2.000
  12. Frame rate mode                          : Constant
  13. Frame rate                               : 24.000 FPS
  14. Color space                              : YUV
  15. Chroma subsampling                       : 4:2:0
  16. Bit depth                                : 10 bits
  17. Bits/(Pixel*Frame)                       : 0.132
  18. Stream size                              : 18.4 GiB (97%)
  19. Writing library                          : x265 3.0_Audcbec33bfb0f:[Windows][GCC 8.2.1][64 bit] 10bit
  20. Encoding settings                        : cpuid=1111039 / frame-threads=4 / numa-pools=24 / wpp / pmode / no-pme / no-psnr / no-ssim / log-level=2 / input-csp=1 / input-res=3840x1920 / interlace=0 / total-frames=163121 / level-idc=51 / high-tier=1 / uhd-bd=0 / ref=4 / no-allow-non-conformance / repeat-headers / annexb / aud / no-hrd / info / hash=0 / no-temporal-layers / no-open-gop / min-keyint=23 / keyint=250 / gop-lookahead=0 / bframes=10 / b-adapt=2 / b-pyramid / bframe-bias=0 / rc-lookahead=40 / lookahead-slices=0 / scenecut=40 / radl=0 / no-splice / no-intra-refresh / ctu=64 / min-cu-size=8 / no-rect / no-amp / max-tu-size=32 / tu-inter-depth=3 / tu-intra-depth=3 / limit-tu=4 / rdoq-level=2 / dynamic-rd=0.00 / no-ssim-rd / signhide / no-tskip / nr-intra=0 / nr-inter=0 / no-constrained-intra / strong-intra-smoothing / max-merge=4 / limit-refs=1 / limit-modes / me=3 / subme=5 / merange=57 / temporal-mvp / weightp / weightb / no-analyze-src-pics / deblock=-3:-3 / no-sao / no-sao-non-deblock / rd=4 / no-early-skip / no-rskip / no-fast-intra / no-tskip-fast / no-cu-lossless / b-intra / no-splitrd-skip / rdpenalty=0 / psy-rd=2.00 / psy-rdoq=0.00 / no-rd-refine / no-lossless / cbqpoffs=0 / crqpoffs=0 / rc=crf / crf=22.0 / qcomp=0.60 / qpstep=4 / stats-write=0 / stats-read=0 / vbv-maxrate=160000 / vbv-bufsize=160000 / vbv-init=0.9 / crf-max=0.0 / crf-min=0.0 / ipratio=1.30 / pbratio=1.20 / aq-mode=3 / aq-strength=0.80 / no-cutree / zone-count=0 / no-strict-cbr / qg-size=32 / no-rc-grain / qpmax=69 / qpmin=0 / no-const-vbv / sar=1 / overscan=0 / videoformat=5 / range=0 / colorprim=1 / transfer=1 / colormatrix=1 / chromaloc=0 / display-window=0 / max-cll=0,0 / min-luma=0 / max-luma=1023 / log2-max-poc-lsb=8 / vui-timing-info / vui-hrd-info / slices=1 / no-opt-qp-pps / no-opt-ref-list-length-pps / no-multi-pass-opt-rps / scenecut-bias=0.05 / no-opt-cu-delta-qp / no-aq-motion / no-hdr / no-hdr-opt / no-dhdr10-opt / no-idr-recovery-sei / analysis-reuse-level=5 / scale-factor=0 / refine-intra=0 / refine-inter=0 / refine-mv=0 / refine-ctu-distortion=0 / no-limit-sao / ctu-info=0 / no-lowpass-dct / refine-analysis-type=0 / copy-pic=1 / max-ausize-factor=1.0 / no-dynamic-refine / no-single-sei / no-hevc-aq / qp-adaptation-range=1.00
  21. Default                                  : Yes
  22. Forced                                   : No
  23. Color range                              : Limited
  24. Color primaries                          : BT.709
  25. Transfer characteristics                 : BT.709
  26. Matrix coefficients                      : BT.709
  27. Audio
  28. ID                                       : 1
  29. Format                                   : E-AC-3 JOC
  30. Format/Info                              : Enhanced AC-3 with Joint Object Coding
  31. Commercial name                          : Dolby Digital Plus with Dolby Atmos
  32. Codec ID                                 : A_EAC3
  33. Duration                                 : 1 h 53 min
  34. Bit rate mode                            : Constant
  35. Bit rate                                 : 768 kb/s
  36. Channel(s)                               : 6 channels
  37. Channel layout                           : L R C LFE Ls Rs
  38. Sampling rate                            : 48.0 kHz
  39. Frame rate                               : 31.250 FPS (1536 SPF)
  40. Compression mode                         : Lossy
  41. Stream size                              : 622 MiB (3%)
  42. Title                                    : English
  43. Language                                 : English
  44. Service kind                             : Complete Main
  45. Default                                  : Yes
  46. Forced                                   : No
  47. Complexity index                         : 16
  48. Number of dynamic objects                : 15
  49. Bed channel count                        : 1 channel
  50. Bed channel configuration                : LFE
  51. Text #1
  52. ID                                       : 2
  53. Format                                   : UTF-8
  54. Codec ID                                 : S_TEXT/UTF8
  55. Codec ID/Info                            : UTF-8 Plain Text
  56. Duration                                 : 1 h 45 min
  57. Bit rate                                 : 66 b/s
  58. Count of elements                        : 1543
  59. Stream size                              : 51.7 KiB (0%)
  60. Language                                 : English
  61. Default                                  : No
  62. Forced                                   : No
  63. Text #2
  64. ID                                       : 3
  65. Format                                   : UTF-8
  66. Codec ID                                 : S_TEXT/UTF8
  67. Codec ID/Info                            : UTF-8 Plain Text
  68. Duration                                 : 1 h 45 min
  69. Bit rate                                 : 78 b/s
  70. Count of elements                        : 1910
  71. Stream size                              : 60.8 KiB (0%)
  72. Title                                    : SDH
  73. Language                                 : English
  74. Default                                  : No
  75. Forced                                   : No
  76. Text #3
  77. ID                                       : 4
  78. Format                                   : UTF-8
  79. Codec ID                                 : S_TEXT/UTF8
  80. Codec ID/Info                            : UTF-8 Plain Text
  81. Duration                                 : 1 h 51 min
  82. Bit rate                                 : 88 b/s
  83. Count of elements                        : 1411
  84. Stream size                              : 72.5 KiB (0%)
  85. Language                                 : Arabic
  86. Default                                  : No
  87. Forced                                   : No
  88. Text #4
  89. ID                                       : 5
  90. Format                                   : UTF-8
  91. Codec ID                                 : S_TEXT/UTF8
  92. Codec ID/Info                            : UTF-8 Plain Text
  93. Duration                                 : 1 h 51 min
  94. Bit rate                                 : 44 b/s
  95. Count of elements                        : 1383
  96. Stream size                              : 36.4 KiB (0%)
  97. Language                                 : Czech
  98. Default                                  : No
  99. Forced                                   : No
  100. Text #5
  101. ID                                       : 6
  102. Format                                   : UTF-8
  103. Codec ID                                 : S_TEXT/UTF8
  104. Codec ID/Info                            : UTF-8 Plain Text
  105. Duration                                 : 1 h 51 min
  106. Bit rate                                 : 46 b/s
  107. Count of elements                        : 1217
  108. Stream size                              : 37.9 KiB (0%)
  109. Language                                 : Danish
  110. Default                                  : No
  111. Forced                                   : No
  112. Text #6
  113. ID                                       : 7
  114. Format                                   : UTF-8
  115. Codec ID                                 : S_TEXT/UTF8
  116. Codec ID/Info                            : UTF-8 Plain Text
  117. Duration                                 : 1 h 51 min
  118. Bit rate                                 : 44 b/s
  119. Count of elements                        : 1298
  120. Stream size                              : 35.9 KiB (0%)
  121. Language                                 : German
  122. Default                                  : No
  123. Forced                                   : No
  124. Text #7
  125. ID                                       : 8
  126. Format                                   : UTF-8
  127. Codec ID                                 : S_TEXT/UTF8
  128. Codec ID/Info                            : UTF-8 Plain Text
  129. Duration                                 : 1 h 51 min
  130. Bit rate                                 : 77 b/s
  131. Count of elements                        : 1324
  132. Stream size                              : 63.6 KiB (0%)
  133. Language                                 : Greek
  134. Default                                  : No
  135. Forced                                   : No
  136. Text #8
  137. ID                                       : 9
  138. Format                                   : UTF-8
  139. Codec ID                                 : S_TEXT/UTF8
  140. Codec ID/Info                            : UTF-8 Plain Text
  141. Duration                                 : 1 h 51 min
  142. Bit rate                                 : 48 b/s
  143. Count of elements                        : 1310
  144. Stream size                              : 39.2 KiB (0%)
  145. Language                                 : Spanish
  146. Default                                  : No
  147. Forced                                   : No
  148. Text #9
  149. ID                                       : 10
  150. Format                                   : UTF-8
  151. Codec ID                                 : S_TEXT/UTF8
  152. Codec ID/Info                            : UTF-8 Plain Text
  153. Duration                                 : 1 h 51 min
  154. Bit rate                                 : 48 b/s
  155. Count of elements                        : 1318
  156. Stream size                              : 39.6 KiB (0%)
  157. Title                                    : European
  158. Language                                 : Spanish
  159. Default                                  : No
  160. Forced                                   : No
  161. Text #10
  162. ID                                       : 11
  163. Format                                   : UTF-8
  164. Codec ID                                 : S_TEXT/UTF8
  165. Codec ID/Info                            : UTF-8 Plain Text
  166. Duration                                 : 1 h 51 min
  167. Bit rate                                 : 44 b/s
  168. Count of elements                        : 1138
  169. Stream size                              : 36.2 KiB (0%)
  170. Language                                 : Finnish
  171. Default                                  : No
  172. Forced                                   : No
  173. Text #11
  174. ID                                       : 12
  175. Format                                   : UTF-8
  176. Codec ID                                 : S_TEXT/UTF8
  177. Codec ID/Info                            : UTF-8 Plain Text
  178. Duration                                 : 1 h 51 min
  179. Bit rate                                 : 46 b/s
  180. Count of elements                        : 1376
  181. Stream size                              : 38.2 KiB (0%)
  182. Language                                 : French
  183. Default                                  : No
  184. Forced                                   : No
  185. Text #12
  186. ID                                       : 13
  187. Format                                   : UTF-8
  188. Codec ID                                 : S_TEXT/UTF8
  189. Codec ID/Info                            : UTF-8 Plain Text
  190. Duration                                 : 1 h 51 min
  191. Bit rate                                 : 80 b/s
  192. Count of elements                        : 1397
  193. Stream size                              : 65.8 KiB (0%)
  194. Language                                 : Hebrew
  195. Default                                  : No
  196. Forced                                   : No
  197. Text #13
  198. ID                                       : 14
  199. Format                                   : UTF-8
  200. Codec ID                                 : S_TEXT/UTF8
  201. Codec ID/Info                            : UTF-8 Plain Text
  202. Duration                                 : 1 h 51 min
  203. Bit rate                                 : 45 b/s
  204. Count of elements                        : 1306
  205. Stream size                              : 37.3 KiB (0%)
  206. Language                                 : Hungarian
  207. Default                                  : No
  208. Forced                                   : No
  209. Text #14
  210. ID                                       : 15
  211. Format                                   : UTF-8
  212. Codec ID                                 : S_TEXT/UTF8
  213. Codec ID/Info                            : UTF-8 Plain Text
  214. Duration                                 : 1 h 51 min
  215. Bit rate                                 : 44 b/s
  216. Count of elements                        : 1396
  217. Stream size                              : 36.5 KiB (0%)
  218. Language                                 : Indonesian
  219. Default                                  : No
  220. Forced                                   : No
  221. Text #15
  222. ID                                       : 16
  223. Format                                   : UTF-8
  224. Codec ID                                 : S_TEXT/UTF8
  225. Codec ID/Info                            : UTF-8 Plain Text
  226. Duration                                 : 1 h 51 min
  227. Bit rate                                 : 45 b/s
  228. Count of elements                        : 1323
  229. Stream size                              : 37.3 KiB (0%)
  230. Language                                 : Italian
  231. Default                                  : No
  232. Forced                                   : No
  233. Text #16
  234. ID                                       : 17
  235. Format                                   : UTF-8
  236. Codec ID                                 : S_TEXT/UTF8
  237. Codec ID/Info                            : UTF-8 Plain Text
  238. Duration                                 : 1 h 51 min
  239. Bit rate                                 : 49 b/s
  240. Count of elements                        : 1424
  241. Stream size                              : 40.1 KiB (0%)
  242. Language                                 : Japanese
  243. Default                                  : No
  244. Forced                                   : No
  245. Text #17
  246. ID                                       : 18
  247. Format                                   : UTF-8
  248. Codec ID                                 : S_TEXT/UTF8
  249. Codec ID/Info                            : UTF-8 Plain Text
  250. Duration                                 : 1 h 51 min
  251. Bit rate                                 : 58 b/s
  252. Count of elements                        : 1420
  253. Stream size                              : 47.7 KiB (0%)
  254. Language                                 : Korean
  255. Default                                  : No
  256. Forced                                   : No
  257. Text #18
  258. ID                                       : 19
  259. Format                                   : UTF-8
  260. Codec ID                                 : S_TEXT/UTF8
  261. Codec ID/Info                            : UTF-8 Plain Text
  262. Duration                                 : 1 h 51 min
  263. Bit rate                                 : 46 b/s
  264. Count of elements                        : 1318
  265. Stream size                              : 37.8 KiB (0%)
  266. Language                                 : Malay
  267. Default                                  : No
  268. Forced                                   : No
  269. Text #19
  270. ID                                       : 20
  271. Format                                   : UTF-8
  272. Codec ID                                 : S_TEXT/UTF8
  273. Codec ID/Info                            : UTF-8 Plain Text
  274. Duration                                 : 1 h 51 min
  275. Bit rate                                 : 44 b/s
  276. Count of elements                        : 1199
  277. Stream size                              : 36.3 KiB (0%)
  278. Language                                 : Norwegian Bokmal
  279. Default                                  : No
  280. Forced                                   : No
  281. Text #20
  282. ID                                       : 21
  283. Format                                   : UTF-8
  284. Codec ID                                 : S_TEXT/UTF8
  285. Codec ID/Info                            : UTF-8 Plain Text
  286. Duration                                 : 1 h 43 min
  287. Bit rate                                 : 48 b/s
  288. Count of elements                        : 1089
  289. Stream size                              : 36.8 KiB (0%)
  290. Language                                 : Dutch
  291. Default                                  : No
  292. Forced                                   : No
  293. Text #21
  294. ID                                       : 22
  295. Format                                   : UTF-8
  296. Codec ID                                 : S_TEXT/UTF8
  297. Codec ID/Info                            : UTF-8 Plain Text
  298. Duration                                 : 1 h 51 min
  299. Bit rate                                 : 44 b/s
  300. Count of elements                        : 1369
  301. Stream size                              : 36.0 KiB (0%)
  302. Language                                 : Polish
  303. Default                                  : No
  304. Forced                                   : No
  305. Text #22
  306. ID                                       : 23
  307. Format                                   : UTF-8
  308. Codec ID                                 : S_TEXT/UTF8
  309. Codec ID/Info                            : UTF-8 Plain Text
  310. Duration                                 : 1 h 51 min
  311. Bit rate                                 : 48 b/s
  312. Count of elements                        : 1307
  313. Stream size                              : 39.9 KiB (0%)
  314. Language                                 : Portuguese
  315. Default                                  : No
  316. Forced                                   : No
  317. Text #23
  318. ID                                       : 24
  319. Format                                   : UTF-8
  320. Codec ID                                 : S_TEXT/UTF8
  321. Codec ID/Info                            : UTF-8 Plain Text
  322. Duration                                 : 1 h 43 min
  323. Bit rate                                 : 51 b/s
  324. Count of elements                        : 1309
  325. Stream size                              : 38.9 KiB (0%)
  326. Title                                    : Brazilian
  327. Language                                 : Portuguese
  328. Default                                  : No
  329. Forced                                   : No
  330. Text #24
  331. ID                                       : 25
  332. Format                                   : UTF-8
  333. Codec ID                                 : S_TEXT/UTF8
  334. Codec ID/Info                            : UTF-8 Plain Text
  335. Duration                                 : 1 h 51 min
  336. Bit rate                                 : 53 b/s
  337. Count of elements                        : 1366
  338. Stream size                              : 43.9 KiB (0%)
  339. Language                                 : Romanian
  340. Default                                  : No
  341. Forced                                   : No
  342. Text #25
  343. ID                                       : 26
  344. Format                                   : UTF-8
  345. Codec ID                                 : S_TEXT/UTF8
  346. Codec ID/Info                            : UTF-8 Plain Text
  347. Duration                                 : 1 h 51 min
  348. Bit rate                                 : 71 b/s
  349. Count of elements                        : 1408
  350. Stream size                              : 58.4 KiB (0%)
  351. Language                                 : Russian
  352. Default                                  : No
  353. Forced                                   : No
  354. Text #26
  355. ID                                       : 27
  356. Format                                   : UTF-8
  357. Codec ID                                 : S_TEXT/UTF8
  358. Codec ID/Info                            : UTF-8 Plain Text
  359. Duration                                 : 1 h 51 min
  360. Bit rate                                 : 45 b/s
  361. Count of elements                        : 1153
  362. Stream size                              : 37.4 KiB (0%)
  363. Language                                 : Swedish
  364. Default                                  : No
  365. Forced                                   : No
  366. Text #27
  367. ID                                       : 28
  368. Format                                   : UTF-8
  369. Codec ID                                 : S_TEXT/UTF8
  370. Codec ID/Info                            : UTF-8 Plain Text
  371. Duration                                 : 1 h 51 min
  372. Bit rate                                 : 115 b/s
  373. Count of elements                        : 1413
  374. Stream size                              : 94.4 KiB (0%)
  375. Language                                 : Thai
  376. Default                                  : No
  377. Forced                                   : No
  378. Text #28
  379. ID                                       : 29
  380. Format                                   : UTF-8
  381. Codec ID                                 : S_TEXT/UTF8
  382. Codec ID/Info                            : UTF-8 Plain Text
  383. Duration                                 : 1 h 51 min
  384. Bit rate                                 : 46 b/s
  385. Count of elements                        : 1381
  386. Stream size                              : 38.2 KiB (0%)
  387. Language                                 : Turkish
  388. Default                                  : No
  389. Forced                                   : No
  390. Text #29
  391. ID                                       : 30
  392. Format                                   : UTF-8
  393. Codec ID                                 : S_TEXT/UTF8
  394. Codec ID/Info                            : UTF-8 Plain Text
  395. Duration                                 : 1 h 51 min
  396. Bit rate                                 : 63 b/s
  397. Count of elements                        : 1371
  398. Stream size                              : 51.7 KiB (0%)
  399. Language                                 : Vietnamese
  400. Default                                  : No
  401. Forced                                   : No
  402. Text #30
  403. ID                                       : 31
  404. Format                                   : UTF-8
  405. Codec ID                                 : S_TEXT/UTF8
  406. Codec ID/Info                            : UTF-8 Plain Text
  407. Duration                                 : 1 h 51 min
  408. Bit rate                                 : 53 b/s
  409. Count of elements                        : 1418
  410. Stream size                              : 43.9 KiB (0%)
  411. Title                                    : Simplified
  412. Language                                 : Chinese
  413. Default                                  : No
  414. Forced                                   : No
  415. Text #31
  416. ID                                       : 32
  417. Format                                   : UTF-8
  418. Codec ID                                 : S_TEXT/UTF8
  419. Codec ID/Info                            : UTF-8 Plain Text
  420. Duration                                 : 1 h 51 min
  421. Bit rate                                 : 50 b/s
  422. Count of elements                        : 1414
  423. Stream size                              : 41.0 KiB (0%)
  424. Title                                    : Traditional
  425. Language                                 : Chinese
  426. Default                                  : No
  427. Forced                                   : No
复制代码



                                       
                                       

                                       
                                       
                                       




回复

使用道具 举报

懒得打字嘛,点击右侧快捷回复 【右侧内容,后台自定义】
您需要登录后才可以回帖 登录 | 立即加入

本版积分规则

Archiver|小黑屋| 蓝光电影网 |网站地图

Copyright © 2021 Comsenz Inc. Powered by 蓝光电影网

蓝光电影网

本站内容由用户自主分享和转载自互联网,转载目的在于传递更多信息,并不代表本网赞同其观点和对其真实性负责。

如有侵权、违反国家法律政策行为,请联系我们,我们会第一时间及时清除和处理!

举报反馈邮箱:[email protected]

快速回复 返回顶部 返回列表