找回密码

蓝光电影网

查看: 648|回复: 0

[2160p] 飞侠哥顿 Flash.Gordon.1980.2160p.BluRay.x264.8bit.SDR.DTS-HD.MA.5.1-SWTYBLZ 60.90GB

[复制链接]
蓝光币
1704
发表于 2020-8-7 23:58:03 | 显示全部楼层 |阅读模式


◎译  名 飞侠哥顿
◎片  名 Flash Gordon
◎年  代 1980
◎产  地 英国
◎类  别 行动 / 科幻 / 冒险
◎语  言 英语
◎上映日期 1980-12-05(美国)
◎IMDb评分  6.5/10 from 49282 users
◎IMDb链接  https://www.imdb.com/title/tt0080745
◎豆瓣评分 6.5/10 from 422 users
◎豆瓣链接 https://movie.douban.com/subject/1300778/
◎片  长 111分钟
◎导  演 迈克·霍奇斯 Mike Hodges
◎编  剧 洛伦佐·森普尔 Lorenzo Semple Jr. / Michael Allin / 亚历克斯·雷蒙德 Alex Raymond
◎主  演 萨姆·琼斯 Sam J. Jones
       梅乐蒂·安德森 Melody Anderson
       马克斯·冯·叙多夫 Max von Sydow
       托波尔 Topol
       奥内拉·穆蒂 Ornella Muti
       提摩西·道尔顿 Timothy Dalton
       布耐恩·布莱塞得 Brian Blessed
       彼得·温贾德 Peter Wyngarde
       玛丽安杰拉·梅拉托 Mariangela Melato
       约翰·奥斯本 John Osborne
       理查德·奥布里恩 Richard O'Brien
       John Hallam
       菲利普·斯通 Philip Stone
       Suzanne Danielle
       威廉·胡特金斯 William Hootkins
       Stanley Lebor
       罗彼·考特拉尼 Robbie Coltrane
       Peter Duncan
       Oliver MacGreevy
       约翰·霍林斯 John Hollis
       Leon Greene
       Tony Scannell
       大卫·尼尔 David Neal
       博格丹·科米诺夫斯基 Bogdan Kominowski
       乔治·哈里斯 George Harris
       迪普·罗伊 Deep Roy
       伊莫金·克莱尔 Imogen Claire
       Andy Bradford
       泰瑞·佛瑞斯塔 Terry Forrestal
       约翰·利斯 John Lees
       维娃 Viva
       鲁斯迪·戈夫 Rusty Goffe
       Richard Jones
       肯尼·贝克 Kenny Baker

◎标  签 科幻 | 美国 | 1980 | cult | 冒险 | 英国 | 美国电影 | 1980s
◎简  介

  
  蒙戈星球的邪恶帝王明预备摧毁地球,查可夫预知外星人的进犯,因而逼迫高登及黛儿登上他的火箭,前往拯救地球。当查可夫等人甫到蒙戈星球,即被明王俘虏……
  1. Video
  2. ID                                       : 1
  3. Format                                   : AVC
  4. Format/Info                              : Advanced Video Codec
  5. Format profile                           : [email protected]
  6. Format settings                          : CABAC / 5 Ref Frames
  7. Format settings, CABAC                   : Yes
  8. Format settings, Reference frames        : 5 frames
  9. Codec ID                                 : V_MPEG4/ISO/AVC
  10. Duration                                 : 1 h 51 min
  11. Bit rate                                 : 73.7 Mb/s
  12. Width                                    : 3 840 pixels
  13. Height                                   : 1 634 pixels
  14. Display aspect ratio                     : 2.35:1
  15. Frame rate mode                          : Constant
  16. Frame rate                               : 24.000 FPS
  17. Color space                              : YUV
  18. Chroma subsampling                       : 4:2:0
  19. Bit depth                                : 8 bits
  20. Scan type                                : Progressive
  21. Bits/(Pixel*Frame)                       : 0.489
  22. Stream size                              : 57.4 GiB (95%)
  23. Title                                    : Flash.Gordon.1980.2160p.BluRay.x264.8bit.SDR.DTS-HD.MA.5.1-SWTYBLZ
  24. Writing library                          : x264 core 157 r2935 545de2f
  25. Encoding settings                        : cabac=1 / ref=5 / deblock=1:-1:-1 / analyse=0x3:0x113 / me=umh / subme=10 / psy=1 / psy_rd=1.00:0.15 / mixed_ref=1 / me_range=48 / chroma_me=1 / trellis=2 / 8x8dct=1 / cqm=0 / deadzone=21,11 / fast_pskip=1 / chroma_qp_offset=-3 / threads=48 / lookahead_threads=4 / sliced_threads=0 / nr=0 / decimate=0 / interlaced=0 / bluray_compat=0 / constrained_intra=0 / bframes=3 / b_pyramid=2 / b_adapt=2 / b_bias=0 / direct=3 / weightb=1 / open_gop=0 / weightp=2 / keyint=250 / keyint_min=23 / scenecut=40 / intra_refresh=0 / rc_lookahead=50 / rc=crf / mbtree=1 / crf=20.0 / qcomp=0.60 / qpmin=0 / qpmax=69 / qpstep=4 / ip_ratio=1.40 / aq=1:1.00
  26. Default                                  : Yes
  27. Forced                                   : No
  28. Audio #1
  29. ID                                       : 2
  30. ID in the original source medium         : 4353 (0x1101)
  31. Format                                   : DTS XLL
  32. Format/Info                              : Digital Theater Systems
  33. Commercial name                          : DTS-HD Master Audio
  34. Codec ID                                 : A_DTS
  35. Duration                                 : 1 h 51 min
  36. Bit rate mode                            : Variable
  37. Bit rate                                 : 3 506 kb/s
  38. Channel(s)                               : 6 channels
  39. Channel layout                           : C L R Ls Rs LFE
  40. Sampling rate                            : 48.0 kHz
  41. Frame rate                               : 93.750 FPS (512 SPF)
  42. Bit depth                                : 24 bits
  43. Compression mode                         : Lossless
  44. Stream size                              : 2.73 GiB (5%)
  45. Title                                    : Flash.Gordon.1980.2160p.BluRay.x264.8bit.SDR.DTS-HD.MA.5.1-SWTYBLZ
  46. Language                                 : English
  47. Default                                  : Yes
  48. Forced                                   : No
  49. Original source medium                   : Blu-ray
  50. Audio #2
  51. ID                                       : 3
  52. Format                                   : AC-3
  53. Format/Info                              : Audio Coding 3
  54. Commercial name                          : Dolby Digital
  55. Codec ID                                 : A_AC3
  56. Duration                                 : 1 h 51 min
  57. Bit rate mode                            : Constant
  58. Bit rate                                 : 640 kb/s
  59. Channel(s)                               : 6 channels
  60. Channel layout                           : L R C LFE Ls Rs
  61. Sampling rate                            : 48.0 kHz
  62. Frame rate                               : 31.250 FPS (1536 SPF)
  63. Bit depth                                : 16 bits
  64. Compression mode                         : Lossy
  65. Stream size                              : 510 MiB (1%)
  66. Title                                    : Flash.Gordon.1980.2160p.BluRay.x264.8bit.SDR.DTS-HD.MA.5.1-SWTYBLZ
  67. Language                                 : English
  68. Service kind                             : Complete Main
  69. Default                                  : No
  70. Forced                                   : No
  71. Text #1
  72. ID                                       : 4
  73. Format                                   : UTF-8
  74. Codec ID                                 : S_TEXT/UTF8
  75. Codec ID/Info                            : UTF-8 Plain Text
  76. Duration                                 : 1 h 50 min
  77. Bit rate                                 : 43 b/s
  78. Count of elements                        : 952
  79. Stream size                              : 35.0 KiB (0%)
  80. Title                                    : English-SRT
  81. Language                                 : English
  82. Default                                  : Yes
  83. Forced                                   : No
  84. Text #2
  85. ID                                       : 5
  86. ID in the original source medium         : 4768 (0x12A0)
  87. Format                                   : PGS
  88. Muxing mode                              : zlib
  89. Codec ID                                 : S_HDMV/PGS
  90. Codec ID/Info                            : Picture based subtitle format used on BDs/HD-DVDs
  91. Duration                                 : 1 h 50 min
  92. Bit rate                                 : 28.7 kb/s
  93. Count of elements                        : 2042
  94. Stream size                              : 22.7 MiB (0%)
  95. Title                                    : English-PGS
  96. Language                                 : English
  97. Default                                  : No
  98. Forced                                   : No
  99. Original source medium                   : Blu-ray
  100. Text #3
  101. ID                                       : 6
  102. ID in the original source medium         : 4769 (0x12A1)
  103. Format                                   : PGS
  104. Muxing mode                              : zlib
  105. Codec ID                                 : S_HDMV/PGS
  106. Codec ID/Info                            : Picture based subtitle format used on BDs/HD-DVDs
  107. Duration                                 : 1 h 47 min
  108. Bit rate                                 : 25.0 kb/s
  109. Count of elements                        : 1632
  110. Stream size                              : 19.1 MiB (0%)
  111. Title                                    : German-PGS
  112. Language                                 : German
  113. Default                                  : No
  114. Forced                                   : No
  115. Original source medium                   : Blu-ray
  116. Text #4
  117. ID                                       : 7
  118. ID in the original source medium         : 4771 (0x12A3)
  119. Format                                   : PGS
  120. Muxing mode                              : zlib
  121. Codec ID                                 : S_HDMV/PGS
  122. Codec ID/Info                            : Picture based subtitle format used on BDs/HD-DVDs
  123. Duration                                 : 1 h 50 min
  124. Bit rate                                 : 24.4 kb/s
  125. Count of elements                        : 2202
  126. Stream size                              : 19.3 MiB (0%)
  127. Title                                    : French-PGS
  128. Language                                 : French
  129. Default                                  : No
  130. Forced                                   : No
  131. Original source medium                   : Blu-ray
  132. Menu
  133. 00:00:00.000                             : en:Chapter 01
  134. 00:07:47.875                             : en:Chapter 02
  135. 00:18:22.833                             : en:Chapter 03
  136. 00:32:11.875                             : en:Chapter 04
  137. 00:37:45.625                             : en:Chapter 05
  138. 00:44:11.208                             : en:Chapter 06
  139. 00:54:21.000                             : en:Chapter 07
  140. 01:03:23.750                             : en:Chapter 08
  141. 01:10:38.875                             : en:Chapter 09
  142. 01:23:22.541                             : en:Chapter 10
  143. 01:35:01.416                             : en:Chapter 11
  144. 01:42:05.750                             : en:Chapter 12
复制代码



                                       
                                       

                                       
                                       
                                       




回复

使用道具 举报

懒得打字嘛,点击右侧快捷回复 【右侧内容,后台自定义】
您需要登录后才可以回帖 登录 | 立即加入

本版积分规则

Archiver|小黑屋| 蓝光电影网 |网站地图

Copyright © 2021 Comsenz Inc. Powered by 蓝光电影网

蓝光电影网

本站内容由用户自主分享和转载自互联网,转载目的在于传递更多信息,并不代表本网赞同其观点和对其真实性负责。

如有侵权、违反国家法律政策行为,请联系我们,我们会第一时间及时清除和处理!

举报反馈邮箱:4k1080.com@gmail.com

快速回复 返回顶部 返回列表