找回密码

蓝光电影网

查看: 52|回复: 0

[2160p] 飞侠哥顿 Flash.Gordon.1980.2160p.BluRay.x265.10bit.SDR.DTS-HD.MA.5.1-SWTYBLZ 51.94GB

[复制链接]
蓝光币
1082
发表于 2020-8-7 23:55:53 | 显示全部楼层 |阅读模式


◎译  名 飞侠哥顿
◎片  名 Flash Gordon
◎年  代 1980
◎产  地 英国
◎类  别 行动 / 科幻 / 冒险
◎语  言 英语
◎上映日期 1980-12-05(美国)
◎IMDb评分  6.5/10 from 49282 users
◎IMDb链接  https://www.imdb.com/title/tt0080745
◎豆瓣评分 6.5/10 from 422 users
◎豆瓣链接 https://movie.douban.com/subject/1300778/
◎片  长 111分钟
◎导  演 迈克·霍奇斯 Mike Hodges
◎编  剧 洛伦佐·森普尔 Lorenzo Semple Jr. / Michael Allin / 亚历克斯·雷蒙德 Alex Raymond
◎主  演 萨姆·琼斯 Sam J. Jones
       梅乐蒂·安德森 Melody Anderson
       马克斯·冯·叙多夫 Max von Sydow
       托波尔 Topol
       奥内拉·穆蒂 Ornella Muti
       提摩西·道尔顿 Timothy Dalton
       布耐恩·布莱塞得 Brian Blessed
       彼得·温贾德 Peter Wyngarde
       玛丽安杰拉·梅拉托 Mariangela Melato
       约翰·奥斯本 John Osborne
       理查德·奥布里恩 Richard O'Brien
       John Hallam
       菲利普·斯通 Philip Stone
       Suzanne Danielle
       威廉·胡特金斯 William Hootkins
       Stanley Lebor
       罗彼·考特拉尼 Robbie Coltrane
       Peter Duncan
       Oliver MacGreevy
       约翰·霍林斯 John Hollis
       Leon Greene
       Tony Scannell
       大卫·尼尔 David Neal
       博格丹·科米诺夫斯基 Bogdan Kominowski
       乔治·哈里斯 George Harris
       迪普·罗伊 Deep Roy
       伊莫金·克莱尔 Imogen Claire
       Andy Bradford
       泰瑞·佛瑞斯塔 Terry Forrestal
       约翰·利斯 John Lees
       维娃 Viva
       鲁斯迪·戈夫 Rusty Goffe
       Richard Jones
       肯尼·贝克 Kenny Baker

◎标  签 科幻 | 美国 | 1980 | cult | 冒险 | 英国 | 美国电影 | 1980s
◎简  介

  
  蒙戈星球的邪恶帝王明预备摧毁地球,查可夫预知外星人的进犯,因而逼迫高登及黛儿登上他的火箭,前往拯救地球。当查可夫等人甫到蒙戈星球,即被明王俘虏……
  1. Video
  2. ID                                       : 1
  3. Format                                   : HEVC
  4. Format/Info                              : High Efficiency Video Coding
  5. Format profile                           : Main [email protected]@High
  6. Codec ID                                 : V_MPEGH/ISO/HEVC
  7. Duration                                 : 1 h 51 min
  8. Bit rate                                 : 62.2 Mb/s
  9. Width                                    : 3 840 pixels
  10. Height                                   : 1 634 pixels
  11. Display aspect ratio                     : 2.35:1
  12. Frame rate mode                          : Constant
  13. Frame rate                               : 24.000 FPS
  14. Color space                              : YUV
  15. Chroma subsampling                       : 4:2:0
  16. Bit depth                                : 10 bits
  17. Bits/(Pixel*Frame)                       : 0.413
  18. Stream size                              : 48.4 GiB (94%)
  19. Title                                    : Flash.Gordon.1980.2160p.BluRay.x265.10bit.SDR.DTS-HD.MA.5.1-SWTYBLZ
  20. Writing library                          : x265 3.0ed72af837053:[Windows][GCC 8.2.0][64 bit] 10bit
  21. Encoding settings                        : cpuid=1111039 / frame-threads=6 / numa-pools=40 / wpp / no-pmode / no-pme / no-psnr / no-ssim / log-level=2 / input-csp=1 / input-res=3840x1634 / interlace=0 / total-frames=160554 / level-idc=51 / high-tier=1 / uhd-bd=0 / ref=3 / no-allow-non-conformance / repeat-headers / annexb / aud / hrd / info / hash=0 / no-temporal-layers / no-open-gop / min-keyint=1 / keyint=24 / gop-lookahead=0 / bframes=4 / b-adapt=2 / b-pyramid / bframe-bias=0 / rc-lookahead=25 / lookahead-slices=4 / scenecut=40 / radl=0 / no-splice / no-intra-refresh / ctu=64 / min-cu-size=8 / no-rect / no-amp / max-tu-size=32 / tu-inter-depth=1 / tu-intra-depth=1 / limit-tu=0 / rdoq-level=0 / dynamic-rd=0.00 / no-ssim-rd / signhide / no-tskip / nr-intra=0 / nr-inter=0 / no-constrained-intra / strong-intra-smoothing / max-merge=2 / limit-refs=3 / no-limit-modes / me=1 / subme=2 / merange=57 / temporal-mvp / weightp / no-weightb / no-analyze-src-pics / deblock=0:0 / no-sao / no-sao-non-deblock / rd=3 / no-early-skip / rskip / no-fast-intra / no-tskip-fast / no-cu-lossless / no-b-intra / no-splitrd-skip / rdpenalty=0 / psy-rd=2.00 / psy-rdoq=0.00 / no-rd-refine / no-lossless / cbqpoffs=0 / crqpoffs=0 / rc=crf / crf=18.0 / qcomp=0.60 / qpstep=4 / stats-write=0 / stats-read=0 / vbv-maxrate=160000 / vbv-bufsize=160000 / vbv-init=0.9 / crf-max=0.0 / crf-min=0.0 / ipratio=1.40 / pbratio=1.30 / aq-mode=1 / aq-strength=1.00 / cutree / zone-count=0 / no-strict-cbr / qg-size=32 / no-rc-grain / qpmax=69 / qpmin=0 / no-const-vbv / sar=1 / overscan=0 / videoformat=5 / range=0 / colorprim=2 / transfer=2 / colormatrix=2 / chromaloc=0 / display-window=0 / max-cll=0,0 / min-luma=0 / max-luma=1023 / log2-max-poc-lsb=8 / vui-timing-info / vui-hrd-info / slices=1 / opt-qp-pps / opt-ref-list-length-pps / no-multi-pass-opt-rps / scenecut-bias=0.05 / no-opt-cu-delta-qp / no-aq-motion / no-hdr / no-hdr-opt / no-dhdr10-opt / no-idr-recovery-sei / analysis-reuse-level=5 / scale-factor=0 / refine-intra=0 / refine-inter=0 / refine-mv=0 / refine-ctu-distortion=0 / no-limit-sao / ctu-info=0 / no-lowpass-dct / refine-analysis-type=0 / copy-pic=1 / max-ausize-factor=1.0 / no-dynamic-refine / no-single-sei / no-hevc-aq / qp-adaptation-range=1.00
  22. Language                                 : English
  23. Default                                  : Yes
  24. Forced                                   : No
  25. Audio #1
  26. ID                                       : 2
  27. ID in the original source medium         : 4353 (0x1101)
  28. Format                                   : DTS XLL
  29. Format/Info                              : Digital Theater Systems
  30. Commercial name                          : DTS-HD Master Audio
  31. Codec ID                                 : A_DTS
  32. Duration                                 : 1 h 51 min
  33. Bit rate mode                            : Variable
  34. Bit rate                                 : 3 506 kb/s
  35. Channel(s)                               : 6 channels
  36. Channel layout                           : C L R Ls Rs LFE
  37. Sampling rate                            : 48.0 kHz
  38. Frame rate                               : 93.750 FPS (512 SPF)
  39. Bit depth                                : 24 bits
  40. Compression mode                         : Lossless
  41. Stream size                              : 2.73 GiB (5%)
  42. Title                                    : Flash.Gordon.1980.2160p.BluRay.x265.10bit.SDR.DTS-HD.MA.5.1-SWTYBLZ
  43. Language                                 : English
  44. Default                                  : Yes
  45. Forced                                   : No
  46. Original source medium                   : Blu-ray
  47. Audio #2
  48. ID                                       : 3
  49. Format                                   : AC-3
  50. Format/Info                              : Audio Coding 3
  51. Commercial name                          : Dolby Digital
  52. Codec ID                                 : A_AC3
  53. Duration                                 : 1 h 51 min
  54. Bit rate mode                            : Constant
  55. Bit rate                                 : 640 kb/s
  56. Channel(s)                               : 6 channels
  57. Channel layout                           : L R C LFE Ls Rs
  58. Sampling rate                            : 48.0 kHz
  59. Frame rate                               : 31.250 FPS (1536 SPF)
  60. Bit depth                                : 16 bits
  61. Compression mode                         : Lossy
  62. Stream size                              : 510 MiB (1%)
  63. Title                                    : Flash.Gordon.1980.2160p.BluRay.x265.10bit.SDR.DTS-HD.MA.5.1-SWTYBLZ
  64. Language                                 : English
  65. Service kind                             : Complete Main
  66. Default                                  : No
  67. Forced                                   : No
  68. Text #1
  69. ID                                       : 4
  70. Format                                   : UTF-8
  71. Codec ID                                 : S_TEXT/UTF8
  72. Codec ID/Info                            : UTF-8 Plain Text
  73. Duration                                 : 1 h 50 min
  74. Bit rate                                 : 43 b/s
  75. Count of elements                        : 952
  76. Stream size                              : 35.0 KiB (0%)
  77. Title                                    : English-SRT
  78. Language                                 : English
  79. Default                                  : Yes
  80. Forced                                   : No
  81. Text #2
  82. ID                                       : 5
  83. ID in the original source medium         : 4768 (0x12A0)
  84. Format                                   : PGS
  85. Muxing mode                              : zlib
  86. Codec ID                                 : S_HDMV/PGS
  87. Codec ID/Info                            : Picture based subtitle format used on BDs/HD-DVDs
  88. Duration                                 : 1 h 50 min
  89. Bit rate                                 : 28.7 kb/s
  90. Count of elements                        : 2042
  91. Stream size                              : 22.7 MiB (0%)
  92. Title                                    : English-PGS
  93. Language                                 : English
  94. Default                                  : No
  95. Forced                                   : No
  96. Original source medium                   : Blu-ray
  97. Text #3
  98. ID                                       : 6
  99. ID in the original source medium         : 4769 (0x12A1)
  100. Format                                   : PGS
  101. Muxing mode                              : zlib
  102. Codec ID                                 : S_HDMV/PGS
  103. Codec ID/Info                            : Picture based subtitle format used on BDs/HD-DVDs
  104. Duration                                 : 1 h 47 min
  105. Bit rate                                 : 25.0 kb/s
  106. Count of elements                        : 1632
  107. Stream size                              : 19.1 MiB (0%)
  108. Title                                    : German-PGS
  109. Language                                 : German
  110. Default                                  : No
  111. Forced                                   : No
  112. Original source medium                   : Blu-ray
  113. Text #4
  114. ID                                       : 7
  115. ID in the original source medium         : 4771 (0x12A3)
  116. Format                                   : PGS
  117. Muxing mode                              : zlib
  118. Codec ID                                 : S_HDMV/PGS
  119. Codec ID/Info                            : Picture based subtitle format used on BDs/HD-DVDs
  120. Duration                                 : 1 h 50 min
  121. Bit rate                                 : 24.4 kb/s
  122. Count of elements                        : 2202
  123. Stream size                              : 19.3 MiB (0%)
  124. Title                                    : French-PGS
  125. Language                                 : French
  126. Default                                  : No
  127. Forced                                   : No
  128. Original source medium                   : Blu-ray
  129. Menu
  130. 00:00:00.000                             : en:Chapter 01
  131. 00:07:47.875                             : en:Chapter 02
  132. 00:18:22.833                             : en:Chapter 03
  133. 00:32:11.875                             : en:Chapter 04
  134. 00:37:45.625                             : en:Chapter 05
  135. 00:44:11.208                             : en:Chapter 06
  136. 00:54:21.000                             : en:Chapter 07
  137. 01:03:23.750                             : en:Chapter 08
  138. 01:10:38.875                             : en:Chapter 09
  139. 01:23:22.541                             : en:Chapter 10
  140. 01:35:01.416                             : en:Chapter 11
  141. 01:42:05.750                             : en:Chapter 12
复制代码



                                       
                                       

                                       
                                       
                                       




回复

使用道具 举报

懒得打字嘛,点击右侧快捷回复 【右侧内容,后台自定义】
您需要登录后才可以回帖 登录 | 立即加入

本版积分规则

Archiver|小黑屋| 蓝光电影网 |网站地图

Copyright © 2021 Comsenz Inc. Powered by 蓝光电影网

蓝光电影网

本站内容由用户自主分享和转载自互联网,转载目的在于传递更多信息,并不代表本网赞同其观点和对其真实性负责。

如有侵权、违反国家法律政策行为,请联系我们,我们会第一时间及时清除和处理!

举报反馈邮箱:[email protected]

快速回复 返回顶部 返回列表