找回密码

蓝光电影网

查看: 84|回复: 0

[2160p] 仲夏夜惊魂/仲夏 Midsommar.2019.DC.2160p.BluRay.x264.8bit.SDR.DTS-HD.MA.5.1-SWTYBLZ 48.06GB

[复制链接]
蓝光币
1082
发表于 2020-8-4 09:49:01 | 显示全部楼层 |阅读模式


◎译  名 仲夏夜惊魂 / 仲夏 / 仲夏噩梦 / 仲夏节 / 仲夏魇(台)
◎片  名 Midsommar
◎年  代 2019
◎产  地 美国 / 瑞典 / 匈牙利
◎类  别 可骇
◎语  言 英语 / 瑞典语
◎上映日期 2019-07-03(美国)
◎IMDb评分  7.1/10 from 166296 users
◎IMDb链接  https://www.imdb.com/title/tt8772262
◎豆瓣评分 6.6/10 from 45443 users
◎豆瓣链接 https://movie.douban.com/subject/30288638/
◎片  长 147分钟
◎导  演 阿里·艾斯特 Ari Aster
◎编  剧 阿里·艾斯特 Ari Aster
◎主  演 弗洛伦斯·皮尤 Florence Pugh
       杰克·莱诺 Jack Reynor
       维尔赫尔姆·布洛姆根 Vilhelm Blomgren
       威廉·杰克森·哈珀 William Jackson Harper
       威尔·保尔特 Will Poulter
       埃洛拉·托尔基亚 Ellora Torchia
       阿奇·马德基 Archie Madekwe
       亨里克·诺伦 Henrik Norlén
       贡内尔·弗雷德 Gunnel Fred
       伊莎贝尔·古瑞 Isabelle Grill
       朱莉娅·拉格纳森 Julia Ragnarsson
       伯恩·安德森 Bj?rn Andrésen
       安娜·阿斯特罗姆 Anna ?str?m
       丽芙·姆琼斯 Liv Mj?nes
       路易丝·彼得霍夫 Louise Peterhoff
       安琪·拉尔森 Anki Larsson
       拉斯·瓦林格 Lars V?ringer
       马茨·布洛姆格伦 Mats Blomgren
       安德斯·贝克曼 Anders Beckman

◎标  签 惊悚 | 邪教 | 可骇 | 宗教 | 美国 | 悬疑 | 2019 | CULT
◎简  介

  
  丹妮因姐姐及怙恃意外自杀而日渐解体,男友克里斯为了抚慰丹妮而约请丹妮与他的好友来到瑞典的一座偏僻村落加入了一个当地的夏日活动,以令她?怀姐姐及怙恃身亡的阴影。
  但活动却持续不断地发生怪事,而工作也朝着暴力、诡异的偏向成长着,是以他们决议摸索这里去消除迷惑。却发现这些美好的丰收背后与他们所信仰的宗教有关。工作的成长亦令丹妮的心理阴影日渐扩大,众人的情感亦起头兴奋及解体起来,堕入割裂的场面??强逼着他们做出终极的决定:居留或献祭??
◎获奖情况  
  第91届美国国家批评协会奖(2019)
  十佳自力电影
  第25届美国批评家挑选电影奖(2020)
  最好科幻/可骇片(提名)
  第35届美国自力精神奖(2020)
  最好摄影(提名)
  第29届哥谭自力电影奖(2019)
  最好女演员(提名) 弗洛伦丝·皮尤
  最好剧本(提名) 阿里·艾斯特
  第54届美国国家影评人协会奖(2020)
  最好女配角(提名) 弗洛伦丝·皮尤
  第40届伦敦影评人协会奖(2020)
  年度电影(提名)
  年度女配角(提名) 弗洛伦丝·皮尤
  年度英国/爱尔兰女演员(提名) 弗洛伦丝·皮尤
  第32届芝加哥影评人协会奖(2019)
  最好视觉结果(提名)
  第13届底特律影评人协会奖(2019)
  最好新人 弗洛伦丝·皮尤
  第23届美国在线影评人协会奖(2020)
  最好女配角(提名) 弗洛伦丝·皮尤
  1. Video
  2. ID                                       : 1
  3. Format                                   : AVC
  4. Format/Info                              : Advanced Video Codec
  5. Format profile                           : [email protected]
  6. Format settings                          : CABAC / 5 Ref Frames
  7. Format settings, CABAC                   : Yes
  8. Format settings, Reference frames        : 5 frames
  9. Codec ID                                 : V_MPEG4/ISO/AVC
  10. Duration                                 : 2 h 50 min
  11. Bit rate                                 : 37.0 Mb/s
  12. Width                                    : 3 840 pixels
  13. Height                                   : 1 922 pixels
  14. Display aspect ratio                     : 1.998
  15. Frame rate mode                          : Constant
  16. Frame rate                               : 23.976 (24000/1001/189150) FPS
  17. Color space                              : YUV
  18. Chroma subsampling                       : 4:2:0
  19. Bit depth                                : 8 bits
  20. Scan type                                : Progressive
  21. Bits/(Pixel*Frame)                       : 0.209
  22. Stream size                              : 44.0 GiB (92%)
  23. Title                                    : Midsommar.2019.DC.2160p.BluRay.x264.8bit.SDR.DTS-HD.MA.5.1-SWTYBLZ
  24. Writing library                          : x264 core 157 r2935 545de2f
  25. Encoding settings                        : cabac=1 / ref=5 / deblock=1:-1:-1 / analyse=0x3:0x113 / me=umh / subme=10 / psy=1 / psy_rd=1.00:0.15 / mixed_ref=1 / me_range=48 / chroma_me=1 / trellis=2 / 8x8dct=1 / cqm=0 / deadzone=21,11 / fast_pskip=1 / chroma_qp_offset=-3 / threads=48 / lookahead_threads=4 / sliced_threads=0 / nr=0 / decimate=0 / interlaced=0 / bluray_compat=0 / constrained_intra=0 / bframes=3 / b_pyramid=2 / b_adapt=2 / b_bias=0 / direct=3 / weightb=1 / open_gop=0 / weightp=2 / keyint=250 / keyint_min=23 / scenecut=40 / intra_refresh=0 / rc_lookahead=50 / rc=crf / mbtree=1 / crf=18.0 / qcomp=0.60 / qpmin=0 / qpmax=69 / qpstep=4 / ip_ratio=1.40 / aq=1:1.00
  26. Default                                  : Yes
  27. Forced                                   : No
  28. Audio #1
  29. ID                                       : 2
  30. ID in the original source medium         : 4352 (0x1100)
  31. Format                                   : DTS XLL
  32. Format/Info                              : Digital Theater Systems
  33. Commercial name                          : DTS-HD Master Audio
  34. Codec ID                                 : A_DTS
  35. Duration                                 : 2 h 50 min
  36. Bit rate mode                            : Variable
  37. Bit rate                                 : 2 662 kb/s
  38. Channel(s)                               : 6 channels
  39. Channel layout                           : C L R Ls Rs LFE
  40. Sampling rate                            : 48.0 kHz
  41. Frame rate                               : 93.750 FPS (512 SPF)
  42. Bit depth                                : 24 bits
  43. Compression mode                         : Lossless
  44. Stream size                              : 3.17 GiB (7%)
  45. Title                                    : Midsommar.2019.DC.2160p.BluRay.x264.8bit.SDR.DTS-HD.MA.5.1-SWTYBLZ
  46. Language                                 : English
  47. Default                                  : Yes
  48. Forced                                   : No
  49. Original source medium                   : Blu-ray
  50. Audio #2
  51. ID                                       : 3
  52. Format                                   : AC-3
  53. Format/Info                              : Audio Coding 3
  54. Commercial name                          : Dolby Digital
  55. Codec ID                                 : A_AC3
  56. Duration                                 : 2 h 50 min
  57. Bit rate mode                            : Constant
  58. Bit rate                                 : 640 kb/s
  59. Channel(s)                               : 6 channels
  60. Channel layout                           : L R C LFE Ls Rs
  61. Sampling rate                            : 48.0 kHz
  62. Frame rate                               : 31.250 FPS (1536 SPF)
  63. Bit depth                                : 16 bits
  64. Compression mode                         : Lossy
  65. Stream size                              : 779 MiB (2%)
  66. Title                                    : Midsommar.2019.DC.2160p.BluRay.x264.8bit.SDR.DTS-HD.MA.5.1-SWTYBLZ
  67. Language                                 : English
  68. Service kind                             : Complete Main
  69. Default                                  : No
  70. Forced                                   : No
  71. Text #1
  72. ID                                       : 4
  73. Format                                   : UTF-8
  74. Codec ID                                 : S_TEXT/UTF8
  75. Codec ID/Info                            : UTF-8 Plain Text
  76. Duration                                 : 2 h 34 min
  77. Bit rate                                 : 40 b/s
  78. Count of elements                        : 1424
  79. Stream size                              : 45.6 KiB (0%)
  80. Title                                    : English-SRT
  81. Language                                 : English
  82. Default                                  : Yes
  83. Forced                                   : No
  84. Text #2
  85. ID                                       : 5
  86. ID in the original source medium         : 4768 (0x12A0)
  87. Format                                   : PGS
  88. Muxing mode                              : zlib
  89. Codec ID                                 : S_HDMV/PGS
  90. Codec ID/Info                            : Picture based subtitle format used on BDs/HD-DVDs
  91. Duration                                 : 2 h 49 min
  92. Bit rate                                 : 29.7 kb/s
  93. Count of elements                        : 3306
  94. Stream size                              : 35.9 MiB (0%)
  95. Title                                    : English-PGS
  96. Language                                 : English
  97. Default                                  : No
  98. Forced                                   : No
  99. Original source medium                   : Blu-ray
  100. Menu
  101. 00:00:00.000                             : en:Chapter 01
  102. 00:12:34.378                             : en:Chapter 02
  103. 00:28:42.887                             : en:Chapter 03
  104. 00:47:34.935                             : en:Chapter 04
  105. 00:58:11.237                             : en:Chapter 05
  106. 01:14:23.041                             : en:Chapter 06
  107. 01:32:50.106                             : en:Chapter 07
  108. 01:45:44.046                             : en:Chapter 08
  109. 01:57:36.674                             : en:Chapter 09
  110. 02:12:00.579                             : en:Chapter 10
  111. 02:25:01.567                             : en:Chapter 11
  112. 02:39:02.658                             : en:Chapter 12
复制代码




                                       
                                       

                                       
                                       
                                       




回复

使用道具 举报

懒得打字嘛,点击右侧快捷回复 【右侧内容,后台自定义】
您需要登录后才可以回帖 登录 | 立即加入

本版积分规则

Archiver|小黑屋| 蓝光电影网 |网站地图

Copyright © 2021 Comsenz Inc. Powered by 蓝光电影网

蓝光电影网

本站内容由用户自主分享和转载自互联网,转载目的在于传递更多信息,并不代表本网赞同其观点和对其真实性负责。

如有侵权、违反国家法律政策行为,请联系我们,我们会第一时间及时清除和处理!

举报反馈邮箱:[email protected]

快速回复 返回顶部 返回列表