找回密码

蓝光电影网

查看: 66|回复: 0

[2160p] 斯巴达克斯/万夫莫敌 Spartacus.1960.2160p.BluRay.x264.8bit.SDR.DTS-X.7.1-SWTYBLZ 62.17GB

[复制链接]
蓝光币
1082
发表于 2020-7-22 10:02:52 | 显示全部楼层 |阅读模式


◎译  名 斯巴达克斯 / 万夫莫敌(台) / 斯巴达克思 / 风云群英会(港)
◎片  名 Spartacus
◎年  代 1960
◎产  地 美国
◎类  别 剧情 / 行动 / 列传 / 历史 / 冒险
◎语  言 英语
◎上映日期 1960-10-07
◎IMDb评分  7.9/10 from 121139 users
◎IMDb链接  https://www.imdb.com/title/tt0054331
◎豆瓣评分 8.0/10 from 17368 users
◎豆瓣链接 https://movie.douban.com/subject/1298366/
◎片  长 184分钟(首映版)
◎导  演 Stanley Kubrick
◎编  剧 Dalton Trumbo / Calder Willingham
◎主  演 Kirk Douglas
       Laurence Olivier
       Jean Simmons
       Charles Laughton
       Peter Ustinov
       John Gavin
       Nina Foch
       Tony Curtis

◎标  签 美国 | 史诗 | 战争 | 斯坦利·库布里克 | 历史 | 库布里克 | StanleyKubrick | 1960
◎简  介

  
  公元前73年,来自古罗马利比亚省的仆从斯巴达克斯(柯克?道格拉斯 Kirk Douglas 饰)在加普亚肉搏黉舍中爱上了女奴瓦瑞妮娅(琼?西蒙斯 Jean Simmons 饰)。同年,肉搏黉舍的仆从在斯巴达克斯率领下策动叛逆,获得自在,随后斯巴达克斯与瓦瑞妮娅团圆,结为佳耦。叛逆震动了罗马的统治团体,激化了元老院中贵族派战争民派的冲突。贵族将领克拉苏(劳伦斯?奥利维尔 Laurence Olivier 饰)伺机击败平民派首领格拉古(查尔斯?劳顿 Charles Laughton 饰),夺取了首席执政官的权利,实行独裁。格拉古为了冲击克拉苏,筹算私下放走仆从雄师;克拉苏却重金拉拢了海盗,并召回在国外作战的两支雄师。斯巴达克斯叛逆兵三面受敌,寡不抵众,数万仆从战死,他与妻子和六千幸存战友均被克拉苏所俘。在最初的关头,由于格拉古的帮助,情况又发生了变化。
◎获奖情况  
  第33届奥斯卡金像奖(1961)
  最好男配角 彼得·乌斯蒂诺夫
  彩色片最好摄影 拉塞尔·麦蒂
  最好剪辑(提名) Robert Lawrence
  彩色片最好艺术指导和布景 Eric Orbom / 亚历山大·高利思 / Julia Heron / 罗素·A·盖斯曼
  彩色片最好打扮设想 瓦勒斯 / Bill Thomas
  剧情/笑剧片最好配乐(提名) 阿历克斯·诺斯
  第18届金球奖(1961)
  电影类 最好剧情片
  电影类 最好导演(提名) 斯坦利·库布里克
  电影类 剧情片最好男配角(提名) 劳伦斯·奥利弗
  电影类 最好男配角(提名) 彼得·乌斯蒂诺夫 / 伍迪·斯特罗德
  电影类 最好原创配乐(提名) 阿历克斯·诺斯
  1. Video
  2. ID                                       : 1
  3. Format                                   : AVC
  4. Format/Info                              : Advanced Video Codec
  5. Format profile                           : [email protected]
  6. Format settings                          : CABAC / 5 Ref Frames
  7. Format settings, CABAC                   : Yes
  8. Format settings, Reference frames        : 5 frames
  9. Codec ID                                 : V_MPEG4/ISO/AVC
  10. Duration                                 : 3 h 16 min
  11. Bit rate                                 : 38.6 Mb/s
  12. Width                                    : 3 840 pixels
  13. Height                                   : 1 744 pixels
  14. Display aspect ratio                     : 2.2:1
  15. Frame rate mode                          : Constant
  16. Frame rate                               : 23.976 (24000/1001/189150) FPS
  17. Color space                              : YUV
  18. Chroma subsampling                       : 4:2:0
  19. Bit depth                                : 8 bits
  20. Scan type                                : Progressive
  21. Bits/(Pixel*Frame)                       : 0.240
  22. Stream size                              : 53.0 GiB (85%)
  23. Title                                    : Spartacus.1960.2160p.BluRay.x264.8bit.SDR.DTS-X.7.1-SWTYBLZ
  24. Writing library                          : x264 core 157 r2935 545de2f
  25. Encoding settings                        : cabac=1 / ref=5 / deblock=1:-1:-1 / analyse=0x3:0x113 / me=umh / subme=10 / psy=1 / psy_rd=1.00:0.15 / mixed_ref=1 / me_range=48 / chroma_me=1 / trellis=2 / 8x8dct=1 / cqm=0 / deadzone=21,11 / fast_pskip=1 / chroma_qp_offset=-3 / threads=48 / lookahead_threads=4 / sliced_threads=0 / nr=0 / decimate=0 / interlaced=0 / bluray_compat=0 / constrained_intra=0 / bframes=3 / b_pyramid=2 / b_adapt=2 / b_bias=0 / direct=3 / weightb=1 / open_gop=0 / weightp=2 / keyint=250 / keyint_min=23 / scenecut=40 / intra_refresh=0 / rc_lookahead=50 / rc=crf / mbtree=1 / crf=20.0 / qcomp=0.60 / qpmin=0 / qpmax=69 / qpstep=4 / ip_ratio=1.40 / aq=1:1.00
  26. Language                                 : English
  27. Default                                  : Yes
  28. Forced                                   : No
  29. Audio #1
  30. ID                                       : 2
  31. ID in the original source medium         : 4352 (0x1100)
  32. Format                                   : DTS XLL X
  33. Format/Info                              : Digital Theater Systems
  34. Commercial name                          : DTS-HD Master Audio
  35. Codec ID                                 : A_DTS
  36. Duration                                 : 3 h 16 min
  37. Bit rate mode                            : Variable
  38. Bit rate                                 : 5 965 kb/s
  39. Channel(s)                               : 8 channels
  40. Channel(s)_Original                      : Object Based
  41. Channel layout                           : Object Based
  42. Sampling rate                            : 48.0 kHz
  43. Frame rate                               : 93.750 FPS (512 SPF)
  44. Bit depth                                : 24 bits
  45. Stream size                              : 8.19 GiB (13%)
  46. Title                                    : Spartacus.1960.2160p.BluRay.x264.8bit.SDR.DTS-X.7.1-SWTYBLZ
  47. Language                                 : English
  48. Default                                  : Yes
  49. Forced                                   : No
  50. Original source medium                   : Blu-ray
  51. Audio #2
  52. ID                                       : 3
  53. Format                                   : AC-3
  54. Format/Info                              : Audio Coding 3
  55. Commercial name                          : Dolby Digital
  56. Codec ID                                 : A_AC3
  57. Duration                                 : 3 h 16 min
  58. Bit rate mode                            : Constant
  59. Bit rate                                 : 640 kb/s
  60. Channel(s)                               : 6 channels
  61. Channel layout                           : L R C LFE Ls Rs
  62. Sampling rate                            : 48.0 kHz
  63. Frame rate                               : 31.250 FPS (1536 SPF)
  64. Bit depth                                : 16 bits
  65. Compression mode                         : Lossy
  66. Stream size                              : 900 MiB (1%)
  67. Title                                    : Spartacus.1960.2160p.BluRay.x264.8bit.SDR.DTS-X.7.1-SWTYBLZ
  68. Language                                 : English
  69. Service kind                             : Complete Main
  70. Default                                  : No
  71. Forced                                   : No
  72. Text #1
  73. ID                                       : 4
  74. Format                                   : UTF-8
  75. Codec ID                                 : S_TEXT/UTF8
  76. Codec ID/Info                            : UTF-8 Plain Text
  77. Duration                                 : 3 h 5 min
  78. Bit rate                                 : 46 b/s
  79. Count of elements                        : 1780
  80. Stream size                              : 62.7 KiB (0%)
  81. Title                                    : English-SRT
  82. Language                                 : English
  83. Default                                  : Yes
  84. Forced                                   : No
  85. Text #2
  86. ID                                       : 5
  87. ID in the original source medium         : 4768 (0x12A0)
  88. Format                                   : PGS
  89. Muxing mode                              : zlib
  90. Codec ID                                 : S_HDMV/PGS
  91. Codec ID/Info                            : Picture based subtitle format used on BDs/HD-DVDs
  92. Duration                                 : 3 h 5 min
  93. Bit rate                                 : 31.1 kb/s
  94. Count of elements                        : 3900
  95. Stream size                              : 41.2 MiB (0%)
  96. Title                                    : English-PGS
  97. Language                                 : English
  98. Default                                  : No
  99. Forced                                   : No
  100. Original source medium                   : Blu-ray
  101. Text #3
  102. ID                                       : 6
  103. ID in the original source medium         : 4769 (0x12A1)
  104. Format                                   : PGS
  105. Muxing mode                              : zlib
  106. Codec ID                                 : S_HDMV/PGS
  107. Codec ID/Info                            : Picture based subtitle format used on BDs/HD-DVDs
  108. Duration                                 : 3 h 13 min
  109. Bit rate                                 : 29.0 kb/s
  110. Count of elements                        : 3586
  111. Stream size                              : 40.1 MiB (0%)
  112. Title                                    : French-PGS
  113. Language                                 : French
  114. Default                                  : No
  115. Forced                                   : No
  116. Original source medium                   : Blu-ray
  117. Text #4
  118. ID                                       : 7
  119. ID in the original source medium         : 4770 (0x12A2)
  120. Format                                   : PGS
  121. Muxing mode                              : zlib
  122. Codec ID                                 : S_HDMV/PGS
  123. Codec ID/Info                            : Picture based subtitle format used on BDs/HD-DVDs
  124. Duration                                 : 3 h 13 min
  125. Bit rate                                 : 27.5 kb/s
  126. Count of elements                        : 3592
  127. Stream size                              : 38.1 MiB (0%)
  128. Title                                    : Spanish-PGS
  129. Language                                 : Spanish
  130. Default                                  : No
  131. Forced                                   : No
  132. Original source medium                   : Blu-ray
  133. Text #5
  134. ID                                       : 8
  135. ID in the original source medium         : 4771 (0x12A3)
  136. Format                                   : PGS
  137. Muxing mode                              : zlib
  138. Codec ID                                 : S_HDMV/PGS
  139. Codec ID/Info                            : Picture based subtitle format used on BDs/HD-DVDs
  140. Duration                                 : 3 h 5 min
  141. Bit rate                                 : 20.5 kb/s
  142. Count of elements                        : 3356
  143. Stream size                              : 27.2 MiB (0%)
  144. Title                                    : Japanese-PGS
  145. Language                                 : Japanese
  146. Default                                  : No
  147. Forced                                   : No
  148. Original source medium                   : Blu-ray
  149. Text #6
  150. ID                                       : 9
  151. ID in the original source medium         : 4772 (0x12A4)
  152. Format                                   : PGS
  153. Muxing mode                              : zlib
  154. Codec ID                                 : S_HDMV/PGS
  155. Codec ID/Info                            : Picture based subtitle format used on BDs/HD-DVDs
  156. Duration                                 : 3 h 16 min
  157. Bit rate                                 : 27.7 kb/s
  158. Count of elements                        : 3596
  159. Stream size                              : 38.9 MiB (0%)
  160. Title                                    : Portuguese-PGS
  161. Language                                 : Portuguese
  162. Default                                  : No
  163. Forced                                   : No
  164. Original source medium                   : Blu-ray
  165. Menu
  166. 00:00:00.000                             : en:Chapter 01
  167. 00:04:03.910                             : en:Chapter 02
  168. 00:14:05.636                             : en:Chapter 03
  169. 00:19:05.602                             : en:Chapter 04
  170. 00:31:56.539                             : en:Chapter 05
  171. 00:43:13.507                             : en:Chapter 06
  172. 00:53:03.638                             : en:Chapter 07
  173. 01:01:47.161                             : en:Chapter 08
  174. 01:20:18.438                             : en:Chapter 09
  175. 01:41:47.059                             : en:Chapter 10
  176. 01:47:55.760                             : en:Chapter 11
  177. 01:50:18.153                             : en:Chapter 12
  178. 02:10:43.919                             : en:Chapter 13
  179. 02:30:02.785                             : en:Chapter 14
  180. 03:00:56.971                             : en:Chapter 15
  181. 03:10:09.272                             : en:Chapter 16
复制代码







                                       
                                       

                                       
                                       
                                       




回复

使用道具 举报

懒得打字嘛,点击右侧快捷回复 【右侧内容,后台自定义】
您需要登录后才可以回帖 登录 | 立即加入

本版积分规则

Archiver|小黑屋| 蓝光电影网 |网站地图

Copyright © 2021 Comsenz Inc. Powered by 蓝光电影网

蓝光电影网

本站内容由用户自主分享和转载自互联网,转载目的在于传递更多信息,并不代表本网赞同其观点和对其真实性负责。

如有侵权、违反国家法律政策行为,请联系我们,我们会第一时间及时清除和处理!

举报反馈邮箱:[email protected]

快速回复 返回顶部 返回列表