找回密码

蓝光电影网

查看: 55|回复: 0

[2160p] 史酷比狗 Scoob.2020.2160p.BluRay.x265.10bit.SDR.DTS-HD.MA.5.1-SWTYBLZ 15.18GB

[复制链接]
蓝光币
1084
发表于 2020-7-22 09:46:42 | 显示全部楼层 |阅读模式


◎译  名 史酷比狗 / S.C.O.O.B / 史酷比大电影
◎片  名 Scooby-Doo
◎年  代 2020
◎产  地 美国
◎类  别 笑剧 / 动画 / 冒险
◎语  言 英语
◎上映日期 2020-05-15(美国)
◎IMDb评分  5.7/10 from 11632 users
◎IMDb链接  https://www.imdb.com/title/tt3152592
◎豆瓣评分 5.3/10 from 475 users
◎豆瓣链接 https://movie.douban.com/subject/25908846/
◎片  长 94分钟(美国)
◎导  演 托尼·塞沃恩 Tony Cervone
◎编  剧 马特·利伯曼 Matt Lieberman / 亚当·希泰凯尔 Adam Sztykiel / Jack Donaldson / 德里克·艾略特 Derek Elliott / 伊尔·波戴尔 Eyal Podell / 乔纳森·E·斯图尔特 Jonathon E. Stewart / 威廉·汉纳 William Hanna / 约瑟夫·巴伯拉 Joseph Barbera
◎主  演 威尔·福特 Will Forte
       马克·沃尔伯格 Mark Wahlberg
       詹森·艾萨克 Jason Isaacs
       吉娜·罗德里格兹 Gina Rodriguez
       扎克·埃夫隆 Zac Efron
       阿曼达·塞弗里德 Amanda Seyfried
       科雷西·克莱门斯 Kiersey Clemons
       郑肯 Ken Jeong
       崔西·摩根 Tracy Morgan
       弗兰克·维尔克 Frank Welker
       伊恩·阿米蒂奇 Iain Armitage
       麦肯娜·格瑞丝 Mckenna Grace
       皮尔斯·加格农 Pierce Gagnon
       阿丽亚娜·格林布拉特 Ariana Greenblatt
       西蒙·考威尔 Simon Cowell
       克里斯蒂娜·亨德里克斯 Christina Hendricks
       亨利·温克勒 Henry Winkler
       哈里·佩里 Harry Perry
       约翰·迪·马吉欧 John Di Maggio
       凯文·赫夫南 Kevin Heffernan
       伊拉·格拉斯 Ira Glass
       玛雅·厄斯金 Maya Erskine
       比利·维斯特 Billy West
       Don Messick
       弗雷德·塔特西奥 Fred Tatasciore
       贾斯蒂娜·马查多 Justina Machado
       肯妮迪·皮尔 Kennedy Peil
       John McDaniel
       帕姆·科茨 Pam Coats
       托尼·塞沃恩 Tony Cervone
       亚当·希泰凯尔 Adam Sztykiel
       吉姆·麦司奇门 Jim Meskimen

◎标  签 动画 | 美国 | 笑剧 | 2020 | 史酷比 | 华纳 | 电影 | 典范
◎简  介

  
  《史酷比狗》是史酷比狗的第一部大银幕动画冒险长片,报告了史酷比不为人知的起源故事,以及奥秘公司史上最出色的惊世秘案。
  《史酷比狗》归纳了史酷比与其平生好友夏奇的初度相遇,以及他们若何与少年侦察弗雷德、维尔玛和达芙妮一路组建了天下著名的奥秘公司。现在,奥秘公司已经处理了数百起谜案、停止了无数次冒险,但史酷比和他的同伴们发现,他们正面临有史以来最惊险、最具应战性的奥秘案件:一个将“鬼魂狗”塞伯勒斯开释回世上的诡计。当他们拼命尽力想要阻止这一全球性大灾难之时,他们也发现了史酷比的奥秘身世,以及他超乎设想的奥秘命运。
  1. Video
  2. ID                                       : 1
  3. Format                                   : HEVC
  4. Format/Info                              : High Efficiency Video Coding
  5. Format profile                           : Main [email protected]@High
  6. Codec ID                                 : V_MPEGH/ISO/HEVC
  7. Duration                                 : 1 h 33 min
  8. Bit rate                                 : 20.1 Mb/s
  9. Width                                    : 3 840 pixels
  10. Height                                   : 1 608 pixels
  11. Display aspect ratio                     : 2.40:1
  12. Frame rate mode                          : Constant
  13. Frame rate                               : 23.976 (24000/1001/189150) FPS
  14. Color space                              : YUV
  15. Chroma subsampling                       : 4:2:0
  16. Bit depth                                : 10 bits
  17. Bits/(Pixel*Frame)                       : 0.136
  18. Stream size                              : 13.1 GiB (87%)
  19. Title                                    : Scoob.2020.2160p.BluRay.x265.10bit.SDR.DTS-HD.MA.5.1-SWTYBLZ
  20. Writing library                          : x265 3.0ed72af837053:[Windows][GCC 8.2.0][64 bit] 10bit
  21. Encoding settings                        : cpuid=1111039 / frame-threads=6 / numa-pools=40 / wpp / no-pmode / no-pme / no-psnr / no-ssim / log-level=2 / input-csp=1 / input-res=3840x1608 / interlace=0 / total-frames=134902 / level-idc=51 / high-tier=1 / uhd-bd=0 / ref=3 / no-allow-non-conformance / repeat-headers / annexb / aud / hrd / info / hash=0 / no-temporal-layers / no-open-gop / min-keyint=1 / keyint=24 / gop-lookahead=0 / bframes=6 / b-adapt=2 / b-pyramid / bframe-bias=0 / rc-lookahead=25 / lookahead-slices=4 / scenecut=40 / radl=0 / no-splice / no-intra-refresh / ctu=64 / min-cu-size=8 / no-rect / no-amp / max-tu-size=32 / tu-inter-depth=1 / tu-intra-depth=1 / limit-tu=0 / rdoq-level=0 / dynamic-rd=0.00 / no-ssim-rd / signhide / no-tskip / nr-intra=0 / nr-inter=0 / no-constrained-intra / strong-intra-smoothing / max-merge=2 / limit-refs=3 / no-limit-modes / me=1 / subme=2 / merange=57 / temporal-mvp / weightp / no-weightb / no-analyze-src-pics / deblock=1:1 / no-sao / no-sao-non-deblock / rd=3 / no-early-skip / rskip / no-fast-intra / no-tskip-fast / no-cu-lossless / no-b-intra / no-splitrd-skip / rdpenalty=0 / psy-rd=0.40 / psy-rdoq=0.00 / no-rd-refine / no-lossless / cbqpoffs=0 / crqpoffs=0 / rc=crf / crf=14.0 / qcomp=0.60 / qpstep=4 / stats-write=0 / stats-read=0 / vbv-maxrate=160000 / vbv-bufsize=160000 / vbv-init=0.9 / crf-max=0.0 / crf-min=0.0 / ipratio=1.40 / pbratio=1.30 / aq-mode=1 / aq-strength=0.40 / cutree / zone-count=0 / no-strict-cbr / qg-size=32 / no-rc-grain / qpmax=69 / qpmin=0 / no-const-vbv / sar=1 / overscan=0 / videoformat=5 / range=0 / colorprim=2 / transfer=2 / colormatrix=2 / chromaloc=0 / display-window=0 / max-cll=0,0 / min-luma=0 / max-luma=1023 / log2-max-poc-lsb=8 / vui-timing-info / vui-hrd-info / slices=1 / opt-qp-pps / opt-ref-list-length-pps / no-multi-pass-opt-rps / scenecut-bias=0.05 / no-opt-cu-delta-qp / no-aq-motion / no-hdr / no-hdr-opt / no-dhdr10-opt / no-idr-recovery-sei / analysis-reuse-level=5 / scale-factor=0 / refine-intra=0 / refine-inter=0 / refine-mv=0 / refine-ctu-distortion=0 / no-limit-sao / ctu-info=0 / no-lowpass-dct / refine-analysis-type=0 / copy-pic=1 / max-ausize-factor=1.0 / no-dynamic-refine / no-single-sei / no-hevc-aq / qp-adaptation-range=1.00
  22. Language                                 : English
  23. Default                                  : Yes
  24. Forced                                   : No

  25. Audio #1
  26. ID                                       : 2
  27. Format                                   : DTS XLL
  28. Format/Info                              : Digital Theater Systems
  29. Commercial name                          : DTS-HD Master Audio
  30. Codec ID                                 : A_DTS
  31. Duration                                 : 1 h 33 min
  32. Bit rate mode                            : Variable
  33. Bit rate                                 : 2 314 kb/s
  34. Channel(s)                               : 6 channels
  35. Channel layout                           : C L R Ls Rs LFE
  36. Sampling rate                            : 48.0 kHz
  37. Frame rate                               : 93.750 FPS (512 SPF)
  38. Bit depth                                : 16 bits
  39. Compression mode                         : Lossless
  40. Stream size                              : 1.52 GiB (10%)
  41. Title                                    : Scoob.2020.2160p.BluRay.x265.10bit.SDR.DTS-HD.MA.5.1-SWTYBLZ
  42. Language                                 : English
  43. Default                                  : Yes
  44. Forced                                   : No

  45. Audio #2
  46. ID                                       : 3
  47. Format                                   : AC-3
  48. Format/Info                              : Audio Coding 3
  49. Commercial name                          : Dolby Digital
  50. Codec ID                                 : A_AC3
  51. Duration                                 : 1 h 33 min
  52. Bit rate mode                            : Constant
  53. Bit rate                                 : 640 kb/s
  54. Channel(s)                               : 6 channels
  55. Channel layout                           : L R C LFE Ls Rs
  56. Sampling rate                            : 48.0 kHz
  57. Frame rate                               : 31.250 FPS (1536 SPF)
  58. Compression mode                         : Lossy
  59. Stream size                              : 429 MiB (3%)
  60. Title                                    : Scoob.2020.2160p.BluRay.x265.10bit.SDR.DTS-HD.MA.5.1-SWTYBLZ
  61. Language                                 : English
  62. Service kind                             : Complete Main
  63. Default                                  : No
  64. Forced                                   : No

  65. Text #1
  66. ID                                       : 4
  67. Format                                   : UTF-8
  68. Codec ID                                 : S_TEXT/UTF8
  69. Codec ID/Info                            : UTF-8 Plain Text
  70. Duration                                 : 1 h 26 min
  71. Bit rate                                 : 65 b/s
  72. Count of elements                        : 1483
  73. Stream size                              : 41.9 KiB (0%)
  74. Title                                    : English-SRT
  75. Language                                 : English
  76. Default                                  : Yes
  77. Forced                                   : No

  78. Text #2
  79. ID                                       : 5
  80. Format                                   : PGS
  81. Muxing mode                              : zlib
  82. Codec ID                                 : S_HDMV/PGS
  83. Codec ID/Info                            : Picture based subtitle format used on BDs/HD-DVDs
  84. Duration                                 : 1 h 31 min
  85. Bit rate                                 : 49.6 kb/s
  86. Count of elements                        : 3770
  87. Stream size                              : 32.6 MiB (0%)
  88. Title                                    : English-PGS
  89. Language                                 : English
  90. Default                                  : No
  91. Forced                                   : No

  92. Text #3
  93. ID                                       : 6
  94. Format                                   : PGS
  95. Muxing mode                              : zlib
  96. Codec ID                                 : S_HDMV/PGS
  97. Codec ID/Info                            : Picture based subtitle format used on BDs/HD-DVDs
  98. Duration                                 : 1 h 33 min
  99. Bit rate                                 : 33.0 kb/s
  100. Count of elements                        : 2752
  101. Stream size                              : 22.0 MiB (0%)
  102. Title                                    : French-PGS
  103. Language                                 : French
  104. Default                                  : No
  105. Forced                                   : No

  106. Text #4
  107. ID                                       : 7
  108. Format                                   : PGS
  109. Muxing mode                              : zlib
  110. Codec ID                                 : S_HDMV/PGS
  111. Codec ID/Info                            : Picture based subtitle format used on BDs/HD-DVDs
  112. Duration                                 : 1 h 28 min
  113. Bit rate                                 : 38.6 kb/s
  114. Count of elements                        : 2740
  115. Stream size                              : 24.6 MiB (0%)
  116. Title                                    : Spanish-PGS
  117. Language                                 : Spanish
  118. Default                                  : No
  119. Forced                                   : No

  120. Menu
  121. 00:00:00.000                             : en:Chapter 1
  122. 00:07:40.460                             : en:Chapter 2
  123. 00:15:15.748                             : en:Chapter 3
  124. 00:25:04.086                             : en:Chapter 4
  125. 00:34:40.203                             : en:Chapter 5
  126. 00:44:58.779                             : en:Chapter 6
  127. 00:53:22.533                             : en:Chapter 7
  128. 01:01:22.095                             : en:Chapter 8
  129. 01:10:20.383                             : en:Chapter 9
  130. 01:19:34.353                             : en:Chapter 10
  131. 01:27:18.066                             : en:Chapter 11
复制代码



                                       
                                       

                                       
                                       
                                       




回复

使用道具 举报

懒得打字嘛,点击右侧快捷回复 【右侧内容,后台自定义】
您需要登录后才可以回帖 登录 | 立即加入

本版积分规则

Archiver|小黑屋| 蓝光电影网 |网站地图

Copyright © 2021 Comsenz Inc. Powered by 蓝光电影网

蓝光电影网

本站内容由用户自主分享和转载自互联网,转载目的在于传递更多信息,并不代表本网赞同其观点和对其真实性负责。

如有侵权、违反国家法律政策行为,请联系我们,我们会第一时间及时清除和处理!

举报反馈邮箱:[email protected]

快速回复 返回顶部 返回列表