找回密码

蓝光电影网

查看: 62|回复: 0

[2160p] 史酷比狗 Scoob.2020.2160p.BluRay.x264.8bit.SDR.DTS-HD.MA.5.1-SWTYBLZ 14.55GB

[复制链接]
蓝光币
1084
发表于 2020-7-22 09:44:49 | 显示全部楼层 |阅读模式


◎译  名 史酷比狗 / S.C.O.O.B / 史酷比大电影
◎片  名 Scooby-Doo
◎年  代 2020
◎产  地 美国
◎类  别 笑剧 / 动画 / 冒险
◎语  言 英语
◎上映日期 2020-05-15(美国)
◎IMDb评分  5.7/10 from 11632 users
◎IMDb链接  https://www.imdb.com/title/tt3152592
◎豆瓣评分 5.3/10 from 475 users
◎豆瓣链接 https://movie.douban.com/subject/25908846/
◎片  长 94分钟(美国)
◎导  演 托尼·塞沃恩 Tony Cervone
◎编  剧 马特·利伯曼 Matt Lieberman / 亚当·希泰凯尔 Adam Sztykiel / Jack Donaldson / 德里克·艾略特 Derek Elliott / 伊尔·波戴尔 Eyal Podell / 乔纳森·E·斯图尔特 Jonathon E. Stewart / 威廉·汉纳 William Hanna / 约瑟夫·巴伯拉 Joseph Barbera
◎主  演 威尔·福特 Will Forte
       马克·沃尔伯格 Mark Wahlberg
       詹森·艾萨克 Jason Isaacs
       吉娜·罗德里格兹 Gina Rodriguez
       扎克·埃夫隆 Zac Efron
       阿曼达·塞弗里德 Amanda Seyfried
       科雷西·克莱门斯 Kiersey Clemons
       郑肯 Ken Jeong
       崔西·摩根 Tracy Morgan
       弗兰克·维尔克 Frank Welker
       伊恩·阿米蒂奇 Iain Armitage
       麦肯娜·格瑞丝 Mckenna Grace
       皮尔斯·加格农 Pierce Gagnon
       阿丽亚娜·格林布拉特 Ariana Greenblatt
       西蒙·考威尔 Simon Cowell
       克里斯蒂娜·亨德里克斯 Christina Hendricks
       亨利·温克勒 Henry Winkler
       哈里·佩里 Harry Perry
       约翰·迪·马吉欧 John Di Maggio
       凯文·赫夫南 Kevin Heffernan
       伊拉·格拉斯 Ira Glass
       玛雅·厄斯金 Maya Erskine
       比利·维斯特 Billy West
       Don Messick
       弗雷德·塔特西奥 Fred Tatasciore
       贾斯蒂娜·马查多 Justina Machado
       肯妮迪·皮尔 Kennedy Peil
       John McDaniel
       帕姆·科茨 Pam Coats
       托尼·塞沃恩 Tony Cervone
       亚当·希泰凯尔 Adam Sztykiel
       吉姆·麦司奇门 Jim Meskimen

◎标  签 动画 | 美国 | 笑剧 | 2020 | 史酷比 | 华纳 | 电影 | 典范
◎简  介

  
  《史酷比狗》是史酷比狗的第一部大银幕动画冒险长片,报告了史酷比不为人知的起源故事,以及奥秘公司史上最出色的惊世秘案。
  《史酷比狗》归纳了史酷比与其平生好友夏奇的初度相遇,以及他们若何与少年侦察弗雷德、维尔玛和达芙妮一路组建了天下著名的奥秘公司。现在,奥秘公司已经处理了数百起谜案、停止了无数次冒险,但史酷比和他的同伴们发现,他们正面临有史以来最惊险、最具应战性的奥秘案件:一个将“鬼魂狗”塞伯勒斯开释回世上的诡计。当他们拼命尽力想要阻止这一全球性大灾难之时,他们也发现了史酷比的奥秘身世,以及他超乎设想的奥秘命运。
  1. Video
  2. ID                                       : 1
  3. Format                                   : AVC
  4. Format/Info                              : Advanced Video Codec
  5. Format profile                           : [email protected]
  6. Format settings                          : CABAC / 7 Ref Frames
  7. Format settings, CABAC                   : Yes
  8. Format settings, Reference frames        : 7 frames
  9. Codec ID                                 : V_MPEG4/ISO/AVC
  10. Duration                                 : 1 h 33 min
  11. Bit rate                                 : 19.1 Mb/s
  12. Width                                    : 3 840 pixels
  13. Height                                   : 1 608 pixels
  14. Display aspect ratio                     : 2.40:1
  15. Frame rate mode                          : Constant
  16. Frame rate                               : 23.976 (24000/1001/189150) FPS
  17. Color space                              : YUV
  18. Chroma subsampling                       : 4:2:0
  19. Bit depth                                : 8 bits
  20. Scan type                                : Progressive
  21. Bits/(Pixel*Frame)                       : 0.129
  22. Stream size                              : 12.5 GiB (86%)
  23. Title                                    : Scoob.2020.2160p.BluRay.x264.8bit.SDR.DTS-HD.MA.5.1-SWTYBLZ
  24. Writing library                          : x264 core 157 r2935 545de2f
  25. Encoding settings                        : cabac=1 / ref=7 / deblock=1:1:1 / analyse=0x3:0x113 / me=umh / subme=10 / psy=1 / psy_rd=0.40:0.00 / mixed_ref=1 / me_range=48 / chroma_me=1 / trellis=2 / 8x8dct=1 / cqm=0 / deadzone=21,11 / fast_pskip=1 / chroma_qp_offset=-2 / threads=48 / lookahead_threads=5 / sliced_threads=0 / nr=0 / decimate=0 / interlaced=0 / bluray_compat=0 / constrained_intra=0 / bframes=5 / b_pyramid=2 / b_adapt=2 / b_bias=0 / direct=3 / weightb=1 / open_gop=0 / weightp=2 / keyint=250 / keyint_min=23 / scenecut=40 / intra_refresh=0 / rc_lookahead=50 / rc=crf / mbtree=1 / crf=16.0 / qcomp=0.60 / qpmin=0 / qpmax=69 / qpstep=4 / ip_ratio=1.40 / aq=1:0.60
  26. Default                                  : Yes
  27. Forced                                   : No

  28. Audio #1
  29. ID                                       : 2
  30. Format                                   : DTS XLL
  31. Format/Info                              : Digital Theater Systems
  32. Commercial name                          : DTS-HD Master Audio
  33. Codec ID                                 : A_DTS
  34. Duration                                 : 1 h 33 min
  35. Bit rate mode                            : Variable
  36. Bit rate                                 : 2 314 kb/s
  37. Channel(s)                               : 6 channels
  38. Channel layout                           : C L R Ls Rs LFE
  39. Sampling rate                            : 48.0 kHz
  40. Frame rate                               : 93.750 FPS (512 SPF)
  41. Bit depth                                : 16 bits
  42. Compression mode                         : Lossless
  43. Stream size                              : 1.52 GiB (10%)
  44. Title                                    : Scoob.2020.2160p.BluRay.x264.8bit.SDR.DTS-HD.MA.5.1-SWTYBLZ
  45. Language                                 : English
  46. Default                                  : Yes
  47. Forced                                   : No

  48. Audio #2
  49. ID                                       : 3
  50. Format                                   : AC-3
  51. Format/Info                              : Audio Coding 3
  52. Commercial name                          : Dolby Digital
  53. Codec ID                                 : A_AC3
  54. Duration                                 : 1 h 33 min
  55. Bit rate mode                            : Constant
  56. Bit rate                                 : 640 kb/s
  57. Channel(s)                               : 6 channels
  58. Channel layout                           : L R C LFE Ls Rs
  59. Sampling rate                            : 48.0 kHz
  60. Frame rate                               : 31.250 FPS (1536 SPF)
  61. Compression mode                         : Lossy
  62. Stream size                              : 429 MiB (3%)
  63. Title                                    : Scoob.2020.2160p.BluRay.x264.8bit.SDR.DTS-HD.MA.5.1-SWTYBLZ
  64. Language                                 : English
  65. Service kind                             : Complete Main
  66. Default                                  : No
  67. Forced                                   : No

  68. Text #1
  69. ID                                       : 4
  70. Format                                   : UTF-8
  71. Codec ID                                 : S_TEXT/UTF8
  72. Codec ID/Info                            : UTF-8 Plain Text
  73. Duration                                 : 1 h 26 min
  74. Bit rate                                 : 65 b/s
  75. Count of elements                        : 1483
  76. Stream size                              : 41.9 KiB (0%)
  77. Title                                    : English-SRT
  78. Language                                 : English
  79. Default                                  : Yes
  80. Forced                                   : No

  81. Text #2
  82. ID                                       : 5
  83. Format                                   : PGS
  84. Muxing mode                              : zlib
  85. Codec ID                                 : S_HDMV/PGS
  86. Codec ID/Info                            : Picture based subtitle format used on BDs/HD-DVDs
  87. Duration                                 : 1 h 31 min
  88. Bit rate                                 : 49.6 kb/s
  89. Count of elements                        : 3770
  90. Stream size                              : 32.6 MiB (0%)
  91. Title                                    : English-PGS
  92. Language                                 : English
  93. Default                                  : No
  94. Forced                                   : No

  95. Text #3
  96. ID                                       : 6
  97. Format                                   : PGS
  98. Muxing mode                              : zlib
  99. Codec ID                                 : S_HDMV/PGS
  100. Codec ID/Info                            : Picture based subtitle format used on BDs/HD-DVDs
  101. Duration                                 : 1 h 33 min
  102. Bit rate                                 : 33.0 kb/s
  103. Count of elements                        : 2752
  104. Stream size                              : 22.0 MiB (0%)
  105. Title                                    : French-PGS
  106. Language                                 : French
  107. Default                                  : No
  108. Forced                                   : No

  109. Text #4
  110. ID                                       : 7
  111. Format                                   : PGS
  112. Muxing mode                              : zlib
  113. Codec ID                                 : S_HDMV/PGS
  114. Codec ID/Info                            : Picture based subtitle format used on BDs/HD-DVDs
  115. Duration                                 : 1 h 28 min
  116. Bit rate                                 : 38.6 kb/s
  117. Count of elements                        : 2740
  118. Stream size                              : 24.6 MiB (0%)
  119. Title                                    : Spanish-PGS
  120. Language                                 : Spanish
  121. Default                                  : No
  122. Forced                                   : No

  123. Menu
  124. 00:00:00.000                             : en:Chapter 1
  125. 00:07:40.460                             : en:Chapter 2
  126. 00:15:15.748                             : en:Chapter 3
  127. 00:25:04.086                             : en:Chapter 4
  128. 00:34:40.203                             : en:Chapter 5
  129. 00:44:58.779                             : en:Chapter 6
  130. 00:53:22.533                             : en:Chapter 7
  131. 01:01:22.095                             : en:Chapter 8
  132. 01:10:20.383                             : en:Chapter 9
  133. 01:19:34.353                             : en:Chapter 10
  134. 01:27:18.066                             : en:Chapter 11
复制代码



                                       
                                       

                                       
                                       
                                       




回复

使用道具 举报

懒得打字嘛,点击右侧快捷回复 【右侧内容,后台自定义】
您需要登录后才可以回帖 登录 | 立即加入

本版积分规则

Archiver|小黑屋| 蓝光电影网 |网站地图

Copyright © 2021 Comsenz Inc. Powered by 蓝光电影网

蓝光电影网

本站内容由用户自主分享和转载自互联网,转载目的在于传递更多信息,并不代表本网赞同其观点和对其真实性负责。

如有侵权、违反国家法律政策行为,请联系我们,我们会第一时间及时清除和处理!

举报反馈邮箱:[email protected]

快速回复 返回顶部 返回列表