找回密码

蓝光电影网

查看: 128|回复: 0

[UHD.HEVC] 森林恶鬼 The.Wretched.2019.2160p.BluRay.REMUX.HEVC.SDR.DTS-HD.MA.5.1-FGT 51.11GB

[复制链接]
蓝光币
1084
发表于 2021-1-21 09:55:18 | 显示全部楼层 |阅读模式
[img][/img]

◎译  名 森林恶鬼/Hag/凶邻(港)/皮行者
◎片  名 The Wretched
◎年  代 2019
◎产  地 美国
◎类  别 可骇
◎语  言 英语
◎上映日期 2019-07-19(加拿大奇异电影节) / 2020-05-01(美国)
◎IMDb评分  5.8/10 from 10331 users
◎IMDb链接  https://www.imdb.com/title/tt8305806/
◎豆瓣评分 5.9/10 from 2788 users
◎豆瓣链接 https://movie.douban.com/subject/30295134/
◎片  长 95分钟
◎导  演 布雷特·皮尔斯 Brett Pierce   / 德鲁·T·皮尔斯 Drew T. Pierce
◎编  剧 布雷特·皮尔斯 Brett Pierce   / 德鲁·T·皮尔斯 Drew T. Pierce / 安迪·鲍尔斯 Andy Bowles
◎主  演 约翰-保罗·霍华德 John-Paul Howard
       佩珀·柯达 Piper Curda
       贾米森·琼斯 Jamison Jones
       阿兹·泰思费 Azie Tesfai
       扎拉·马勒 Zarah Mahler
       凯文·比格利 Kevin Bigley
       理查德·伊利斯 Richard Ellis
       塔格·库克尔 Tug Coker
       帕米拉·格雷 Pamela Gray
◎标  签 可骇 | 惊悚 | 美国 | 悬疑 | 血腥 | 美国电影 | 食人 | 2020
◎简  介


  一个搬弄的十几岁的男孩,与怙恃行将仳离的挣扎,面临一个千岁的女巫,谁是生活在皮肤下,并冒充隔邻的女人。
  1. Video
  2. ID                                       : 1
  3. ID in the original source medium         : 4113 (0x1011)
  4. Format                                   : HEVC
  5. Format/Info                              : High Efficiency Video Coding
  6. Format profile                           : Main [email protected]@High
  7. Codec ID                                 : V_MPEGH/ISO/HEVC
  8. Duration                                 : 1 h 35 min
  9. Bit rate                                 : 64.7 Mb/s
  10. Width                                    : 3 840 pixels
  11. Height                                   : 2 160 pixels
  12. Display aspect ratio                     : 16:9
  13. Frame rate mode                          : Constant
  14. Frame rate                               : 24.000 FPS
  15. Standard                                 : Component
  16. Color space                              : YUV
  17. Chroma subsampling                       : 4:2:0
  18. Bit depth                                : 10 bits
  19. Bits/(Pixel*Frame)                       : 0.325
  20. Stream size                              : 43.1 GiB (84%)
  21. Language                                 : English
  22. Default                                  : No
  23. Forced                                   : No
  24. Color range                              : Limited
  25. Color primaries                          : BT.709
  26. Transfer characteristics                 : BT.709
  27. Matrix coefficients                      : BT.709
  28. Original source medium                   : Blu-ray

  29. Audio #1
  30. ID                                       : 2
  31. ID in the original source medium         : 4353 (0x1101)
  32. Format                                   : DTS XLL
  33. Format/Info                              : Digital Theater Systems
  34. Commercial name                          : DTS-HD Master Audio
  35. Codec ID                                 : A_DTS
  36. Duration                                 : 1 h 35 min
  37. Bit rate mode                            : Variable
  38. Bit rate                                 : 3 738 kb/s
  39. Channel(s)                               : 6 channels
  40. Channel layout                           : C L R Ls Rs LFE
  41. Sampling rate                            : 48.0 kHz
  42. Frame rate                               : 93.750 FPS (512 SPF)
  43. Bit depth                                : 24 bits
  44. Compression mode                         : Lossless
  45. Stream size                              : 2.49 GiB (5%)
  46. Title                                    : DTS-HD MA 5.1
  47. Language                                 : English
  48. Default                                  : Yes
  49. Forced                                   : No
  50. Original source medium                   : Blu-ray

  51. Audio #2
  52. ID                                       : 3
  53. Format                                   : AC-3
  54. Format/Info                              : Audio Coding 3
  55. Commercial name                          : Dolby Digital
  56. Codec ID                                 : A_AC3
  57. Duration                                 : 1 h 35 min
  58. Bit rate mode                            : Constant
  59. Bit rate                                 : 640 kb/s
  60. Channel(s)                               : 6 channels
  61. Channel layout                           : L R C LFE Ls Rs
  62. Sampling rate                            : 48.0 kHz
  63. Frame rate                               : 31.250 FPS (1536 SPF)
  64. Compression mode                         : Lossy
  65. Stream size                              : 436 MiB (1%)
  66. Title                                    : DD 5.1
  67. Language                                 : English
  68. Service kind                             : Complete Main
  69. Default                                  : No
  70. Forced                                   : No

  71. Audio #3
  72. ID                                       : 4
  73. ID in the original source medium         : 4352 (0x1100)
  74. Format                                   : DTS XLL
  75. Format/Info                              : Digital Theater Systems
  76. Commercial name                          : DTS-HD Master Audio
  77. Codec ID                                 : A_DTS
  78. Duration                                 : 1 h 35 min
  79. Bit rate mode                            : Variable
  80. Bit rate                                 : 3 729 kb/s
  81. Channel(s)                               : 6 channels
  82. Channel layout                           : C L R Ls Rs LFE
  83. Sampling rate                            : 48.0 kHz
  84. Frame rate                               : 93.750 FPS (512 SPF)
  85. Bit depth                                : 24 bits
  86. Compression mode                         : Lossless
  87. Stream size                              : 2.48 GiB (5%)
  88. Title                                    : DTS-HD MA 5.1
  89. Language                                 : German
  90. Default                                  : No
  91. Forced                                   : No
  92. Original source medium                   : Blu-ray

  93. Audio #4
  94. ID                                       : 5
  95. ID in the original source medium         : 4354 (0x1102)
  96. Format                                   : DTS XLL
  97. Format/Info                              : Digital Theater Systems
  98. Commercial name                          : DTS-HD Master Audio
  99. Codec ID                                 : A_DTS
  100. Duration                                 : 1 h 35 min
  101. Bit rate mode                            : Variable
  102. Bit rate                                 : 1 865 kb/s
  103. Channel(s)                               : 2 channels
  104. Channel layout                           : L R
  105. Sampling rate                            : 48.0 kHz
  106. Frame rate                               : 93.750 FPS (512 SPF)
  107. Bit depth                                : 24 bits
  108. Compression mode                         : Lossless
  109. Stream size                              : 1.24 GiB (2%)
  110. Title                                    : DTS-HD MA 2.0
  111. Language                                 : English
  112. Default                                  : No
  113. Forced                                   : No
  114. Original source medium                   : Blu-ray

  115. Audio #5
  116. ID                                       : 6
  117. ID in the original source medium         : 4355 (0x1103)
  118. Format                                   : DTS XLL
  119. Format/Info                              : Digital Theater Systems
  120. Commercial name                          : DTS-HD Master Audio
  121. Codec ID                                 : A_DTS
  122. Duration                                 : 1 h 35 min
  123. Bit rate mode                            : Variable
  124. Bit rate                                 : 2 096 kb/s
  125. Channel(s)                               : 2 channels
  126. Channel layout                           : L R
  127. Sampling rate                            : 48.0 kHz
  128. Frame rate                               : 93.750 FPS (512 SPF)
  129. Bit depth                                : 24 bits
  130. Compression mode                         : Lossless
  131. Stream size                              : 1.39 GiB (3%)
  132. Title                                    : DTS-HD MA 2.0
  133. Language                                 : English
  134. Default                                  : No
  135. Forced                                   : No
  136. Original source medium                   : Blu-ray

  137. Text #1
  138. ID                                       : 7
  139. Format                                   : UTF-8
  140. Codec ID                                 : S_TEXT/UTF8
  141. Codec ID/Info                            : UTF-8 Plain Text
  142. Duration                                 : 1 h 30 min
  143. Bit rate                                 : 34 b/s
  144. Count of elements                        : 867
  145. Stream size                              : 23.1 KiB (0%)
  146. Title                                    : English-SRT
  147. Language                                 : English
  148. Default                                  : Yes
  149. Forced                                   : No

  150. Text #2
  151. ID                                       : 8
  152. ID in the original source medium         : 4608 (0x1200)
  153. Format                                   : PGS
  154. Muxing mode                              : zlib
  155. Codec ID                                 : S_HDMV/PGS
  156. Codec ID/Info                            : Picture based subtitle format used on BDs/HD-DVDs
  157. Duration                                 : 1 h 17 min
  158. Bit rate                                 : 232 b/s
  159. Count of elements                        : 18
  160. Stream size                              : 132 KiB (0%)
  161. Title                                    : German-PGS
  162. Language                                 : German
  163. Default                                  : No
  164. Forced                                   : No
  165. Original source medium                   : Blu-ray

  166. Text #3
  167. ID                                       : 9
  168. ID in the original source medium         : 4609 (0x1201)
  169. Format                                   : PGS
  170. Muxing mode                              : zlib
  171. Codec ID                                 : S_HDMV/PGS
  172. Codec ID/Info                            : Picture based subtitle format used on BDs/HD-DVDs
  173. Duration                                 : 1 h 29 min
  174. Bit rate                                 : 21.5 kb/s
  175. Count of elements                        : 1602
  176. Stream size                              : 13.8 MiB (0%)
  177. Title                                    : German-FORCED-PGS
  178. Language                                 : German
  179. Default                                  : No
  180. Forced                                   : No
  181. Original source medium                   : Blu-ray

  182. Menu
  183. 00:00:00.000                             : de:Chapter 01
  184. 00:09:02.791                             : de:Chapter 02
  185. 00:16:43.875                             : de:Chapter 03
  186. 00:23:56.208                             : de:Chapter 04
  187. 00:36:03.125                             : de:Chapter 05
  188. 00:43:51.416                             : de:Chapter 06
  189. 00:52:48.875                             : de:Chapter 07
  190. 01:02:22.250                             : de:Chapter 08
  191. 01:07:35.708                             : de:Chapter 09
  192. 01:17:04.916                             : de:Chapter 10
  193. 01:23:30.416                             : de:Chapter 11
  194. 01:30:40.500                             : de:Chapter 12
复制代码



                                       
                                       

                                       
                                       
                                       




回复

使用道具 举报

懒得打字嘛,点击右侧快捷回复 【右侧内容,后台自定义】
您需要登录后才可以回帖 登录 | 立即加入

本版积分规则

Archiver|小黑屋| 蓝光电影网 |网站地图

Copyright © 2021 Comsenz Inc. Powered by 蓝光电影网

蓝光电影网

本站内容由用户自主分享和转载自互联网,转载目的在于传递更多信息,并不代表本网赞同其观点和对其真实性负责。

如有侵权、违反国家法律政策行为,请联系我们,我们会第一时间及时清除和处理!

举报反馈邮箱:[email protected]

快速回复 返回顶部 返回列表