找回密码

蓝光电影网

查看: 41|回复: 0

[2160p] 毒战 Believer.2018.KOREAN.2160p.BluRay.x265.10bit.SDR.DTS-HD.MA.TrueHD.7.1.Atmos-SWTYBLZ 49.53GB

[复制链接]
蓝光币
1084
发表于 2020-9-7 18:34:35 | 显示全部楼层 |阅读模式


◎译  名 毒战/Believer/Drug War/信徒(台)/毒战暖流(港)/毒战韩国版
◎片  名 ??
◎年  代 2018
◎产  地 韩国
◎类  别 行动 / 犯罪
◎语  言 韩语
◎上映日期 2018-05-22(韩国)
◎IMDb评分  6.5/10 from 1606 users
◎IMDb链接  https://www.imdb.com/title/tt7095654/
◎豆瓣评分 6.6/10 from 15586 users
◎豆瓣链接 https://movie.douban.com/subject/26934399/
◎片  长 123分钟
◎导  演 李海暎 Hae-yeong Lee
◎编  剧 郑瑞景 Seo-Gyeong Jeong / 李海暎 Hae-yeong Lee
◎主  演 赵震雄 Cho Jin-woong
       柳俊烈 Jun-yeol Ryu
       金柱赫 Joo-hyuk Kim
       金成铃 Sung-ryeong Kim
       朴海俊 Hea-jun Park
       车胜元 Seung-won Cha
       郑家蓝 Ga-ram  Jung
       南文哲 Moon-cheol Nam
       徐贤宇 Seo Hyeon-woo
       姜承贤 Seung-hyun Kang
       京熙妍 Seo-yeon Jin
       金东英 Dong-yeong Kim
       李周英 Joo-young Lee
       琴赛璐 Keum Sae-rok
       郑钟宇 Jung Jong-woo
       权度云 Do-woon Kwon
       車淳亨 Soon-hyung Cha
       Tae-joon  Kim
       李智敏 Ji-min Lee
       朴成妍 Seong-yeon Park
       金在炯 Jae-heung Kim
       朴恩荣 Eun-yeong Park
       金泰俊 Tae-joon Kim
       Hyeok-seong Kwon
       姜智贤 Ji-hyun Kang
       尹锡浩 Seok-ho Yoon
       崔英民 Young-min Choi
       郑浚远 Jung Jun-won
       张泰民 Tae-min Jang
◎标  签 韩国 | 犯罪 | 韩国电影 | 翻拍 | 行动 | 2018 | 柳俊烈 | 毒战
◎简  介


  韩国最大范围贩毒构造的奥秘BOSS李师长气势猖狂,他新近经过一路爆炸案撤除了无用的干部,甚至连侥幸逃生的主干也被害死在警局当中。缉毒组组长赵元浩(赵震雄 饰)从爆炸案现场救出在构造内担任联络工作的徐永乐(柳俊烈 饰),经过审判得知,徐原本负责与占据在中国吉林的毒枭陈河霖(金柱赫 饰)联系,因提早返国而误卷入构造清洗当中。赵组长将计就计,决议周旋在李师长和陈河霖中心上演双鐄,以将贩毒构造连根拔起。这一进程险象环生,危机不竭,而实在的李师长却还未显现出他实在的专心……
  
  本片翻拍自杜琪峰的同名原作。
◎获奖情况
  第39届韩国电影青龙奖 ?(2018)
  最好男配角 金柱赫
  最好女配角(提名) 京熙妍?/?李周英
  最好配乐
  
  第13届亚洲电影大奖 ?(2019)
  最好女配角(提名) 京熙妍
  最好原创音乐(提名) 达班伦
  
  第55届百想艺术大赏 ?(2019)
  电影类最好导演(提名) 李海暎
  电影类最好男配角 金柱赫
  电影类最好男配角(提名) 朴海俊
  电影类最好女配角(提名) 京熙妍
  电影类最好新人女演员(提名) 李周英
  电影类最好艺术奖(提名)
  
  第55届韩国电影大钟奖 ?(2018)
  最好男配角(提名) 赵震雄
  最好男配角 金柱赫
  最好女配角 京熙妍
  最好摄影(提名)
  最好美术(提名)
  最好音乐(提名) 姜其永
  最好技术奖(提名)
  1. Video
  2. ID                                       : 1
  3. Format                                   : HEVC
  4. Format/Info                              : High Efficiency Video Coding
  5. Format profile                           : Main [email protected]@High
  6. Codec ID                                 : V_MPEGH/ISO/HEVC
  7. Duration                                 : 2 h 3 min
  8. Bit rate                                 : 49.0 Mb/s
  9. Width                                    : 3 840 pixels
  10. Height                                   : 1 612 pixels
  11. Display aspect ratio                     : 2.40:1
  12. Frame rate mode                          : Constant
  13. Frame rate                               : 23.976 (24000/1001/189150) FPS
  14. Color space                              : YUV
  15. Chroma subsampling                       : 4:2:0
  16. Bit depth                                : 10 bits
  17. Bits/(Pixel*Frame)                       : 0.330
  18. Stream size                              : 42.3 GiB (86%)
  19. Title                                    : Believer.2018.KOREAN.2160p.BluRay.x265.10bit.SDR.DTS-HD.MA.TrueHD.7.1.Atmos-SWTYBLZ
  20. Writing library                          : x265 3.0ed72af837053:[Windows][GCC 8.2.0][64 bit] 10bit
  21. Encoding settings                        : cpuid=1111039 / frame-threads=6 / numa-pools=40 / wpp / no-pmode / no-pme / no-psnr / no-ssim / log-level=2 / input-csp=1 / input-res=3840x1612 / interlace=0 / total-frames=177585 / level-idc=51 / high-tier=1 / uhd-bd=0 / ref=3 / no-allow-non-conformance / repeat-headers / annexb / aud / hrd / info / hash=0 / no-temporal-layers / no-open-gop / min-keyint=1 / keyint=24 / gop-lookahead=0 / bframes=4 / b-adapt=2 / b-pyramid / bframe-bias=0 / rc-lookahead=25 / lookahead-slices=4 / scenecut=40 / radl=0 / no-splice / no-intra-refresh / ctu=64 / min-cu-size=8 / no-rect / no-amp / max-tu-size=32 / tu-inter-depth=1 / tu-intra-depth=1 / limit-tu=0 / rdoq-level=0 / dynamic-rd=0.00 / no-ssim-rd / signhide / no-tskip / nr-intra=0 / nr-inter=0 / no-constrained-intra / strong-intra-smoothing / max-merge=2 / limit-refs=3 / no-limit-modes / me=1 / subme=2 / merange=57 / temporal-mvp / weightp / no-weightb / no-analyze-src-pics / deblock=0:0 / no-sao / no-sao-non-deblock / rd=3 / no-early-skip / rskip / no-fast-intra / no-tskip-fast / no-cu-lossless / no-b-intra / no-splitrd-skip / rdpenalty=0 / psy-rd=2.00 / psy-rdoq=0.00 / no-rd-refine / no-lossless / cbqpoffs=0 / crqpoffs=0 / rc=crf / crf=18.0 / qcomp=0.60 / qpstep=4 / stats-write=0 / stats-read=0 / vbv-maxrate=160000 / vbv-bufsize=160000 / vbv-init=0.9 / crf-max=0.0 / crf-min=0.0 / ipratio=1.40 / pbratio=1.30 / aq-mode=1 / aq-strength=1.00 / cutree / zone-count=0 / no-strict-cbr / qg-size=32 / no-rc-grain / qpmax=69 / qpmin=0 / no-const-vbv / sar=1 / overscan=0 / videoformat=5 / range=0 / colorprim=2 / transfer=2 / colormatrix=2 / chromaloc=0 / display-window=0 / max-cll=0,0 / min-luma=0 / max-luma=1023 / log2-max-poc-lsb=8 / vui-timing-info / vui-hrd-info / slices=1 / opt-qp-pps / opt-ref-list-length-pps / no-multi-pass-opt-rps / scenecut-bias=0.05 / no-opt-cu-delta-qp / no-aq-motion / no-hdr / no-hdr-opt / no-dhdr10-opt / no-idr-recovery-sei / analysis-reuse-level=5 / scale-factor=0 / refine-intra=0 / refine-inter=0 / refine-mv=0 / refine-ctu-distortion=0 / no-limit-sao / ctu-info=0 / no-lowpass-dct / refine-analysis-type=0 / copy-pic=1 / max-ausize-factor=1.0 / no-dynamic-refine / no-single-sei / no-hevc-aq / qp-adaptation-range=1.00
  22. Default                                  : Yes
  23. Forced                                   : No
  24. Audio #1
  25. ID                                       : 2
  26. ID in the original source medium         : 4352 (0x1100)
  27. Format                                   : MLP FBA 16-ch
  28. Format/Info                              : Meridian Lossless Packing FBA with 16-channel presentation
  29. Commercial name                          : Dolby TrueHD with Dolby Atmos
  30. Codec ID                                 : A_TRUEHD
  31. Duration                                 : 2 h 3 min
  32. Bit rate mode                            : Variable
  33. Bit rate                                 : 3 798 kb/s
  34. Maximum bit rate                         : 6 825 kb/s
  35. Channel(s)                               : 8 channels
  36. Channel layout                           : L R C LFE Ls Rs Lb Rb
  37. Sampling rate                            : 48.0 kHz
  38. Frame rate                               : 1 200.000 FPS (40 SPF)
  39. Compression mode                         : Lossless
  40. Stream size                              : 3.27 GiB (7%)
  41. Title                                    : Believer.2018.KOREAN.2160p.BluRay.x265.10bit.SDR.DTS-HD.MA.TrueHD.7.1.Atmos-SWTYBLZ
  42. Language                                 : Korean
  43. Default                                  : Yes
  44. Forced                                   : No
  45. Original source medium                   : Blu-ray
  46. Number of dynamic objects                : 11
  47. Bed channel count                        : 1 channel
  48. Bed channel configuration                : LFE
  49. Audio #2
  50. ID                                       : 3
  51. ID in the original source medium         : 4353 (0x1101)
  52. Format                                   : DTS XLL X
  53. Format/Info                              : Digital Theater Systems
  54. Commercial name                          : DTS-HD Master Audio
  55. Codec ID                                 : A_DTS
  56. Duration                                 : 2 h 3 min
  57. Bit rate mode                            : Variable
  58. Bit rate                                 : 3 678 kb/s
  59. Channel(s)                               : 8 channels
  60. Channel(s)_Original                      : Object Based
  61. ChannelLayout_Original                   : Object Based
  62. Sampling rate                            : 48.0 kHz
  63. Frame rate                               : 93.750 FPS (512 SPF)
  64. Bit depth                                : 24 bits
  65. Stream size                              : 3.17 GiB (6%)
  66. Title                                    : Believer.2018.KOREAN.2160p.BluRay.x265.10bit.SDR.DTS-HD.MA.TrueHD.7.1.Atmos-SWTYBLZ
  67. Language                                 : Korean
  68. Default                                  : No
  69. Forced                                   : No
  70. Original source medium                   : Blu-ray
  71. Audio #3
  72. ID                                       : 4
  73. ID in the original source medium         : 4352 (0x1100)
  74. Format                                   : AC-3
  75. Format/Info                              : Audio Coding 3
  76. Commercial name                          : Dolby Digital
  77. Codec ID                                 : A_AC3
  78. Duration                                 : 2 h 3 min
  79. Bit rate mode                            : Constant
  80. Bit rate                                 : 640 kb/s
  81. Channel(s)                               : 6 channels
  82. Channel layout                           : L R C LFE Ls Rs
  83. Sampling rate                            : 48.0 kHz
  84. Frame rate                               : 31.250 FPS (1536 SPF)
  85. Compression mode                         : Lossy
  86. Stream size                              : 565 MiB (1%)
  87. Title                                    : Believer.2018.KOREAN.2160p.BluRay.x265.10bit.SDR.DTS-HD.MA.TrueHD.7.1.Atmos-SWTYBLZ
  88. Language                                 : Korean
  89. Service kind                             : Complete Main
  90. Default                                  : No
  91. Forced                                   : No
  92. Original source medium                   : Blu-ray
  93. Text #1
  94. ID                                       : 5
  95. Format                                   : UTF-8
  96. Codec ID                                 : S_TEXT/UTF8
  97. Codec ID/Info                            : UTF-8 Plain Text
  98. Duration                                 : 1 h 57 min
  99. Bit rate                                 : 36 b/s
  100. Count of elements                        : 1154
  101. Stream size                              : 31.8 KiB (0%)
  102. Title                                    : English-SRT
  103. Language                                 : English
  104. Default                                  : Yes
  105. Forced                                   : No
  106. Text #2
  107. ID                                       : 6
  108. ID in the original source medium         : 4768 (0x12A0)
  109. Format                                   : PGS
  110. Muxing mode                              : zlib
  111. Codec ID                                 : S_HDMV/PGS
  112. Codec ID/Info                            : Picture based subtitle format used on BDs/HD-DVDs
  113. Duration                                 : 1 h 54 min
  114. Bit rate                                 : 25.3 kb/s
  115. Count of elements                        : 2270
  116. Stream size                              : 20.7 MiB (0%)
  117. Title                                    : Korean-PGS
  118. Language                                 : Korean
  119. Default                                  : No
  120. Forced                                   : No
  121. Original source medium                   : Blu-ray
  122. Text #3
  123. ID                                       : 7
  124. ID in the original source medium         : 4769 (0x12A1)
  125. Format                                   : PGS
  126. Muxing mode                              : zlib
  127. Codec ID                                 : S_HDMV/PGS
  128. Codec ID/Info                            : Picture based subtitle format used on BDs/HD-DVDs
  129. Duration                                 : 1 h 57 min
  130. Bit rate                                 : 24.2 kb/s
  131. Count of elements                        : 2310
  132. Stream size                              : 20.3 MiB (0%)
  133. Title                                    : English-PGS
  134. Language                                 : English
  135. Default                                  : No
  136. Forced                                   : No
  137. Original source medium                   : Blu-ray
  138. Menu
  139. 00:00:00.000                             : en:Chapter 01
  140. 00:07:13.891                             : en:Chapter 02
  141. 00:16:30.447                             : en:Chapter 03
  142. 00:26:24.416                             : en:Chapter 04
  143. 00:38:17.336                             : en:Chapter 05
  144. 00:50:38.618                             : en:Chapter 06
  145. 01:01:25.515                             : en:Chapter 07
  146. 01:11:35.874                             : en:Chapter 08
  147. 01:25:12.190                             : en:Chapter 09
  148. 01:37:58.873                             : en:Chapter 10
  149. 01:50:57.025                             : en:Chapter 11
  150. 01:58:43.157                             : en:Chapter 12
复制代码




                                       
                                       

                                       
                                       
                                       




回复

使用道具 举报

懒得打字嘛,点击右侧快捷回复 【右侧内容,后台自定义】
您需要登录后才可以回帖 登录 | 立即加入

本版积分规则

Archiver|小黑屋| 蓝光电影网 |网站地图

Copyright © 2021 Comsenz Inc. Powered by 蓝光电影网

蓝光电影网

本站内容由用户自主分享和转载自互联网,转载目的在于传递更多信息,并不代表本网赞同其观点和对其真实性负责。

如有侵权、违反国家法律政策行为,请联系我们,我们会第一时间及时清除和处理!

举报反馈邮箱:[email protected]

快速回复 返回顶部 返回列表