找回密码

蓝光电影网

查看: 146|回复: 0

[UHD.HEVC] 贼博士/老妇杀手团 The.Ladykillers.1955.FS.2160p.BluRay.REMUX.HEVC.DTS-HD.MA.2.0-FGT 33.31GB

[复制链接]
蓝光币
1082
发表于 2021-1-9 10:05:17 | 显示全部楼层 |阅读模式
[img][/img]

◎译  名 贼博士/老妇杀手团/贵妇杀手
◎片  名 The Ladykillers
◎年  代 1955
◎产  地 英国
◎类  别 笑剧 / 惊悚 / 犯罪
◎语  言 英语
◎上映日期 1955-12-01
◎IMDb评分  7.7/10 from 26201 users
◎IMDb链接  https://www.imdb.com/title/tt0048281/
◎豆瓣评分 7.6/10 from 2592 users
◎豆瓣链接 https://movie.douban.com/subject/1304710/
◎片  长 91 分钟
◎导  演 亚历山大·麦肯德里克 Alexander Mackendrick
◎编  剧 威廉·罗斯 William Rose / Jimmy O'Connor
◎主  演 亚历克·吉尼斯 Alec Guinness
       西塞尔·帕克 Cecil Parker
       赫伯特·罗姆 Herbert Lom
       彼得·塞勒斯 Peter Sellers
       凯蒂·约翰逊 Katie Johnson
       尤安·罗伯茨 Ewan Roberts
       斯特拉特福德·约翰斯 Stratford Johns
       Jack Melford
       Arthur Mullard
       尼尔·威尔森 Neil Wilson
       Peter Williams
       菲利普·斯坦顿 Philip Stainton
       山姆·基德 Sam Kydd
       弗雷德·格里菲思 Fred Griffiths
       伊迪·马丁 Edie Martin
       Danny Green
       弗兰基·豪尔德 Frankie Howerd
       杰克·华纳 Jack Warner
       Kenneth Connor
       Hélène Burls
       Vincent Holman
       Harold Goodwin
◎标  签 英国 | 笑剧 | 犯罪 | 黑色诙谐 | 英国电影 | 1950s | 1955 | AlexanderMackendrick
◎简  介


  怀博菲丝太太在差人局自称见到不明飞翔物被差人赶了进来。
  
  一个乐队跑去了怀博菲丝太太的居处,他们希望能借住在这里缔造一首新歌。实在他们正计划抢劫运钞车,他们在怀博菲丝太太的公寓准备着全部计划,而怀博菲丝太太还蒙在鼓里。
  
  当他们成功的抢劫了运钞车以后,工作也终究让怀博菲丝太太发现了,他们决议将怀博菲丝太太杀掉依然仍旧,但他们却都由于分歧的缘由相继死去。
  
  老太太去差人局报案,差人却由于之前的“不明飞翔物事务”完全否认怀博菲丝太太的说法,最初那笔钱全成了老太太一小我的。
  
  报告一群智商不高的盗贼想不到会栽在一个小老太太手里。居住在伦敦的怀博菲丝太太到差人局自称见到不明飞翔物,被差人赶了进来。一个乐队来到菲丝太太的居处租屋子,说要在这里搞创作。实在他们是一伙窃贼,正计划抢劫运钞车,要在菲丝太太的公寓做预备,而她还蒙在鼓里。当他们抢劫成功后,菲丝太太也终究发现了真相,因而他们决议将菲丝太太灭口,但是这个老太太似乎不是看上去那末好对于,窃贼们全都由于分歧的缘由相继死去。老太太去警局报案,差人却由于之前的“不明飞翔物事务”完全否认菲丝太太的说法,最初那笔钱全成了老太太一小我的。
◎获奖情况
  第29届奥斯卡金像奖 ?(1957)
  最好原创剧本(提名) 威廉·罗斯
  1. Video
  2. ID                                       : 1
  3. Format                                   : HEVC
  4. Format/Info                              : High Efficiency Video Coding
  5. Format profile                           : Main [email protected]@High
  6. HDR format                               : SMPTE ST 2086, HDR10 compatible
  7. Codec ID                                 : V_MPEGH/ISO/HEVC
  8. Duration                                 : 1 h 30 min
  9. Bit rate                                 : 50.2 Mb/s
  10. Width                                    : 3 840 pixels
  11. Height                                   : 2 160 pixels
  12. Display aspect ratio                     : 16:9
  13. Frame rate mode                          : Constant
  14. Frame rate                               : 24.000 FPS
  15. Color space                              : YUV
  16. Chroma subsampling                       : 4:2:0 (Type 2)
  17. Bit depth                                : 10 bits
  18. Bits/(Pixel*Frame)                       : 0.252
  19. Stream size                              : 31.8 GiB (96%)
  20. Language                                 : English
  21. Default                                  : Yes
  22. Forced                                   : No
  23. Color range                              : Limited
  24. Color primaries                          : BT.2020
  25. Transfer characteristics                 : PQ
  26. Matrix coefficients                      : BT.2020 non-constant
  27. Mastering display color primaries        : BT.2020
  28. Mastering display luminance              : min: 0.0001 cd/m2, max: 1000 cd/m2
  29. SEI_rbsp_stop_one_bit                    : Missing

  30. Audio #1
  31. ID                                       : 2
  32. Format                                   : DTS XLL
  33. Format/Info                              : Digital Theater Systems
  34. Commercial name                          : DTS-HD Master Audio
  35. Codec ID                                 : A_DTS
  36. Duration                                 : 1 h 30 min
  37. Bit rate mode                            : Variable
  38. Bit rate                                 : 1 489 kb/s
  39. Channel(s)                               : 2 channels
  40. Channel layout                           : L R
  41. Sampling rate                            : 48.0 kHz
  42. Frame rate                               : 93.750 FPS (512 SPF)
  43. Bit depth                                : 24 bits
  44. Compression mode                         : Lossless
  45. Stream size                              : 966 MiB (3%)
  46. Title                                    : DTS-HD MA 2.0
  47. Language                                 : English
  48. Default                                  : Yes
  49. Forced                                   : No

  50. Audio #2
  51. ID                                       : 3
  52. Format                                   : AC-3
  53. Format/Info                              : Audio Coding 3
  54. Commercial name                          : Dolby Digital
  55. Codec ID                                 : A_AC3
  56. Duration                                 : 1 h 30 min
  57. Bit rate mode                            : Constant
  58. Bit rate                                 : 640 kb/s
  59. Channel(s)                               : 2 channels
  60. Channel layout                           : L R
  61. Sampling rate                            : 48.0 kHz
  62. Frame rate                               : 31.250 FPS (1536 SPF)
  63. Compression mode                         : Lossy
  64. Stream size                              : 415 MiB (1%)
  65. Title                                    : DD 2.0
  66. Language                                 : English
  67. Service kind                             : Complete Main
  68. Default                                  : No
  69. Forced                                   : No

  70. Audio #3
  71. ID                                       : 4
  72. Format                                   : AC-3
  73. Format/Info                              : Audio Coding 3
  74. Commercial name                          : Dolby Digital
  75. Codec ID                                 : A_AC3
  76. Duration                                 : 1 h 30 min
  77. Bit rate mode                            : Constant
  78. Bit rate                                 : 192 kb/s
  79. Channel(s)                               : 2 channels
  80. Channel layout                           : L R
  81. Sampling rate                            : 48.0 kHz
  82. Frame rate                               : 31.250 FPS (1536 SPF)
  83. Compression mode                         : Lossy
  84. Stream size                              : 125 MiB (0%)
  85. Title                                    : DD 2.0
  86. Language                                 : English
  87. Service kind                             : Complete Main
  88. Default                                  : No
  89. Forced                                   : No

  90. Text #1
  91. ID                                       : 5
  92. Format                                   : UTF-8
  93. Codec ID                                 : S_TEXT/UTF8
  94. Codec ID/Info                            : UTF-8 Plain Text
  95. Duration                                 : 1 h 28 min
  96. Bit rate                                 : 63 b/s
  97. Count of elements                        : 1092
  98. Stream size                              : 40.8 KiB (0%)
  99. Title                                    : English-SRT
  100. Language                                 : English
  101. Default                                  : Yes
  102. Forced                                   : No

  103. Text #2
  104. ID                                       : 6
  105. Format                                   : PGS
  106. Muxing mode                              : zlib
  107. Codec ID                                 : S_HDMV/PGS
  108. Codec ID/Info                            : Picture based subtitle format used on BDs/HD-DVDs
  109. Duration                                 : 1 h 28 min
  110. Bit rate                                 : 41.0 kb/s
  111. Count of elements                        : 2346
  112. Stream size                              : 25.9 MiB (0%)
  113. Title                                    : English-PGS
  114. Language                                 : English
  115. Default                                  : No
  116. Forced                                   : No

  117. Text #3
  118. ID                                       : 7
  119. Format                                   : PGS
  120. Muxing mode                              : zlib
  121. Codec ID                                 : S_HDMV/PGS
  122. Codec ID/Info                            : Picture based subtitle format used on BDs/HD-DVDs
  123. Duration                                 : 1 h 30 min
  124. Bit rate                                 : 61.1 kb/s
  125. Count of elements                        : 3192
  126. Stream size                              : 39.3 MiB (0%)
  127. Title                                    : English-SDH-PGS
  128. Language                                 : English
  129. Default                                  : No
  130. Forced                                   : No

  131. Menu
  132. 00:00:00.000                             : :Chapter 01
  133. 00:08:00.208                             : :Chapter 02
  134. 00:18:14.375                             : :Chapter 03
  135. 00:25:27.333                             : :Chapter 04
  136. 00:31:47.458                             : :Chapter 05
  137. 00:38:20.292                             : :Chapter 06
  138. 00:45:58.958                             : :Chapter 07
  139. 00:52:51.250                             : :Chapter 08
  140. 01:04:29.667                             : :Chapter 09
  141. 01:10:36.500                             : :Chapter 10
  142. 01:18:22.750                             : :Chapter 11
  143. 01:27:37.083                             : :Chapter 12
复制代码



                                       
                                       

                                       
                                       
                                       




回复

使用道具 举报

懒得打字嘛,点击右侧快捷回复 【右侧内容,后台自定义】
您需要登录后才可以回帖 登录 | 立即加入

本版积分规则

Archiver|小黑屋| 蓝光电影网 |网站地图

Copyright © 2021 Comsenz Inc. Powered by 蓝光电影网

蓝光电影网

本站内容由用户自主分享和转载自互联网,转载目的在于传递更多信息,并不代表本网赞同其观点和对其真实性负责。

如有侵权、违反国家法律政策行为,请联系我们,我们会第一时间及时清除和处理!

举报反馈邮箱:[email protected]

快速回复 返回顶部 返回列表