找回密码

蓝光电影网

查看: 66|回复: 0

[剧情] 焦橙邪说/谎画情人 The.Burnt.Orange.Heresy.2019.1080p.AMZN.WEBRip.DDP5.1.x264-NTG 5.97GB

[复制链接]
蓝光币
1084
发表于 2021-8-20 00:57:06 | 显示全部楼层 |阅读模式


◎译  名 焦橙邪说/谎画情人(台)
◎片  名 The Burnt Orange Heresy
◎年  代 2019
◎产  地 英国,意大利
◎类  别 剧情 / 行动 / 惊悚
◎语  言 英语
◎上映日期 2019-09-07(威尼斯电影节) / 2020-08-07(美国)
◎IMDb评分  5.8/10 from 635 users
◎IMDb链接  https://www.imdb.com/title/tt8342680/
◎豆瓣评分 /10 from 0 users
◎豆瓣链接 https://movie.douban.com/subject/3988738/
◎片  长 99分钟
◎导  演 吉塞佩·卡波通蒂 Giuseppe Capotondi
◎编  剧 斯科特·B·史姑娘 Scott B. Smith / 查尔斯·威尔福特 Charles Willeford
◎主  演 伊丽莎白·德比茨基 Elizabeth Debicki
       唐纳德·萨瑟兰 Donald Sutherland
       克拉斯·邦 Claes Bang
       米克·贾格尔 Mick Jagger
       罗莎琳德·霍尔斯特德 Rosalind Halstead
       凯蒂·麦戈文 Katie McGovern
       亚历克西雅·默里 Alexia Murray
◎标  签 意大利 | 犯罪 | 剧情 | 悬疑 | 英国 | 2020 | 2019 | 电影
◎简  介


  影片改编自查尔斯·威尔福德的同名小说。故事报告1970年的意大利,一位美国艺术批评家(克拉斯饰)与一位正在游历欧洲的女性(德比茨基饰),前往意大利造访艺术品收藏家(仍在选角中)时萌生了窃取艺术品的动机。沃肯在其中饰演一位艺术富翁Jerome Debney。
  1. Video
  2. ID                                       : 1
  3. Format                                   : AVC
  4. Format/Info                              : Advanced Video Codec
  5. Format profile                           : [email protected]
  6. Format settings                          : CABAC / 4 Ref Frames
  7. Format settings, CABAC                   : Yes
  8. Format settings, Reference frames        : 4 frames
  9. Codec ID                                 : V_MPEG4/ISO/AVC
  10. Duration                                 : 1 h 38 min
  11. Bit rate mode                            : Constant
  12. Bit rate                                 : 8 075 kb/s
  13. Nominal bit rate                         : 10 000 kb/s
  14. Width                                    : 1 920 pixels
  15. Height                                   : 800 pixels
  16. Display aspect ratio                     : 2.40:1
  17. Frame rate mode                          : Constant
  18. Frame rate                               : 23.976 (24000/1001/189150) FPS
  19. Color space                              : YUV
  20. Chroma subsampling                       : 4:2:0
  21. Bit depth                                : 8 bits
  22. Scan type                                : Progressive
  23. Bits/(Pixel*Frame)                       : 0.219
  24. Stream size                              : 5.53 GiB (93%)
  25. Default                                  : Yes
  26. Forced                                   : No
  27. Color range                              : Limited
  28. Color primaries                          : BT.709
  29. Transfer characteristics                 : BT.709
  30. Matrix coefficients                      : BT.709
  31. Audio
  32. ID                                       : 2
  33. Format                                   : E-AC-3
  34. Format/Info                              : Enhanced AC-3
  35. Commercial name                          : Dolby Digital Plus
  36. Codec ID                                 : A_EAC3
  37. Duration                                 : 1 h 38 min
  38. Bit rate mode                            : Constant
  39. Bit rate                                 : 640 kb/s
  40. Channel(s)                               : 6 channels
  41. Channel layout                           : L R C LFE Ls Rs
  42. Sampling rate                            : 48.0 kHz
  43. Frame rate                               : 31.250 FPS (1536 SPF)
  44. Compression mode                         : Lossy
  45. Stream size                              : 449 MiB (7%)
  46. Language                                 : English
  47. Service kind                             : Complete Main
  48. Default                                  : Yes
  49. Forced                                   : No
  50. Text #1
  51. ID                                       : 3
  52. Format                                   : UTF-8
  53. Codec ID                                 : S_TEXT/UTF8
  54. Codec ID/Info                            : UTF-8 Plain Text
  55. Duration                                 : 1 h 30 min
  56. Bit rate                                 : 55 b/s
  57. Count of elements                        : 1181
  58. Stream size                              : 37.0 KiB (0%)
  59. Language                                 : English
  60. Default                                  : No
  61. Forced                                   : No
  62. Text #2
  63. ID                                       : 4
  64. Format                                   : UTF-8
  65. Codec ID                                 : S_TEXT/UTF8
  66. Codec ID/Info                            : UTF-8 Plain Text
  67. Duration                                 : 1 h 35 min
  68. Bit rate                                 : 57 b/s
  69. Count of elements                        : 1383
  70. Stream size                              : 40.5 KiB (0%)
  71. Title                                    : SDH
  72. Language                                 : English
  73. Default                                  : No
  74. Forced                                   : No
复制代码






                                       
                                       

                                       
                                       
                                       




回复

使用道具 举报

懒得打字嘛,点击右侧快捷回复 【右侧内容,后台自定义】
您需要登录后才可以回帖 登录 | 立即加入

本版积分规则

Archiver|小黑屋| 蓝光电影网 |网站地图

Copyright © 2021 Comsenz Inc. Powered by 蓝光电影网

蓝光电影网

本站内容由用户自主分享和转载自互联网,转载目的在于传递更多信息,并不代表本网赞同其观点和对其真实性负责。

如有侵权、违反国家法律政策行为,请联系我们,我们会第一时间及时清除和处理!

举报反馈邮箱:[email protected]

快速回复 返回顶部 返回列表