找回密码

蓝光电影网

查看: 154|回复: 0

[UHD.HEVC] 怒火青春 La.Haine.1995.FRENCH.2160p.BluRay.REMUX.HEVC.DTS-HD.MA.5.1-FGT 44.09GB

[复制链接]
蓝光币
1082
发表于 2020-12-29 15:23:11 | 显示全部楼层 |阅读模式
[img][/img]

◎译  名 怒火青春/The Hate/冤仇/恨
◎片  名 La haine
◎年  代 1995
◎产  地 法国
◎类  别 剧情 / 犯罪
◎语  言 法语
◎上映日期 1995-05-31
◎IMDb评分  8.1/10 from 148703 users
◎IMDb链接  https://www.imdb.com/title/tt0113247/
◎豆瓣评分 8.2/10 from 13272 users
◎豆瓣链接 https://movie.douban.com/subject/1306449/
◎片  长 98分钟
◎导  演 马修·卡索维茨 Mathieu Kassovitz
◎编  剧 马修·卡索维茨 Mathieu Kassovitz
◎主  演 文森特·卡索 Vincent Cassel
       哈勃·孔黛 Hubert Koundé
       萨伊德·塔格马奥 Sa?d Taghmaoui
       文森特·林顿 Vincent Lindon
       嘉莲·维雅 Karin Viard
       克里斯朵夫·罗西尼翁 Christophe Rossignon
       马修·卡索维茨 Mathieu Kassovitz
◎标  签 法国 | 青春 | 法国电影 | 黑白 | 犯罪 | 1995 | 剧情 | Mathieu_Kassovitz
◎简  介


  影片以1993年在巴黎18区发生的一路差人暴力的实在事务为布景:一位差人在巡查时代枪杀了一位17岁的扎伊尔少年Makomé M'Bowolé。而在影片傍边,巴黎陌头,一群反政府青年。胶葛由其中一人被差人殴打重伤而起,众人怀恨在心。文兹(文森特·卡塞尔 Vincent Cassel饰)弄到一把真枪,决心还以色彩。他们的冤仇与愤慨到处可见,这场与差人之间的大范围抵触,一触即发。混战中,文兹被差人开枪打死,他的同党也颤抖着瞄准了差人的头,枪声响起……不管是差人还是陌头混混,每小我都落空了控制。这青春期里的不安与躁动,就像失控的怒火一般,无人幸免。 导演马修·卡索维茨荣获第48届戛纳电影节(1995)主比赛单元最好导演奖。
◎获奖情况
  第48届戛纳电影节 ?(1995)
  主比赛单元金棕榈奖(提名) 马修·卡索维茨
  主比赛单元最好导演 马修·卡索维茨
  1. Video
  2. ID                                       : 1
  3. ID in the original source medium         : 4113 (0x1011)
  4. Format                                   : HEVC
  5. Format/Info                              : High Efficiency Video Coding
  6. Format profile                           : Main [email protected]@High
  7. HDR format                               : SMPTE ST 2086, HDR10 compatible
  8. Codec ID                                 : V_MPEGH/ISO/HEVC
  9. Duration                                 : 1 h 37 min
  10. Bit rate                                 : 54.0 Mb/s
  11. Width                                    : 3 840 pixels
  12. Height                                   : 2 160 pixels
  13. Display aspect ratio                     : 16:9
  14. Frame rate mode                          : Constant
  15. Frame rate                               : 24.000 FPS
  16. Color space                              : YUV
  17. Chroma subsampling                       : 4:2:0 (Type 2)
  18. Bit depth                                : 10 bits
  19. Bits/(Pixel*Frame)                       : 0.271
  20. Stream size                              : 36.9 GiB (84%)
  21. Language                                 : English
  22. Default                                  : No
  23. Forced                                   : No
  24. Color range                              : Limited
  25. Color primaries                          : BT.2020
  26. Transfer characteristics                 : PQ
  27. Matrix coefficients                      : BT.2020 non-constant
  28. Mastering display color primaries        : BT.2020
  29. Mastering display luminance              : min: 0.0001 cd/m2, max: 1000 cd/m2
  30. Original source medium                   : Blu-ray

  31. Audio #1
  32. ID                                       : 2
  33. ID in the original source medium         : 4352 (0x1100)
  34. Format                                   : DTS XLL
  35. Format/Info                              : Digital Theater Systems
  36. Commercial name                          : DTS-HD Master Audio
  37. Codec ID                                 : A_DTS
  38. Duration                                 : 1 h 37 min
  39. Bit rate mode                            : Variable
  40. Bit rate                                 : 3 082 kb/s
  41. Channel(s)                               : 6 channels
  42. Channel layout                           : C L R Ls Rs LFE
  43. Sampling rate                            : 48.0 kHz
  44. Frame rate                               : 93.750 FPS (512 SPF)
  45. Bit depth                                : 24 bits
  46. Compression mode                         : Lossless
  47. Stream size                              : 2.11 GiB (5%)
  48. Title                                    : DTS-HD MA 5.1
  49. Language                                 : French
  50. Default                                  : Yes
  51. Forced                                   : No
  52. Original source medium                   : Blu-ray

  53. Audio #2
  54. ID                                       : 3
  55. Format                                   : AC-3
  56. Format/Info                              : Audio Coding 3
  57. Commercial name                          : Dolby Digital
  58. Codec ID                                 : A_AC3
  59. Duration                                 : 1 h 37 min
  60. Bit rate mode                            : Constant
  61. Bit rate                                 : 640 kb/s
  62. Channel(s)                               : 6 channels
  63. Channel layout                           : L R C LFE Ls Rs
  64. Sampling rate                            : 48.0 kHz
  65. Frame rate                               : 31.250 FPS (1536 SPF)
  66. Compression mode                         : Lossy
  67. Stream size                              : 448 MiB (1%)
  68. Title                                    : DD 5.1
  69. Language                                 : French
  70. Service kind                             : Complete Main
  71. Default                                  : No
  72. Forced                                   : No

  73. Audio #3
  74. ID                                       : 4
  75. ID in the original source medium         : 4353 (0x1101)
  76. Format                                   : DTS XLL
  77. Format/Info                              : Digital Theater Systems
  78. Commercial name                          : DTS-HD Master Audio
  79. Codec ID                                 : A_DTS
  80. Duration                                 : 1 h 37 min
  81. Bit rate mode                            : Variable
  82. Bit rate                                 : 2 098 kb/s
  83. Channel(s)                               : 2 channels
  84. Channel layout                           : L R
  85. Sampling rate                            : 48.0 kHz
  86. Frame rate                               : 93.750 FPS (512 SPF)
  87. Bit depth                                : 24 bits
  88. Compression mode                         : Lossless
  89. Stream size                              : 1.44 GiB (3%)
  90. Title                                    : DTS-HD MA 2.0
  91. Language                                 : French
  92. Default                                  : No
  93. Forced                                   : No
  94. Original source medium                   : Blu-ray

  95. Audio #4
  96. ID                                       : 5
  97. ID in the original source medium         : 4354 (0x1102)
  98. Format                                   : PCM
  99. Format settings                          : Little / Signed
  100. Codec ID                                 : A_PCM/INT/LIT
  101. Duration                                 : 1 h 37 min
  102. Bit rate mode                            : Constant
  103. Bit rate                                 : 1 536 kb/s
  104. Channel(s)                               : 2 channels
  105. Sampling rate                            : 48.0 kHz
  106. Frame rate                               : 30.000 FPS (1600 SPF)
  107. Bit depth                                : 16 bits
  108. Stream size                              : 1.05 GiB (2%)
  109. Title                                    : LPCM 2.0
  110. Language                                 : French
  111. Default                                  : No
  112. Forced                                   : No
  113. Original source medium                   : Blu-ray

  114. Audio #5
  115. ID                                       : 6
  116. ID in the original source medium         : 4355 (0x1103)
  117. Format                                   : PCM
  118. Format settings                          : Little / Signed
  119. Codec ID                                 : A_PCM/INT/LIT
  120. Duration                                 : 1 h 37 min
  121. Bit rate mode                            : Constant
  122. Bit rate                                 : 1 536 kb/s
  123. Channel(s)                               : 2 channels
  124. Sampling rate                            : 48.0 kHz
  125. Frame rate                               : 30.000 FPS (1600 SPF)
  126. Bit depth                                : 16 bits
  127. Stream size                              : 1.05 GiB (2%)
  128. Title                                    : LPCM 2.0
  129. Language                                 : French
  130. Default                                  : No
  131. Forced                                   : No
  132. Original source medium                   : Blu-ray

  133. Audio #6
  134. ID                                       : 7
  135. ID in the original source medium         : 4356 (0x1104)
  136. Format                                   : PCM
  137. Format settings                          : Little / Signed
  138. Codec ID                                 : A_PCM/INT/LIT
  139. Duration                                 : 1 h 37 min
  140. Bit rate mode                            : Constant
  141. Bit rate                                 : 1 536 kb/s
  142. Channel(s)                               : 2 channels
  143. Sampling rate                            : 48.0 kHz
  144. Frame rate                               : 30.000 FPS (1600 SPF)
  145. Bit depth                                : 16 bits
  146. Stream size                              : 1.05 GiB (2%)
  147. Title                                    : LPCM 2.0
  148. Language                                 : French
  149. Default                                  : No
  150. Forced                                   : No
  151. Original source medium                   : Blu-ray

  152. Text #1
  153. ID                                       : 8
  154. Format                                   : UTF-8
  155. Codec ID                                 : S_TEXT/UTF8
  156. Codec ID/Info                            : UTF-8 Plain Text
  157. Duration                                 : 1 h 37 min
  158. Bit rate                                 : 46 b/s
  159. Count of elements                        : 1397
  160. Stream size                              : 33.0 KiB (0%)
  161. Title                                    : English-SRT
  162. Language                                 : English
  163. Default                                  : Yes
  164. Forced                                   : No

  165. Text #2
  166. ID                                       : 9
  167. ID in the original source medium         : 4769 (0x12A1)
  168. Format                                   : PGS
  169. Muxing mode                              : zlib
  170. Codec ID                                 : S_HDMV/PGS
  171. Codec ID/Info                            : Picture based subtitle format used on BDs/HD-DVDs
  172. Duration                                 : 1 h 37 min
  173. Bit rate                                 : 29.5 kb/s
  174. Count of elements                        : 2804
  175. Stream size                              : 20.5 MiB (0%)
  176. Title                                    : English-PGS
  177. Language                                 : English
  178. Default                                  : No
  179. Forced                                   : No
  180. Original source medium                   : Blu-ray

  181. Text #3
  182. ID                                       : 10
  183. ID in the original source medium         : 4768 (0x12A0)
  184. Format                                   : PGS
  185. Muxing mode                              : zlib
  186. Codec ID                                 : S_HDMV/PGS
  187. Codec ID/Info                            : Picture based subtitle format used on BDs/HD-DVDs
  188. Duration                                 : 1 h 36 min
  189. Bit rate                                 : 28.1 kb/s
  190. Count of elements                        : 2272
  191. Stream size                              : 19.4 MiB (0%)
  192. Title                                    : French-PGS
  193. Language                                 : French
  194. Default                                  : No
  195. Forced                                   : No
  196. Original source medium                   : Blu-ray

  197. Menu
  198. 00:00:00.000                             : en:Chapter 01
  199. 00:05:50.541                             : en:Chapter 02
  200. 00:20:10.000                             : en:Chapter 03
  201. 00:25:54.833                             : en:Chapter 04
  202. 00:29:12.458                             : en:Chapter 05
  203. 00:44:38.916                             : en:Chapter 06
  204. 00:50:28.541                             : en:Chapter 07
  205. 01:06:28.458                             : en:Chapter 08
  206. 01:09:54.750                             : en:Chapter 09
  207. 01:12:39.875                             : en:Chapter 10
  208. 01:25:12.666                             : en:Chapter 11
  209. 01:29:59.000                             : en:Chapter 12
  210. 01:34:47.541                             : en:Chapter 13
  211. 01:36:36.000                             : en:Chapter 14
  212. 01:37:15.416                             : en:Chapter 15
复制代码



                                       
                                       

                                       
                                       
                                       




回复

使用道具 举报

懒得打字嘛,点击右侧快捷回复 【右侧内容,后台自定义】
您需要登录后才可以回帖 登录 | 立即加入

本版积分规则

Archiver|小黑屋| 蓝光电影网 |网站地图

Copyright © 2021 Comsenz Inc. Powered by 蓝光电影网

蓝光电影网

本站内容由用户自主分享和转载自互联网,转载目的在于传递更多信息,并不代表本网赞同其观点和对其真实性负责。

如有侵权、违反国家法律政策行为,请联系我们,我们会第一时间及时清除和处理!

举报反馈邮箱:[email protected]

快速回复 返回顶部 返回列表