找回密码

蓝光电影网

查看: 148|回复: 0

[UHD.HEVC] 极限网红 No.Escape.2020.2160p.BluRay.REMUX.HEVC.DTS-HD.MA.5.1-FGT 54.66GB

[复制链接]
蓝光币
1082
发表于 2020-12-22 17:48:48 | 显示全部楼层 |阅读模式
[img][/img]

◎译  名 极限网红/No Escape/密弒直播(台)/无处可逃/玩命直播(港)/跟我来/随着我
◎片  名 Follow Me
◎年  代 2020
◎产  地 美国
◎类  别 惊悚 / 可骇
◎语  言 英语,俄语 Russian
◎上映日期 2020-07-11(德国空想电影节) / 2020-09-18(美国)
◎IMDb评分  5.4/10 from 4659 users
◎IMDb链接  https://www.imdb.com/title/tt8160834/
◎豆瓣评分 5.9/10 from 1910 users
◎豆瓣链接 https://movie.douban.com/subject/34889715/
◎片  长 92分钟
◎主  演 罗南·鲁宾斯坦 Ronen Rubinstein
       霍兰·罗登 Holland Roden
       丹泽尔·惠特克 Denzel Whitaker
       金贝利·奎恩 Kimberly Quinn
       基根·艾伦 Keegan Allen
◎标  签 惊悚 | 可骇 | 美国 | 逃杀 | 悬疑 | 2020 | 犯罪 | 美国电影
◎简  介


  一个交际媒体人物与他的朋友一路前往莫斯科,以获得他成功的VLOG的新内容。他们总是不竭应战极限,逢迎不竭增加的受众,他们进入了一个布满奥秘,过度和危险的严寒天下。当现实生活与交际媒体之间的界限变得模糊时,该构造必须为回避和保存而战。
  1. Video
  2. ID                                       : 1
  3. ID in the original source medium         : 4113 (0x1011)
  4. Format                                   : HEVC
  5. Format/Info                              : High Efficiency Video Coding
  6. Format profile                           : Main [email protected]@High
  7. HDR format                               : SMPTE ST 2094 App 4, Version 1, HDR10+ Profile B compatible
  8. Codec ID                                 : V_MPEGH/ISO/HEVC
  9. Duration                                 : 1 h 31 min
  10. Bit rate                                 : 81.0 Mb/s
  11. Width                                    : 3 840 pixels
  12. Height                                   : 2 160 pixels
  13. Display aspect ratio                     : 16:9
  14. Frame rate mode                          : Constant
  15. Frame rate                               : 23.976 (24000/1001/189150) FPS
  16. Color space                              : YUV
  17. Chroma subsampling                       : 4:2:0 (Type 2)
  18. Bit depth                                : 10 bits
  19. Bits/(Pixel*Frame)                       : 0.407
  20. Stream size                              : 52.0 GiB (95%)
  21. Language                                 : English
  22. Default                                  : No
  23. Forced                                   : No
  24. Color range                              : Limited
  25. Color primaries                          : BT.2020
  26. Transfer characteristics                 : PQ
  27. Matrix coefficients                      : BT.2020 non-constant
  28. Mastering display color primaries        : Display P3
  29. Mastering display luminance              : min: 0.0001 cd/m2, max: 1000 cd/m2
  30. Maximum Content Light Level              : 2948 cd/m2
  31. Maximum Frame-Average Light Level        : 329 cd/m2
  32. Original source medium                   : Blu-ray
  33. Audio #1
  34. ID                                       : 2
  35. ID in the original source medium         : 4353 (0x1101)
  36. Format                                   : DTS XLL
  37. Format/Info                              : Digital Theater Systems
  38. Commercial name                          : DTS-HD Master Audio
  39. Codec ID                                 : A_DTS
  40. Duration                                 : 1 h 31 min
  41. Bit rate mode                            : Variable
  42. Bit rate                                 : 1 923 kb/s
  43. Channel(s)                               : 6 channels
  44. Channel layout                           : C L R Ls Rs LFE
  45. Sampling rate                            : 48.0 kHz
  46. Frame rate                               : 93.750 FPS (512 SPF)
  47. Bit depth                                : 16 bits
  48. Compression mode                         : Lossless
  49. Stream size                              : 1.23 GiB (2%)
  50. Title                                    : DTS-HD MA 5.1
  51. Language                                 : English
  52. Default                                  : Yes
  53. Forced                                   : No
  54. Original source medium                   : Blu-ray
  55. Audio #2
  56. ID                                       : 3
  57. ID in the original source medium         : 4352 (0x1100)
  58. Format                                   : DTS XLL
  59. Format/Info                              : Digital Theater Systems
  60. Commercial name                          : DTS-HD Master Audio
  61. Codec ID                                 : A_DTS
  62. Duration                                 : 1 h 31 min
  63. Bit rate mode                            : Variable
  64. Bit rate                                 : 2 236 kb/s
  65. Channel(s)                               : 6 channels
  66. Channel layout                           : C L R Ls Rs LFE
  67. Sampling rate                            : 48.0 kHz
  68. Frame rate                               : 93.750 FPS (512 SPF)
  69. Bit depth                                : 16 bits
  70. Compression mode                         : Lossless
  71. Stream size                              : 1.43 GiB (3%)
  72. Title                                    : DTS-HD MA 5.1
  73. Language                                 : German
  74. Default                                  : No
  75. Forced                                   : No
  76. Original source medium                   : Blu-ray
  77. Text #1
  78. ID                                       : 4
  79. Format                                   : UTF-8
  80. Codec ID                                 : S_TEXT/UTF8
  81. Codec ID/Info                            : UTF-8 Plain Text
  82. Duration                                 : 1 h 26 min
  83. Bit rate                                 : 56 b/s
  84. Count of elements                        : 1332
  85. Stream size                              : 35.8 KiB (0%)
  86. Title                                    : English-SRT
  87. Language                                 : English
  88. Default                                  : Yes
  89. Forced                                   : No
  90. Text #2
  91. ID                                       : 5
  92. ID in the original source medium         : 4768 (0x12A0)
  93. Format                                   : PGS
  94. Muxing mode                              : zlib
  95. Codec ID                                 : S_HDMV/PGS
  96. Codec ID/Info                            : Picture based subtitle format used on BDs/HD-DVDs
  97. Duration                                 : 1 h 26 min
  98. Bit rate                                 : 40.1 kb/s
  99. Count of elements                        : 2764
  100. Stream size                              : 24.9 MiB (0%)
  101. Title                                    : German-PGS
  102. Language                                 : German
  103. Default                                  : No
  104. Forced                                   : No
  105. Original source medium                   : Blu-ray
  106. Text #3
  107. ID                                       : 6
  108. ID in the original source medium         : 4769 (0x12A1)
  109. Format                                   : PGS
  110. Muxing mode                              : zlib
  111. Codec ID                                 : S_HDMV/PGS
  112. Codec ID/Info                            : Picture based subtitle format used on BDs/HD-DVDs
  113. Duration                                 : 1 h 23 min
  114. Bit rate                                 : 142 b/s
  115. Count of elements                        : 8
  116. Stream size                              : 87.2 KiB (0%)
  117. Title                                    : German-FORCED-PGS
  118. Language                                 : German
  119. Default                                  : No
  120. Forced                                   : No
  121. Original source medium                   : Blu-ray
  122. Menu
  123. 00:00:00.000                             : en:Chapter 01
  124. 00:07:54.849                             : en:Chapter 02
  125. 00:16:39.415                             : en:Chapter 03
  126. 00:26:26.793                             : en:Chapter 04
  127. 00:32:04.631                             : en:Chapter 05
  128. 00:41:22.062                             : en:Chapter 06
  129. 00:48:31.867                             : en:Chapter 07
  130. 00:55:21.943                             : en:Chapter 08
  131. 01:02:20.278                             : en:Chapter 09
  132. 01:09:55.232                             : en:Chapter 10
  133. 01:16:01.932                             : en:Chapter 11
  134. 01:23:11.778                             : en:Chapter 12
复制代码



                                       
                                       

                                       
                                       
                                       




回复

使用道具 举报

懒得打字嘛,点击右侧快捷回复 【右侧内容,后台自定义】
您需要登录后才可以回帖 登录 | 立即加入

本版积分规则

Archiver|小黑屋| 蓝光电影网 |网站地图

Copyright © 2021 Comsenz Inc. Powered by 蓝光电影网

蓝光电影网

本站内容由用户自主分享和转载自互联网,转载目的在于传递更多信息,并不代表本网赞同其观点和对其真实性负责。

如有侵权、违反国家法律政策行为,请联系我们,我们会第一时间及时清除和处理!

举报反馈邮箱:[email protected]

快速回复 返回顶部 返回列表