找回密码

蓝光电影网

查看: 285|回复: 0

[UHD.HEVC] 兽王伏魔/万兽之王 The.Beastmaster.1982.2160p.BluRay.REMUX.HEVC.DTS-HD.MA.5.1-FGT 83.04GB

[复制链接]
蓝光币
1084
发表于 2020-12-18 10:32:14 | 显示全部楼层 |阅读模式
[img][/img]

◎译  名 兽王伏魔/万兽之王/魔诫奇兵
◎片  名 The Beastmaster
◎年  代 1982
◎产  地 美国,西德
◎类  别 行动 / 奇异 / 冒险
◎语  言 英语
◎上映日期 1982-08-20
◎IMDb评分  6.2/10 from 20393 users
◎IMDb链接  https://www.imdb.com/title/tt0083630/
◎豆瓣评分 6.9/10 from 106 users
◎豆瓣链接 https://movie.douban.com/subject/1298314/
◎片  长 118 分钟
◎导  演 唐·柯斯卡莱利 Don Coscarelli
◎编  剧 Paul Pepperman / 唐·柯斯卡莱利 Don Coscarelli / 安德丽·诺顿 Andre Norton
◎主  演 马克·辛格 Marc Singer
       坦娅·罗伯茨 Tanya Roberts
       雷普·汤恩 Rip Torn
       Ralph Strait
       Monty L. Simons
       Jeremy Whelan
       约翰·阿莫斯 John Amos
       Bruce Paul Barbour
       埃迪·多诺 Eddy Donno
       弗雷迪·海斯 Freddie Hice
       保罗·雷诺兹 Paul Reynolds
       Larry Randles
       万娜·邦塔 Vanna Bonta
       Janet DeMay
       Diamond Farnsworth
       比利·汉克·胡克 Billy Hank Hooker
       本·哈默 Ben Hammer
       Chuck Hicks
       珍妮特·琼斯 Janet Jones
       比利·詹 Billy Jayne
       Joshua Milrad
       罗德·卢米斯 Rod Loomis
       Tommy J. Huff
◎标  签 电影 | 奇异 | 美国电影 | 冒险 | 魔幻 | 美国 | 行动 | 1982
◎简  介


  上古洪荒时代,传播著奇异的冒险故事。“万兽王”达尔即是这个时代的豪杰。
  
  达尔诞生皇室,却被巫师亚刚追杀,漂泊官方。他成人未几,养父就被野生番杀死,但他也发现了他能与动物交换的才能。
  
  同时,他必须阻止巫师亚刚拿到“布朗斯之眼”。由于一 旦亚刚拿到此颗宝石,邪魔恶神布朗斯将重返人世,助亚刚王为恶,苛虐生灵。为了获得布朗斯的魔力,亚刚绑架了达尔的亲兄弟——泰尔王,兄弟情深的达尔誓词救回兄弟,为父报仇,他率领著忠心的动物军队以及智囊塞斯向亚刚王宣战。达尔将和这位奥秘没测的魔头刀锋相对决一死战。
  1. Video
  2. ID                                       : 1
  3. ID in the original source medium         : 4113 (0x1011)
  4. Format                                   : HEVC
  5. Format/Info                              : High Efficiency Video Coding
  6. Format profile                           : Main [email protected]@High
  7. HDR format                               : SMPTE ST 2086, HDR10 compatible
  8. Codec ID                                 : V_MPEGH/ISO/HEVC
  9. Duration                                 : 1 h 58 min
  10. Bit rate                                 : 93.7 Mb/s
  11. Width                                    : 3 840 pixels
  12. Height                                   : 2 160 pixels
  13. Display aspect ratio                     : 16:9
  14. Frame rate mode                          : Constant
  15. Frame rate                               : 23.976 (24000/1001/189150) FPS
  16. Color space                              : YUV
  17. Chroma subsampling                       : 4:2:0 (Type 2)
  18. Bit depth                                : 10 bits
  19. Bits/(Pixel*Frame)                       : 0.471
  20. Stream size                              : 77.5 GiB (93%)
  21. Language                                 : English
  22. Default                                  : Yes
  23. Forced                                   : No
  24. Color range                              : Limited
  25. Color primaries                          : BT.2020
  26. Transfer characteristics                 : PQ
  27. Matrix coefficients                      : BT.2020 non-constant
  28. Mastering display color primaries        : BT.2020
  29. Mastering display luminance              : min: 0.0001 cd/m2, max: 1000 cd/m2
  30. Maximum Content Light Level              : 1000 cd/m2
  31. Maximum Frame-Average Light Level        : 400 cd/m2
  32. Original source medium                   : Blu-ray

  33. Audio #1
  34. ID                                       : 2
  35. ID in the original source medium         : 4353 (0x1101)
  36. Format                                   : DTS XLL
  37. Format/Info                              : Digital Theater Systems
  38. Commercial name                          : DTS-HD Master Audio
  39. Codec ID                                 : A_DTS
  40. Duration                                 : 1 h 58 min
  41. Bit rate mode                            : Variable
  42. Bit rate                                 : 3 516 kb/s
  43. Channel(s)                               : 6 channels
  44. Channel layout                           : C L R Ls Rs LFE
  45. Sampling rate                            : 48.0 kHz
  46. Frame rate                               : 93.750 FPS (512 SPF)
  47. Bit depth                                : 24 bits
  48. Compression mode                         : Lossless
  49. Stream size                              : 2.91 GiB (4%)
  50. Title                                    : DTS-HD MA 5.1
  51. Language                                 : English
  52. Default                                  : Yes
  53. Forced                                   : No
  54. Original source medium                   : Blu-ray

  55. Audio #2
  56. ID                                       : 3
  57. Format                                   : AC-3
  58. Format/Info                              : Audio Coding 3
  59. Commercial name                          : Dolby Digital
  60. Codec ID                                 : A_AC3
  61. Duration                                 : 1 h 58 min
  62. Bit rate mode                            : Constant
  63. Bit rate                                 : 640 kb/s
  64. Channel(s)                               : 6 channels
  65. Channel layout                           : L R C LFE Ls Rs
  66. Sampling rate                            : 48.0 kHz
  67. Frame rate                               : 31.250 FPS (1536 SPF)
  68. Compression mode                         : Lossy
  69. Stream size                              : 542 MiB (1%)
  70. Title                                    : DD 5.1
  71. Language                                 : English
  72. Service kind                             : Complete Main
  73. Default                                  : No
  74. Forced                                   : No

  75. Audio #3
  76. ID                                       : 4
  77. ID in the original source medium         : 4352 (0x1100)
  78. Format                                   : DTS XLL
  79. Format/Info                              : Digital Theater Systems
  80. Commercial name                          : DTS-HD Master Audio
  81. Codec ID                                 : A_DTS
  82. Duration                                 : 1 h 58 min
  83. Bit rate mode                            : Variable
  84. Bit rate                                 : 2 126 kb/s
  85. Channel(s)                               : 2 channels
  86. Channel layout                           : L R
  87. Sampling rate                            : 48.0 kHz
  88. Frame rate                               : 93.750 FPS (512 SPF)
  89. Bit depth                                : 24 bits
  90. Compression mode                         : Lossless
  91. Stream size                              : 1.76 GiB (2%)
  92. Title                                    : DTS-HD MA 2.0
  93. Language                                 : English
  94. Default                                  : No
  95. Forced                                   : No
  96. Original source medium                   : Blu-ray

  97. Audio #4
  98. ID                                       : 5
  99. ID in the original source medium         : 4354 (0x1102)
  100. Format                                   : AC-3
  101. Format/Info                              : Audio Coding 3
  102. Commercial name                          : Dolby Digital
  103. Codec ID                                 : A_AC3
  104. Duration                                 : 1 h 58 min
  105. Bit rate mode                            : Constant
  106. Bit rate                                 : 192 kb/s
  107. Channel(s)                               : 2 channels
  108. Channel layout                           : L R
  109. Sampling rate                            : 48.0 kHz
  110. Frame rate                               : 31.250 FPS (1536 SPF)
  111. Compression mode                         : Lossy
  112. Stream size                              : 163 MiB (0%)
  113. Title                                    : DD 2.0
  114. Language                                 : English
  115. Service kind                             : Complete Main
  116. Default                                  : No
  117. Forced                                   : No
  118. Original source medium                   : Blu-ray

  119. Audio #5
  120. ID                                       : 6
  121. ID in the original source medium         : 4355 (0x1103)
  122. Format                                   : AC-3
  123. Format/Info                              : Audio Coding 3
  124. Commercial name                          : Dolby Digital
  125. Codec ID                                 : A_AC3
  126. Duration                                 : 1 h 58 min
  127. Bit rate mode                            : Constant
  128. Bit rate                                 : 192 kb/s
  129. Channel(s)                               : 2 channels
  130. Channel layout                           : L R
  131. Sampling rate                            : 48.0 kHz
  132. Frame rate                               : 31.250 FPS (1536 SPF)
  133. Compression mode                         : Lossy
  134. Stream size                              : 163 MiB (0%)
  135. Title                                    : DD 2.0
  136. Language                                 : English
  137. Service kind                             : Complete Main
  138. Default                                  : No
  139. Forced                                   : No
  140. Original source medium                   : Blu-ray

  141. Text #1
  142. ID                                       : 7
  143. Format                                   : UTF-8
  144. Codec ID                                 : S_TEXT/UTF8
  145. Codec ID/Info                            : UTF-8 Plain Text
  146. Duration                                 : 1 h 50 min
  147. Bit rate                                 : 10 b/s
  148. Count of elements                        : 435
  149. Stream size                              : 8.14 KiB (0%)
  150. Title                                    : English-SRT
  151. Language                                 : English
  152. Default                                  : Yes
  153. Forced                                   : No

  154. Text #2
  155. ID                                       : 8
  156. ID in the original source medium         : 4768 (0x12A0)
  157. Format                                   : PGS
  158. Muxing mode                              : zlib
  159. Codec ID                                 : S_HDMV/PGS
  160. Codec ID/Info                            : Picture based subtitle format used on BDs/HD-DVDs
  161. Duration                                 : 1 h 55 min
  162. Bit rate                                 : 12.4 kb/s
  163. Count of elements                        : 2056
  164. Stream size                              : 10.2 MiB (0%)
  165. Title                                    : English-PGS
  166. Language                                 : English
  167. Default                                  : No
  168. Forced                                   : No
  169. Original source medium                   : Blu-ray

  170. Menu
  171. 00:00:00.000                             : en:Chapter 01
  172. 00:22:02.529                             : en:Chapter 02
  173. 00:43:14.174                             : en:Chapter 03
  174. 01:03:40.399                             : en:Chapter 04
  175. 01:22:04.210                             : en:Chapter 05
  176. 01:41:54.650                             : en:Chapter 06
复制代码



                                       
                                       

                                       
                                       
                                       




回复

使用道具 举报

懒得打字嘛,点击右侧快捷回复 【右侧内容,后台自定义】
您需要登录后才可以回帖 登录 | 立即加入

本版积分规则

Archiver|小黑屋| 蓝光电影网 |网站地图

Copyright © 2021 Comsenz Inc. Powered by 蓝光电影网

蓝光电影网

本站内容由用户自主分享和转载自互联网,转载目的在于传递更多信息,并不代表本网赞同其观点和对其真实性负责。

如有侵权、违反国家法律政策行为,请联系我们,我们会第一时间及时清除和处理!

举报反馈邮箱:[email protected]

快速回复 返回顶部 返回列表