找回密码

蓝光电影网

查看: 67|回复: 0

[2160p] 超人:明日之子 Superman.Man.of.Tomorrow.2020.2160p.BluRay.x264.8bit.SDR.DTS-HD.MA.5.1-SWTYBLZ 14.84GB

[复制链接]
蓝光币
1080
发表于 2020-9-2 10:09:51 | 显示全部楼层 |阅读模式


◎译  名 超人:明日之子
◎片  名 Superman: Man of Tomorrow
◎年  代 2020
◎产  地 美国
◎类  别 行动 / 动画
◎语  言 英语
◎上映日期 2020-08-23(美国收集) / 2020-09-08(美国)
◎IMDb评分  6.5/10 from 1304 users
◎IMDb链接  https://www.imdb.com/title/tt11079116/
◎豆瓣评分 6.2/10 from 804 users
◎豆瓣链接 https://movie.douban.com/subject/34777819/
◎片  长 86分钟
◎导  演 克里斯·帕尔默 Chris Palmer
◎编  剧 蒂姆·谢里丹 Tim Sheridan
◎主  演 达伦·克里斯 Darren Criss
       扎克瑞·昆图 Zachary Quinto
       艾克·阿玛迪 Ike Amadi
       尤金·伯德 Eugene Byrd
       David Chen
       亚历珊德拉·达达里奥 Alexandra Daddario
       布雷特·道顿 Brett Dalton
       尼尔·弗林 Neil Flynn
       瑞恩·赫斯特 Ryan Hurst
       茜丝·琼斯 Cissy Jones
       彼得·迈克尔 Piotr Michael
       克里斯蒂娜·米利齐亚 Cristina Milizia
       艾普尔·斯图瓦特 April Stewart
       贝拉米·扬 Bellamy Young
◎标  签 DC | 动画 | 超级豪杰 | 漫画改编 | 美国 | 科幻 | 2020 | 超人
◎简  介


  报告一个年轻的克拉克·肯特在超人生活早期的故事。关于这部电影的更多细节没有流露。
  1. Video
  2. ID                                       : 1
  3. Format                                   : AVC
  4. Format/Info                              : Advanced Video Codec
  5. Format profile                           : [email protected]
  6. Format settings                          : CABAC / 5 Ref Frames
  7. Format settings, CABAC                   : Yes
  8. Format settings, Reference frames        : 5 frames
  9. Codec ID                                 : V_MPEG4/ISO/AVC
  10. Duration                                 : 1 h 26 min
  11. Bit rate                                 : 19.6 Mb/s
  12. Width                                    : 3 840 pixels
  13. Height                                   : 2 160 pixels
  14. Display aspect ratio                     : 16:9
  15. Frame rate mode                          : Constant
  16. Frame rate                               : 23.976 (24000/1001/189150) FPS
  17. Color space                              : YUV
  18. Chroma subsampling                       : 4:2:0
  19. Bit depth                                : 8 bits
  20. Scan type                                : Progressive
  21. Bits/(Pixel*Frame)                       : 0.098
  22. Stream size                              : 11.8 GiB (80%)
  23. Title                                    : Superman.Man.of.Tomorrow.2020.2160p.BluRay.x264.8bit.SDR.DTS-HD.MA.5.1-SWTYBLZ
  24. Writing library                          : x264 core 157 r2935 545de2f
  25. Encoding settings                        : cabac=1 / ref=5 / deblock=1:1:1 / analyse=0x3:0x113 / me=umh / subme=10 / psy=1 / psy_rd=0.40:0.00 / mixed_ref=1 / me_range=48 / chroma_me=1 / trellis=2 / 8x8dct=1 / cqm=0 / deadzone=21,11 / fast_pskip=1 / chroma_qp_offset=-2 / threads=48 / lookahead_threads=5 / sliced_threads=0 / nr=0 / decimate=0 / interlaced=0 / bluray_compat=0 / constrained_intra=0 / bframes=5 / b_pyramid=2 / b_adapt=2 / b_bias=0 / direct=3 / weightb=1 / open_gop=0 / weightp=2 / keyint=250 / keyint_min=23 / scenecut=40 / intra_refresh=0 / rc_lookahead=50 / rc=crf / mbtree=1 / crf=16.0 / qcomp=0.60 / qpmin=0 / qpmax=69 / qpstep=4 / ip_ratio=1.40 / aq=1:0.60
  26. Language                                 : English
  27. Default                                  : Yes
  28. Forced                                   : No
  29. Audio #1
  30. ID                                       : 2
  31. Format                                   : DTS XLL
  32. Format/Info                              : Digital Theater Systems
  33. Commercial name                          : DTS-HD Master Audio
  34. Codec ID                                 : A_DTS
  35. Duration                                 : 1 h 26 min
  36. Bit rate mode                            : Variable
  37. Bit rate                                 : 4 106 kb/s
  38. Channel(s)                               : 6 channels
  39. Channel layout                           : C L R Ls Rs LFE
  40. Sampling rate                            : 48.0 kHz
  41. Frame rate                               : 93.750 FPS (512 SPF)
  42. Bit depth                                : 24 bits
  43. Compression mode                         : Lossless
  44. Stream size                              : 2.48 GiB (17%)
  45. Title                                    : Superman.Man.of.Tomorrow.2020.2160p.BluRay.x264.8bit.SDR.DTS-HD.MA.5.1-SWTYBLZ
  46. Language                                 : English
  47. Default                                  : Yes
  48. Forced                                   : No
  49. Audio #2
  50. ID                                       : 3
  51. Format                                   : AC-3
  52. Format/Info                              : Audio Coding 3
  53. Commercial name                          : Dolby Digital
  54. Codec ID                                 : A_AC3
  55. Duration                                 : 1 h 26 min
  56. Bit rate mode                            : Constant
  57. Bit rate                                 : 640 kb/s
  58. Channel(s)                               : 6 channels
  59. Channel layout                           : L R C LFE Ls Rs
  60. Sampling rate                            : 48.0 kHz
  61. Frame rate                               : 31.250 FPS (1536 SPF)
  62. Compression mode                         : Lossy
  63. Stream size                              : 396 MiB (3%)
  64. Title                                    : Superman.Man.of.Tomorrow.2020.2160p.BluRay.x264.8bit.SDR.DTS-HD.MA.5.1-SWTYBLZ
  65. Language                                 : English
  66. Service kind                             : Complete Main
  67. Default                                  : No
  68. Forced                                   : No
  69. Text #1
  70. ID                                       : 4
  71. Format                                   : UTF-8
  72. Codec ID                                 : S_TEXT/UTF8
  73. Codec ID/Info                            : UTF-8 Plain Text
  74. Duration                                 : 1 h 21 min
  75. Bit rate                                 : 44 b/s
  76. Count of elements                        : 871
  77. Stream size                              : 26.7 KiB (0%)
  78. Title                                    : English-SRT
  79. Language                                 : English
  80. Default                                  : Yes
  81. Forced                                   : No
  82. Text #2
  83. ID                                       : 5
  84. Format                                   : PGS
  85. Muxing mode                              : zlib
  86. Codec ID                                 : S_HDMV/PGS
  87. Codec ID/Info                            : Picture based subtitle format used on BDs/HD-DVDs
  88. Duration                                 : 1 h 21 min
  89. Bit rate                                 : 30.4 kb/s
  90. Count of elements                        : 2154
  91. Stream size                              : 17.7 MiB (0%)
  92. Title                                    : English-pGS
  93. Language                                 : English
  94. Default                                  : No
  95. Forced                                   : No
  96. Text #3
  97. ID                                       : 6
  98. Format                                   : PGS
  99. Muxing mode                              : zlib
  100. Codec ID                                 : S_HDMV/PGS
  101. Codec ID/Info                            : Picture based subtitle format used on BDs/HD-DVDs
  102. Duration                                 : 1 h 25 min
  103. Bit rate                                 : 25.2 kb/s
  104. Count of elements                        : 1706
  105. Stream size                              : 15.4 MiB (0%)
  106. Title                                    : French-PGS
  107. Language                                 : French
  108. Default                                  : No
  109. Forced                                   : No
  110. Text #4
  111. ID                                       : 7
  112. Format                                   : PGS
  113. Muxing mode                              : zlib
  114. Codec ID                                 : S_HDMV/PGS
  115. Codec ID/Info                            : Picture based subtitle format used on BDs/HD-DVDs
  116. Duration                                 : 1 h 25 min
  117. Bit rate                                 : 24.4 kb/s
  118. Count of elements                        : 1772
  119. Stream size                              : 14.9 MiB (0%)
  120. Title                                    : Spanish-PGS
  121. Language                                 : Spanish
  122. Default                                  : No
  123. Forced                                   : No
  124. Menu
  125. 00:00:00.000                             : en:Chapter 1
  126. 00:09:25.356                             : en:Chapter 2
  127. 00:20:07.540                             : en:Chapter 3
  128. 00:31:07.657                             : en:Chapter 4
  129. 00:40:24.797                             : en:Chapter 5
  130. 00:47:56.499                             : en:Chapter 6
  131. 00:57:28.236                             : en:Chapter 7
  132. 01:07:09.651                             : en:Chapter 8
  133. 01:15:53.883                             : en:Chapter 9
  134. 01:22:48.255                             : en:Chapter 10
复制代码









                                       
                                       

                                       
                                       
                                       




回复

使用道具 举报

懒得打字嘛,点击右侧快捷回复 【右侧内容,后台自定义】
您需要登录后才可以回帖 登录 | 立即加入

本版积分规则

Archiver|小黑屋| 蓝光电影网 |网站地图

Copyright © 2021 Comsenz Inc. Powered by 蓝光电影网

蓝光电影网

本站内容由用户自主分享和转载自互联网,转载目的在于传递更多信息,并不代表本网赞同其观点和对其真实性负责。

如有侵权、违反国家法律政策行为,请联系我们,我们会第一时间及时清除和处理!

举报反馈邮箱:[email protected]

快速回复 返回顶部 返回列表