找回密码

蓝光电影网

查看: 63|回复: 0

[2160p] 超人:明日之子 Superman.Man.of.Tomorrow.2020.2160p.BluRay.x265.10bit.SDR.DTS-HD.MA.5.1-SWTYBLZ 15.75GB

[复制链接]
蓝光币
1080
发表于 2020-9-2 10:04:19 | 显示全部楼层 |阅读模式


◎译  名 超人:明日之子
◎片  名 Superman: Man of Tomorrow
◎年  代 2020
◎产  地 美国
◎类  别 行动 / 动画
◎语  言 英语
◎上映日期 2020-08-23(美国收集) / 2020-09-08(美国)
◎IMDb评分  6.5/10 from 1304 users
◎IMDb链接  https://www.imdb.com/title/tt11079116/
◎豆瓣评分 6.2/10 from 804 users
◎豆瓣链接 https://movie.douban.com/subject/34777819/
◎片  长 86分钟
◎导  演 克里斯·帕尔默 Chris Palmer
◎编  剧 蒂姆·谢里丹 Tim Sheridan
◎主  演 达伦·克里斯 Darren Criss
       扎克瑞·昆图 Zachary Quinto
       艾克·阿玛迪 Ike Amadi
       尤金·伯德 Eugene Byrd
       David Chen
       亚历珊德拉·达达里奥 Alexandra Daddario
       布雷特·道顿 Brett Dalton
       尼尔·弗林 Neil Flynn
       瑞恩·赫斯特 Ryan Hurst
       茜丝·琼斯 Cissy Jones
       彼得·迈克尔 Piotr Michael
       克里斯蒂娜·米利齐亚 Cristina Milizia
       艾普尔·斯图瓦特 April Stewart
       贝拉米·扬 Bellamy Young
◎标  签 DC | 动画 | 超级豪杰 | 漫画改编 | 美国 | 科幻 | 2020 | 超人
◎简  介


  报告一个年轻的克拉克·肯特在超人生活早期的故事。关于这部电影的更多细节没有流露。
  1. Video
  2. ID                                       : 1
  3. Format                                   : HEVC
  4. Format/Info                              : High Efficiency Video Coding
  5. Format profile                           : Main [email protected]@High
  6. Codec ID                                 : V_MPEGH/ISO/HEVC
  7. Duration                                 : 1 h 26 min
  8. Bit rate                                 : 21.1 Mb/s
  9. Width                                    : 3 840 pixels
  10. Height                                   : 2 160 pixels
  11. Display aspect ratio                     : 16:9
  12. Frame rate mode                          : Constant
  13. Frame rate                               : 23.976 (24000/1001/189150) FPS
  14. Color space                              : YUV
  15. Chroma subsampling                       : 4:2:0
  16. Bit depth                                : 10 bits
  17. Bits/(Pixel*Frame)                       : 0.106
  18. Stream size                              : 12.7 GiB (81%)
  19. Title                                    : Superman.Man.of.Tomorrow.2020.2160p.BluRay.x265.10bit.SDR.DTS-HD.MA.5.1-SWTYBLZ
  20. Writing library                          : x265 3.0ed72af837053:[Windows][GCC 8.2.0][64 bit] 10bit
  21. Encoding settings                        : cpuid=1111039 / frame-threads=6 / numa-pools=40 / wpp / no-pmode / no-pme / no-psnr / no-ssim / log-level=2 / input-csp=1 / input-res=3840x2160 / interlace=0 / total-frames=124329 / level-idc=51 / high-tier=1 / uhd-bd=0 / ref=3 / no-allow-non-conformance / repeat-headers / annexb / aud / hrd / info / hash=0 / no-temporal-layers / no-open-gop / min-keyint=1 / keyint=24 / gop-lookahead=0 / bframes=6 / b-adapt=2 / b-pyramid / bframe-bias=0 / rc-lookahead=25 / lookahead-slices=4 / scenecut=40 / radl=0 / no-splice / no-intra-refresh / ctu=64 / min-cu-size=8 / no-rect / no-amp / max-tu-size=32 / tu-inter-depth=1 / tu-intra-depth=1 / limit-tu=0 / rdoq-level=0 / dynamic-rd=0.00 / no-ssim-rd / signhide / no-tskip / nr-intra=0 / nr-inter=0 / no-constrained-intra / strong-intra-smoothing / max-merge=2 / limit-refs=3 / no-limit-modes / me=1 / subme=2 / merange=57 / temporal-mvp / weightp / no-weightb / no-analyze-src-pics / deblock=1:1 / no-sao / no-sao-non-deblock / rd=3 / no-early-skip / rskip / no-fast-intra / no-tskip-fast / no-cu-lossless / no-b-intra / no-splitrd-skip / rdpenalty=0 / psy-rd=0.40 / psy-rdoq=0.00 / no-rd-refine / no-lossless / cbqpoffs=0 / crqpoffs=0 / rc=crf / crf=14.0 / qcomp=0.60 / qpstep=4 / stats-write=0 / stats-read=0 / vbv-maxrate=160000 / vbv-bufsize=160000 / vbv-init=0.9 / crf-max=0.0 / crf-min=0.0 / ipratio=1.40 / pbratio=1.30 / aq-mode=1 / aq-strength=0.40 / cutree / zone-count=0 / no-strict-cbr / qg-size=32 / no-rc-grain / qpmax=69 / qpmin=0 / no-const-vbv / sar=1 / overscan=0 / videoformat=5 / range=0 / colorprim=2 / transfer=2 / colormatrix=2 / chromaloc=0 / display-window=0 / max-cll=0,0 / min-luma=0 / max-luma=1023 / log2-max-poc-lsb=8 / vui-timing-info / vui-hrd-info / slices=1 / opt-qp-pps / opt-ref-list-length-pps / no-multi-pass-opt-rps / scenecut-bias=0.05 / no-opt-cu-delta-qp / no-aq-motion / no-hdr / no-hdr-opt / no-dhdr10-opt / no-idr-recovery-sei / analysis-reuse-level=5 / scale-factor=0 / refine-intra=0 / refine-inter=0 / refine-mv=0 / refine-ctu-distortion=0 / no-limit-sao / ctu-info=0 / no-lowpass-dct / refine-analysis-type=0 / copy-pic=1 / max-ausize-factor=1.0 / no-dynamic-refine / no-single-sei / no-hevc-aq / qp-adaptation-range=1.00
  22. Default                                  : Yes
  23. Forced                                   : No
  24. Audio #1
  25. ID                                       : 2
  26. Format                                   : DTS XLL
  27. Format/Info                              : Digital Theater Systems
  28. Commercial name                          : DTS-HD Master Audio
  29. Codec ID                                 : A_DTS
  30. Duration                                 : 1 h 26 min
  31. Bit rate mode                            : Variable
  32. Bit rate                                 : 4 106 kb/s
  33. Channel(s)                               : 6 channels
  34. Channel layout                           : C L R Ls Rs LFE
  35. Sampling rate                            : 48.0 kHz
  36. Frame rate                               : 93.750 FPS (512 SPF)
  37. Bit depth                                : 24 bits
  38. Compression mode                         : Lossless
  39. Stream size                              : 2.48 GiB (16%)
  40. Title                                    : Superman.Man.of.Tomorrow.2020.2160p.BluRay.x265.10bit.SDR.DTS-HD.MA.5.1-SWTYBLZ
  41. Language                                 : English
  42. Default                                  : Yes
  43. Forced                                   : No
  44. Audio #2
  45. ID                                       : 3
  46. Format                                   : AC-3
  47. Format/Info                              : Audio Coding 3
  48. Commercial name                          : Dolby Digital
  49. Codec ID                                 : A_AC3
  50. Duration                                 : 1 h 26 min
  51. Bit rate mode                            : Constant
  52. Bit rate                                 : 640 kb/s
  53. Channel(s)                               : 6 channels
  54. Channel layout                           : L R C LFE Ls Rs
  55. Sampling rate                            : 48.0 kHz
  56. Frame rate                               : 31.250 FPS (1536 SPF)
  57. Compression mode                         : Lossy
  58. Stream size                              : 396 MiB (2%)
  59. Title                                    : Superman.Man.of.Tomorrow.2020.2160p.BluRay.x265.10bit.SDR.DTS-HD.MA.5.1-SWTYBLZ
  60. Language                                 : English
  61. Service kind                             : Complete Main
  62. Default                                  : No
  63. Forced                                   : No
  64. Text #1
  65. ID                                       : 4
  66. Format                                   : UTF-8
  67. Codec ID                                 : S_TEXT/UTF8
  68. Codec ID/Info                            : UTF-8 Plain Text
  69. Duration                                 : 1 h 21 min
  70. Bit rate                                 : 44 b/s
  71. Count of elements                        : 871
  72. Stream size                              : 26.7 KiB (0%)
  73. Title                                    : English-SRT
  74. Language                                 : English
  75. Default                                  : Yes
  76. Forced                                   : No
  77. Text #2
  78. ID                                       : 5
  79. Format                                   : PGS
  80. Muxing mode                              : zlib
  81. Codec ID                                 : S_HDMV/PGS
  82. Codec ID/Info                            : Picture based subtitle format used on BDs/HD-DVDs
  83. Duration                                 : 1 h 21 min
  84. Bit rate                                 : 30.4 kb/s
  85. Count of elements                        : 2154
  86. Stream size                              : 17.7 MiB (0%)
  87. Title                                    : English-pGS
  88. Language                                 : English
  89. Default                                  : No
  90. Forced                                   : No
  91. Text #3
  92. ID                                       : 6
  93. Format                                   : PGS
  94. Muxing mode                              : zlib
  95. Codec ID                                 : S_HDMV/PGS
  96. Codec ID/Info                            : Picture based subtitle format used on BDs/HD-DVDs
  97. Duration                                 : 1 h 25 min
  98. Bit rate                                 : 25.2 kb/s
  99. Count of elements                        : 1706
  100. Stream size                              : 15.4 MiB (0%)
  101. Title                                    : French-PGS
  102. Language                                 : French
  103. Default                                  : No
  104. Forced                                   : No
  105. Text #4
  106. ID                                       : 7
  107. Format                                   : PGS
  108. Muxing mode                              : zlib
  109. Codec ID                                 : S_HDMV/PGS
  110. Codec ID/Info                            : Picture based subtitle format used on BDs/HD-DVDs
  111. Duration                                 : 1 h 25 min
  112. Bit rate                                 : 24.4 kb/s
  113. Count of elements                        : 1772
  114. Stream size                              : 14.9 MiB (0%)
  115. Title                                    : Spanish-PGS
  116. Language                                 : Spanish
  117. Default                                  : No
  118. Forced                                   : No
  119. Menu
  120. 00:00:00.000                             : en:Chapter 1
  121. 00:09:25.356                             : en:Chapter 2
  122. 00:20:07.540                             : en:Chapter 3
  123. 00:31:07.657                             : en:Chapter 4
  124. 00:40:24.797                             : en:Chapter 5
  125. 00:47:56.499                             : en:Chapter 6
  126. 00:57:28.236                             : en:Chapter 7
  127. 01:07:09.651                             : en:Chapter 8
  128. 01:15:53.883                             : en:Chapter 9
  129. 01:22:48.255                             : en:Chapter 10
复制代码









                                       
                                       

                                       
                                       
                                       




回复

使用道具 举报

懒得打字嘛,点击右侧快捷回复 【右侧内容,后台自定义】
您需要登录后才可以回帖 登录 | 立即加入

本版积分规则

Archiver|小黑屋| 蓝光电影网 |网站地图

Copyright © 2021 Comsenz Inc. Powered by 蓝光电影网

蓝光电影网

本站内容由用户自主分享和转载自互联网,转载目的在于传递更多信息,并不代表本网赞同其观点和对其真实性负责。

如有侵权、违反国家法律政策行为,请联系我们,我们会第一时间及时清除和处理!

举报反馈邮箱:[email protected]

快速回复 返回顶部 返回列表