找回密码

蓝光电影网

查看: 273|回复: 0

[UHD.HEVC] 末日逃生/地球陷落 Greenland.2020.2160p.BluRay.REMUX.HEVC.DTS-HD.MA.TrueHD.7.1.Atmos-FGT 58.91GB

[复制链接]
蓝光币
1084
发表于 2020-12-16 00:15:45 | 显示全部楼层 |阅读模式
[img][/img]

◎译  名 末日逃生/地球沦陷(豆友译名)/天劫倒数(台)/末世绿洲(港)/格陵兰/格陵兰沦陷
◎片  名 Greenland
◎年  代 2020
◎产  地 美国,英国
◎类  别 剧情 / 科幻 / 灾难
◎语  言 英语
◎上映日期 2020-07-29(比利时) / 2020-11-20(中国大陆) / 2020-12-18(美国收集)
◎IMDb评分  6.3/10 from 30016 users
◎IMDb链接  https://www.imdb.com/title/tt7737786/
◎豆瓣评分 5.6/10 from 19309 users
◎豆瓣链接 https://movie.douban.com/subject/30220799/
◎片  长 119分钟
◎导  演 里克·罗曼·沃夫 Ric Roman Waugh
◎编  剧 克里斯·斯帕林 Chris Sparling
◎主  演 杰拉德·巴特勒 Gerard Butler
       莫蕾娜·巴卡琳 Morena Baccarin
       大卫·丹曼 David Denman
       霍普·戴维斯 Hope Davis
       罗杰·戴尔·弗洛伊德 Roger Dale Floyd
       安德鲁·巴切勒 Andrew Bachelor
       梅琳·当吉 Merrin Dungey
       霍特·麦克卡兰尼 Holt McCallany
       斯科特·格伦 Scott Glenn
       里克·帕斯夸隆 Rick Pasqualone
       阿兰·皮特鲁塞泽维斯基 Alan Pietruszewski
       斯科特·波伊思雷斯 Scott Poythress
       加里·维克斯 Gary Weeks
       特雷西·邦纳 Tracey Bonner
       海耶斯·梅居尔 Hayes Mercure
       库尔特·岳 Kurt Yue
       克米特·罗里森 Kermit Rolison
       布兰登奎因 Brandon Quinn
       约书亚·米克尔 Joshua Mikel
       詹姆斯·罗根 James Logan
       兰达尔·阿切尔 Randall Archer
       凯特·琼斯 Cate Jones
       肯德里克·克罗斯 Kendrick Cross
       莉安·特威登 Leeann Tweeden
       阿·米切尔 Al Mitchell
       亚当·克罗南 Adam Cronan
       艾琳·法萨诺 Erin Fasano
       迈克·加萨威 Mike Gassaway
       帕蒂·舍尔哈斯 Patti Schellhaas
◎标  签 灾难 | 美国 | 科幻 | 末日 | 家庭 | 2020 | 人性 | 剧情
◎简  介


  两颗彗星正执政地球活动,人类行将在 24 小时内面临扑灭性撞击,但是政府封锁了内部消息,在格陵兰建造了堡垒,只答应部分人类进入。修建工程师John获得了进入堡垒的机遇,带着一家三口踏上了去往格陵兰的末日逃生路。
  
  但是,在流亡的进程中,逃难的人们得知自己已经被政府抛弃,起头落空控制,劫持了去往格陵兰的飞机,John的妻子与儿子也是以失散。John只能去约定好的地方期待妻子与儿子,期望会合后一并开车前往目标地格陵兰。
  
  这一路惊心动魄,历经重重困难,他们一家人终极能否可以会合,平安到达格陵兰……
  1. Video
  2. ID                                       : 1
  3. ID in the original source medium         : 4113 (0x1011)
  4. Format                                   : HEVC
  5. Format/Info                              : High Efficiency Video Coding
  6. Format profile                           : Main [email protected]@High
  7. HDR format                               : SMPTE ST 2086, HDR10 compatible
  8. Codec ID                                 : V_MPEGH/ISO/HEVC
  9. Duration                                 : 1 h 59 min
  10. Bit rate                                 : 61.9 Mb/s
  11. Width                                    : 3 840 pixels
  12. Height                                   : 2 160 pixels
  13. Display aspect ratio                     : 16:9
  14. Frame rate mode                          : Constant
  15. Frame rate                               : 23.976 (24000/1001/189150) FPS
  16. Standard                                 : Component
  17. Color space                              : YUV
  18. Chroma subsampling                       : 4:2:0 (Type 2)
  19. Bit depth                                : 10 bits
  20. Bits/(Pixel*Frame)                       : 0.311
  21. Stream size                              : 51.7 GiB (88%)
  22. Language                                 : English
  23. Default                                  : No
  24. Forced                                   : No
  25. Color range                              : Limited
  26. Color primaries                          : BT.2020
  27. Transfer characteristics                 : PQ
  28. Matrix coefficients                      : BT.2020 non-constant
  29. Mastering display color primaries        : Display P3
  30. Mastering display luminance              : min: 0.0000 cd/m2, max: 1000 cd/m2
  31. Maximum Content Light Level              : 1000 cd/m2
  32. Maximum Frame-Average Light Level        : 638 cd/m2
  33. Original source medium                   : Blu-ray
  34. Audio #1
  35. ID                                       : 2
  36. ID in the original source medium         : 4353 (0x1101)
  37. Format                                   : MLP FBA 16-ch
  38. Format/Info                              : Meridian Lossless Packing FBA with 16-channel presentation
  39. Commercial name                          : Dolby TrueHD with Dolby Atmos
  40. Codec ID                                 : A_TRUEHD
  41. Duration                                 : 1 h 59 min
  42. Bit rate mode                            : Variable
  43. Bit rate                                 : 3 960 kb/s
  44. Maximum bit rate                         : 7 086 kb/s
  45. Channel(s)                               : 8 channels
  46. Channel layout                           : L R C LFE Ls Rs Lb Rb
  47. Sampling rate                            : 48.0 kHz
  48. Frame rate                               : 1 200.000 FPS (40 SPF)
  49. Compression mode                         : Lossless
  50. Stream size                              : 3.31 GiB (6%)
  51. Title                                    : TrueHD 7.1. Atmos
  52. Language                                 : English
  53. Default                                  : Yes
  54. Forced                                   : No
  55. Original source medium                   : Blu-ray
  56. Number of dynamic objects                : 11
  57. Bed channel count                        : 1 channel
  58. Bed channel configuration                : LFE
  59. Audio #2
  60. ID                                       : 3
  61. Format                                   : DTS XLL
  62. Format/Info                              : Digital Theater Systems
  63. Commercial name                          : DTS-HD Master Audio
  64. Codec ID                                 : A_DTS
  65. Duration                                 : 1 h 59 min
  66. Bit rate mode                            : Variable
  67. Bit rate                                 : 3 934 kb/s
  68. Channel(s)                               : 8 channels
  69. Channel layout                           : C L R LFE Lb Rb Lss Rss
  70. Sampling rate                            : 48.0 kHz
  71. Frame rate                               : 93.750 FPS (512 SPF)
  72. Bit depth                                : 24 bits
  73. Compression mode                         : Lossless
  74. Delay relative to video                  : 3 ms
  75. Stream size                              : 3.29 GiB (6%)
  76. Title                                    : DTS-HD MA 7.1
  77. Language                                 : English
  78. Default                                  : No
  79. Forced                                   : No
  80. Audio #3
  81. ID                                       : 4
  82. ID in the original source medium         : 4353 (0x1101)
  83. Format                                   : AC-3
  84. Format/Info                              : Audio Coding 3
  85. Commercial name                          : Dolby Digital
  86. Codec ID                                 : A_AC3
  87. Duration                                 : 1 h 59 min
  88. Bit rate mode                            : Constant
  89. Bit rate                                 : 640 kb/s
  90. Channel(s)                               : 6 channels
  91. Channel layout                           : L R C LFE Ls Rs
  92. Sampling rate                            : 48.0 kHz
  93. Frame rate                               : 31.250 FPS (1536 SPF)
  94. Compression mode                         : Lossy
  95. Delay relative to video                  : 14 ms
  96. Stream size                              : 547 MiB (1%)
  97. Title                                    : AC3 5.1
  98. Language                                 : English
  99. Service kind                             : Complete Main
  100. Default                                  : No
  101. Forced                                   : No
  102. Original source medium                   : Blu-ray
  103. Text #1
  104. ID                                       : 5
  105. Format                                   : UTF-8
  106. Codec ID                                 : S_TEXT/UTF8
  107. Codec ID/Info                            : UTF-8 Plain Text
  108. Duration                                 : 1 h 52 min
  109. Bit rate                                 : 59 b/s
  110. Count of elements                        : 1496
  111. Stream size                              : 48.7 KiB (0%)
  112. Title                                    : English-SRT
  113. Language                                 : English
  114. Default                                  : Yes
  115. Forced                                   : No
  116. Text #2
  117. ID                                       : 6
  118. Format                                   : UTF-8
  119. Codec ID                                 : S_TEXT/UTF8
  120. Codec ID/Info                            : UTF-8 Plain Text
  121. Duration                                 : 1 h 52 min
  122. Bit rate                                 : 68 b/s
  123. Count of elements                        : 1758
  124. Stream size                              : 56.6 KiB (0%)
  125. Title                                    : English-SDH-SRT
  126. Language                                 : English
  127. Default                                  : No
  128. Forced                                   : No
  129. Text #3
  130. ID                                       : 7
  131. ID in the original source medium         : 4768 (0x12A0)
  132. Format                                   : PGS
  133. Muxing mode                              : zlib
  134. Codec ID                                 : S_HDMV/PGS
  135. Codec ID/Info                            : Picture based subtitle format used on BDs/HD-DVDs
  136. Duration                                 : 1 h 52 min
  137. Bit rate                                 : 25.9 kb/s
  138. Count of elements                        : 1814
  139. Stream size                              : 20.9 MiB (0%)
  140. Title                                    : Danish-PGS
  141. Language                                 : Danish
  142. Default                                  : No
  143. Forced                                   : No
  144. Original source medium                   : Blu-ray
  145. Text #4
  146. ID                                       : 8
  147. ID in the original source medium         : 4769 (0x12A1)
  148. Format                                   : PGS
  149. Muxing mode                              : zlib
  150. Codec ID                                 : S_HDMV/PGS
  151. Codec ID/Info                            : Picture based subtitle format used on BDs/HD-DVDs
  152. Duration                                 : 1 h 52 min
  153. Bit rate                                 : 28.2 kb/s
  154. Count of elements                        : 1834
  155. Stream size                              : 22.7 MiB (0%)
  156. Title                                    : Finnish-PGS
  157. Language                                 : Finnish
  158. Default                                  : No
  159. Forced                                   : No
  160. Original source medium                   : Blu-ray
  161. Text #5
  162. ID                                       : 9
  163. ID in the original source medium         : 4770 (0x12A2)
  164. Format                                   : PGS
  165. Muxing mode                              : zlib
  166. Codec ID                                 : S_HDMV/PGS
  167. Codec ID/Info                            : Picture based subtitle format used on BDs/HD-DVDs
  168. Duration                                 : 1 h 52 min
  169. Bit rate                                 : 24.6 kb/s
  170. Count of elements                        : 1820
  171. Stream size                              : 19.8 MiB (0%)
  172. Title                                    : Norwegian-PGS
  173. Language                                 : Norwegian
  174. Default                                  : No
  175. Forced                                   : No
  176. Original source medium                   : Blu-ray
  177. Text #6
  178. ID                                       : 10
  179. ID in the original source medium         : 4771 (0x12A3)
  180. Format                                   : PGS
  181. Muxing mode                              : zlib
  182. Codec ID                                 : S_HDMV/PGS
  183. Codec ID/Info                            : Picture based subtitle format used on BDs/HD-DVDs
  184. Duration                                 : 1 h 52 min
  185. Bit rate                                 : 26.8 kb/s
  186. Count of elements                        : 1842
  187. Stream size                              : 21.6 MiB (0%)
  188. Title                                    : Swedish-PGS
  189. Language                                 : Swedish
  190. Default                                  : No
  191. Forced                                   : No
  192. Original source medium                   : Blu-ray
  193. Menu
  194. 00:00:00.000                             : en:Chapter 01
  195. 00:14:35.875                             : en:Chapter 02
  196. 00:30:41.881                             : en:Chapter 03
  197. 00:45:21.719                             : en:Chapter 04
  198. 00:59:22.684                             : en:Chapter 05
  199. 01:14:57.201                             : en:Chapter 06
  200. 01:30:32.635                             : en:Chapter 07
  201. 01:45:14.224                             : en:Chapter 08
复制代码



                                       
                                       

                                       
                                       
                                       




回复

使用道具 举报

懒得打字嘛,点击右侧快捷回复 【右侧内容,后台自定义】
您需要登录后才可以回帖 登录 | 立即加入

本版积分规则

Archiver|小黑屋| 蓝光电影网 |网站地图

Copyright © 2021 Comsenz Inc. Powered by 蓝光电影网

蓝光电影网

本站内容由用户自主分享和转载自互联网,转载目的在于传递更多信息,并不代表本网赞同其观点和对其真实性负责。

如有侵权、违反国家法律政策行为,请联系我们,我们会第一时间及时清除和处理!

举报反馈邮箱:[email protected]

快速回复 返回顶部 返回列表