找回密码

蓝光电影网

查看: 59|回复: 0

[2160p] 阴间大法师 Beetlejuice.1988.2160p.BluRay.x265.10bit.SDR.DTS-HD.MA.TrueHD.7.1.Atmos-SWTYBLZ 47.23GB

[复制链接]
蓝光币
1084
发表于 2020-9-1 16:16:36 | 显示全部楼层 |阅读模式


◎译  名 阴间大法师/Beetle Juice/哗鬼家属(港)/欢乐两重天/甲壳虫汁
◎片  名 Beetlejuice
◎年  代 1988
◎产  地 美国
◎类  别 笑剧 / 奇异
◎语  言 英语
◎上映日期 1988-03-30(美国)
◎IMDb评分  7.5/10 from 251774 users
◎IMDb链接  https://www.imdb.com/title/tt0094721/
◎豆瓣评分 7.7/10 from 10767 users
◎豆瓣链接 https://movie.douban.com/subject/1293639/
◎片  长 92 分钟
◎导  演 蒂姆·波顿 Tim Burton
◎编  剧 迈克尔·麦克道尔 Michael McDowell / 拉瑞·威尔森 Larry Wilson / 沃伦·斯卡伦 Warren Skaaren / 蒂姆·波顿 Tim Burton
◎主  演 迈克尔·基顿 Michael Keaton
       薇诺娜·瑞德 Winona Ryder
       吉娜·戴维斯 Geena Davis
       亚历克·鲍德温 Alec Baldwin
       凯瑟琳·欧哈拉 Catherine O'Hara
       杰弗瑞·琼斯 Jeffrey Jones
       格伦·沙迪克斯 Glenn Shadix
       卡门·菲尔皮 Carmen Filpi
       西尔维娅·西德尼 Sylvia Sidney
       罗伯特·顾雷特 Robert Goulet
       迪克·卡维特 Dick Cavett
       阿德尔·卢茨 Adelle Lutz
       玛丽·斯奇塔姆 Maree Cheatham
       托尼·考克斯 Tony Cox
       杰克·安杰尔 Jack Angel
       Hugo Stanger
       Charles Schneider
       Patrice Martinez
       Simmy Bow
◎标  签 TimBurton | 美国 | 笑剧 | 奇异 | 魔幻 | 1988 | 美国电影 | 蒂姆·波顿
◎简  介


  经营着一家五金店的亚当(亚历克?鲍德温 Alec Baldwin 饰)与芭芭拉(吉娜?戴维斯 Geena Davis 饰)夫妻俩很是恩爱,两人虽然没有孩子,但把一切对相互的爱都倾注在打扮自己的家上。此日夫妻俩出行时发生车祸,双双死亡。成为鬼魂的两夫妻不忍分开自己的家,但阴阳相隔他们只能眼睁睁看的自己的家中搬来了新仆人。入住的迪兹与查尔斯一家将夫妻俩的屋子大举革新,亚当和芭芭拉想出闹鬼招数试图吓走迪兹一家却不起感化,反被迪兹爱好呆在黑黑暗的怪异女儿莉迪亚(薇诺娜?瑞德 Winona Ryder 饰)看穿,做鬼也可贵庄严。无计可施的夫妻俩依照亡灵手册指引,奉求流浪于阴间支流之外的大法师“甲壳虫汁”(迈克尔?基顿 Michael Keaton 饰)帮助他们夺回自己的家……
◎获奖情况
  第61届奥斯卡金像奖 ?(1989)
  最好化装 维·尼尔?/?SteveLaPorte?/?RobertShort
  1. Video
  2. ID                                       : 1
  3. Format                                   : HEVC
  4. Format/Info                              : High Efficiency Video Coding
  5. Format profile                           : Main [email protected]@High
  6. Codec ID                                 : V_MPEGH/ISO/HEVC
  7. Duration                                 : 1 h 32 min
  8. Bit rate                                 : 65.2 Mb/s
  9. Width                                    : 3 840 pixels
  10. Height                                   : 2 076 pixels
  11. Display aspect ratio                     : 1.85:1
  12. Frame rate mode                          : Constant
  13. Frame rate                               : 23.976 (24000/1001/189150) FPS
  14. Color space                              : YUV
  15. Chroma subsampling                       : 4:2:0
  16. Bit depth                                : 10 bits
  17. Bits/(Pixel*Frame)                       : 0.341
  18. Stream size                              : 42.0 GiB (89%)
  19. Title                                    : Beetlejuice.1988.2160p.BluRay.x265.10bit.SDR.DTS-HD.MA.TrueHD.7.1.Atmos-SWTYBLZ
  20. Writing library                          : x265 3.0ed72af837053:[Windows][GCC 8.2.0][64 bit] 10bit
  21. Encoding settings                        : cpuid=1111039 / frame-threads=6 / numa-pools=40 / wpp / no-pmode / no-pme / no-psnr / no-ssim / log-level=2 / input-csp=1 / input-res=3840x2076 / interlace=0 / total-frames=132478 / level-idc=51 / high-tier=1 / uhd-bd=0 / ref=3 / no-allow-non-conformance / repeat-headers / annexb / aud / hrd / info / hash=0 / no-temporal-layers / no-open-gop / min-keyint=1 / keyint=24 / gop-lookahead=0 / bframes=4 / b-adapt=2 / b-pyramid / bframe-bias=0 / rc-lookahead=25 / lookahead-slices=4 / scenecut=40 / radl=0 / no-splice / no-intra-refresh / ctu=64 / min-cu-size=8 / no-rect / no-amp / max-tu-size=32 / tu-inter-depth=1 / tu-intra-depth=1 / limit-tu=0 / rdoq-level=0 / dynamic-rd=0.00 / no-ssim-rd / signhide / no-tskip / nr-intra=0 / nr-inter=0 / no-constrained-intra / strong-intra-smoothing / max-merge=2 / limit-refs=3 / no-limit-modes / me=1 / subme=2 / merange=57 / temporal-mvp / weightp / no-weightb / no-analyze-src-pics / deblock=0:0 / no-sao / no-sao-non-deblock / rd=3 / no-early-skip / rskip / no-fast-intra / no-tskip-fast / no-cu-lossless / no-b-intra / no-splitrd-skip / rdpenalty=0 / psy-rd=2.00 / psy-rdoq=0.00 / no-rd-refine / no-lossless / cbqpoffs=0 / crqpoffs=0 / rc=crf / crf=16.0 / qcomp=0.60 / qpstep=4 / stats-write=0 / stats-read=0 / vbv-maxrate=160000 / vbv-bufsize=160000 / vbv-init=0.9 / crf-max=0.0 / crf-min=0.0 / ipratio=1.40 / pbratio=1.30 / aq-mode=1 / aq-strength=1.00 / cutree / zone-count=0 / no-strict-cbr / qg-size=32 / no-rc-grain / qpmax=69 / qpmin=0 / no-const-vbv / sar=1 / overscan=0 / videoformat=5 / range=0 / colorprim=2 / transfer=2 / colormatrix=2 / chromaloc=0 / display-window=0 / max-cll=0,0 / min-luma=0 / max-luma=1023 / log2-max-poc-lsb=8 / vui-timing-info / vui-hrd-info / slices=1 / opt-qp-pps / opt-ref-list-length-pps / no-multi-pass-opt-rps / scenecut-bias=0.05 / no-opt-cu-delta-qp / no-aq-motion / no-hdr / no-hdr-opt / no-dhdr10-opt / no-idr-recovery-sei / analysis-reuse-level=5 / scale-factor=0 / refine-intra=0 / refine-inter=0 / refine-mv=0 / refine-ctu-distortion=0 / no-limit-sao / ctu-info=0 / no-lowpass-dct / refine-analysis-type=0 / copy-pic=1 / max-ausize-factor=1.0 / no-dynamic-refine / no-single-sei / no-hevc-aq / qp-adaptation-range=1.00
  22. Language                                 : English
  23. Default                                  : Yes
  24. Forced                                   : No
  25. Audio #1
  26. ID                                       : 2
  27. Format                                   : MLP FBA 16-ch
  28. Format/Info                              : Meridian Lossless Packing FBA with 16-channel presentation
  29. Commercial name                          : Dolby TrueHD with Dolby Atmos
  30. Codec ID                                 : A_TRUEHD
  31. Duration                                 : 1 h 32 min
  32. Bit rate mode                            : Variable
  33. Bit rate                                 : 3 117 kb/s
  34. Maximum bit rate                         : 5 781 kb/s
  35. Channel(s)                               : 8 channels
  36. Channel layout                           : L R C LFE Ls Rs Lb Rb
  37. Sampling rate                            : 48.0 kHz
  38. Frame rate                               : 1 200.000 FPS (40 SPF)
  39. Compression mode                         : Lossless
  40. Stream size                              : 2.01 GiB (4%)
  41. Title                                    : Beetlejuice.1988.2160p.BluRay.x265.10bit.SDR.DTS-HD.MA.TrueHD.7.1.Atmos-SWTYBLZ
  42. Language                                 : English
  43. Default                                  : Yes
  44. Forced                                   : No
  45. Number of dynamic objects                : 11
  46. Bed channel count                        : 1 channel
  47. Bed channel configuration                : LFE
  48. Audio #2
  49. ID                                       : 3
  50. Format                                   : DTS XLL
  51. Format/Info                              : Digital Theater Systems
  52. Commercial name                          : DTS-HD Master Audio
  53. Codec ID                                 : A_DTS
  54. Duration                                 : 1 h 32 min
  55. Bit rate mode                            : Variable
  56. Bit rate                                 : 3 588 kb/s
  57. Channel(s)                               : 8 channels
  58. Channel layout                           : C L R LFE Lb Rb Lss Rss
  59. Sampling rate                            : 48.0 kHz
  60. Frame rate                               : 93.750 FPS (512 SPF)
  61. Bit depth                                : 24 bits
  62. Compression mode                         : Lossless
  63. Stream size                              : 2.31 GiB (5%)
  64. Title                                    : Beetlejuice.1988.2160p.BluRay.x265.10bit.SDR.DTS-HD.MA.TrueHD.7.1.Atmos-SWTYBLZ
  65. Language                                 : English
  66. Default                                  : No
  67. Forced                                   : No
  68. Audio #3
  69. ID                                       : 4
  70. Format                                   : AC-3
  71. Format/Info                              : Audio Coding 3
  72. Commercial name                          : Dolby Digital
  73. Codec ID                                 : A_AC3
  74. Duration                                 : 1 h 32 min
  75. Bit rate mode                            : Constant
  76. Bit rate                                 : 640 kb/s
  77. Channel(s)                               : 6 channels
  78. Channel layout                           : L R C LFE Ls Rs
  79. Sampling rate                            : 48.0 kHz
  80. Frame rate                               : 31.250 FPS (1536 SPF)
  81. Compression mode                         : Lossy
  82. Stream size                              : 422 MiB (1%)
  83. Title                                    : Beetlejuice.1988.2160p.BluRay.x265.10bit.SDR.DTS-HD.MA.TrueHD.7.1.Atmos-SWTYBLZ
  84. Language                                 : English
  85. Service kind                             : Complete Main
  86. Default                                  : No
  87. Forced                                   : No
  88. Text #1
  89. ID                                       : 5
  90. Format                                   : UTF-8
  91. Codec ID                                 : S_TEXT/UTF8
  92. Codec ID/Info                            : UTF-8 Plain Text
  93. Duration                                 : 1 h 25 min
  94. Bit rate                                 : 64 b/s
  95. Count of elements                        : 1045
  96. Stream size                              : 40.5 KiB (0%)
  97. Title                                    : English-SRT
  98. Language                                 : English
  99. Default                                  : Yes
  100. Forced                                   : No
  101. Text #2
  102. ID                                       : 6
  103. Format                                   : PGS
  104. Muxing mode                              : zlib
  105. Codec ID                                 : S_HDMV/PGS
  106. Codec ID/Info                            : Picture based subtitle format used on BDs/HD-DVDs
  107. Duration                                 : 1 h 29 min
  108. Bit rate                                 : 35.8 kb/s
  109. Count of elements                        : 2306
  110. Stream size                              : 22.9 MiB (0%)
  111. Title                                    : English-PGS
  112. Language                                 : English
  113. Default                                  : No
  114. Forced                                   : No
  115. Text #3
  116. ID                                       : 7
  117. Format                                   : PGS
  118. Muxing mode                              : zlib
  119. Codec ID                                 : S_HDMV/PGS
  120. Codec ID/Info                            : Picture based subtitle format used on BDs/HD-DVDs
  121. Duration                                 : 1 h 26 min
  122. Bit rate                                 : 40.7 kb/s
  123. Count of elements                        : 2402
  124. Stream size                              : 25.0 MiB (0%)
  125. Title                                    : English-SDH-PGS
  126. Language                                 : English
  127. Default                                  : No
  128. Forced                                   : No
  129. Text #4
  130. ID                                       : 8
  131. Format                                   : PGS
  132. Muxing mode                              : zlib
  133. Codec ID                                 : S_HDMV/PGS
  134. Codec ID/Info                            : Picture based subtitle format used on BDs/HD-DVDs
  135. Duration                                 : 1 h 27 min
  136. Bit rate                                 : 29.6 kb/s
  137. Count of elements                        : 2026
  138. Stream size                              : 18.6 MiB (0%)
  139. Title                                    : Chinese-PGS
  140. Language                                 : Chinese
  141. Default                                  : No
  142. Forced                                   : No
  143. Text #5
  144. ID                                       : 9
  145. Format                                   : PGS
  146. Muxing mode                              : zlib
  147. Codec ID                                 : S_HDMV/PGS
  148. Codec ID/Info                            : Picture based subtitle format used on BDs/HD-DVDs
  149. Duration                                 : 1 h 31 min
  150. Bit rate                                 : 29.0 kb/s
  151. Count of elements                        : 2016
  152. Stream size                              : 19.0 MiB (0%)
  153. Title                                    : Chinese-PGS
  154. Language                                 : Chinese
  155. Default                                  : No
  156. Forced                                   : No
  157. Text #6
  158. ID                                       : 10
  159. Format                                   : PGS
  160. Muxing mode                              : zlib
  161. Codec ID                                 : S_HDMV/PGS
  162. Codec ID/Info                            : Picture based subtitle format used on BDs/HD-DVDs
  163. Duration                                 : 1 h 29 min
  164. Bit rate                                 : 31.0 kb/s
  165. Count of elements                        : 2020
  166. Stream size                              : 19.8 MiB (0%)
  167. Title                                    : Czech-PGS
  168. Language                                 : Czech
  169. Default                                  : No
  170. Forced                                   : No
  171. Text #7
  172. ID                                       : 11
  173. Format                                   : PGS
  174. Muxing mode                              : zlib
  175. Codec ID                                 : S_HDMV/PGS
  176. Codec ID/Info                            : Picture based subtitle format used on BDs/HD-DVDs
  177. Duration                                 : 1 h 25 min
  178. Bit rate                                 : 28.7 kb/s
  179. Count of elements                        : 1958
  180. Stream size                              : 17.6 MiB (0%)
  181. Title                                    : Danish-PGS
  182. Language                                 : Danish
  183. Default                                  : No
  184. Forced                                   : No
  185. Text #8
  186. ID                                       : 12
  187. Format                                   : PGS
  188. Muxing mode                              : zlib
  189. Codec ID                                 : S_HDMV/PGS
  190. Codec ID/Info                            : Picture based subtitle format used on BDs/HD-DVDs
  191. Duration                                 : 1 h 25 min
  192. Bit rate                                 : 30.7 kb/s
  193. Count of elements                        : 1934
  194. Stream size                              : 18.8 MiB (0%)
  195. Title                                    : Dutch-PGS
  196. Language                                 : Dutch
  197. Default                                  : No
  198. Forced                                   : No
  199. Text #9
  200. ID                                       : 13
  201. Format                                   : PGS
  202. Muxing mode                              : zlib
  203. Codec ID                                 : S_HDMV/PGS
  204. Codec ID/Info                            : Picture based subtitle format used on BDs/HD-DVDs
  205. Duration                                 : 1 h 25 min
  206. Bit rate                                 : 26.9 kb/s
  207. Count of elements                        : 1878
  208. Stream size                              : 16.4 MiB (0%)
  209. Title                                    : Finnish-PGS
  210. Language                                 : Finnish
  211. Default                                  : No
  212. Forced                                   : No
  213. Text #10
  214. ID                                       : 14
  215. Format                                   : PGS
  216. Muxing mode                              : zlib
  217. Codec ID                                 : S_HDMV/PGS
  218. Codec ID/Info                            : Picture based subtitle format used on BDs/HD-DVDs
  219. Duration                                 : 1 h 31 min
  220. Bit rate                                 : 28.4 kb/s
  221. Count of elements                        : 1974
  222. Stream size                              : 18.6 MiB (0%)
  223. Title                                    : French-PGS
  224. Language                                 : French
  225. Default                                  : No
  226. Forced                                   : No
  227. Text #11
  228. ID                                       : 15
  229. Format                                   : PGS
  230. Muxing mode                              : zlib
  231. Codec ID                                 : S_HDMV/PGS
  232. Codec ID/Info                            : Picture based subtitle format used on BDs/HD-DVDs
  233. Duration                                 : 1 h 27 min
  234. Bit rate                                 : 35.3 kb/s
  235. Count of elements                        : 2394
  236. Stream size                              : 22.2 MiB (0%)
  237. Title                                    : German-PGS
  238. Language                                 : German
  239. Default                                  : No
  240. Forced                                   : No
  241. Text #12
  242. ID                                       : 16
  243. Format                                   : PGS
  244. Muxing mode                              : zlib
  245. Codec ID                                 : S_HDMV/PGS
  246. Codec ID/Info                            : Picture based subtitle format used on BDs/HD-DVDs
  247. Duration                                 : 1 h 31 min
  248. Bit rate                                 : 26.3 kb/s
  249. Count of elements                        : 1912
  250. Stream size                              : 17.2 MiB (0%)
  251. Title                                    : Italian-PGS
  252. Language                                 : Italian
  253. Default                                  : No
  254. Forced                                   : No
  255. Text #13
  256. ID                                       : 17
  257. Format                                   : PGS
  258. Muxing mode                              : zlib
  259. Codec ID                                 : S_HDMV/PGS
  260. Codec ID/Info                            : Picture based subtitle format used on BDs/HD-DVDs
  261. Duration                                 : 1 h 25 min
  262. Bit rate                                 : 26.9 kb/s
  263. Count of elements                        : 2227
  264. Stream size                              : 16.5 MiB (0%)
  265. Title                                    : Japanese-PGS
  266. Language                                 : Japanese
  267. Default                                  : No
  268. Forced                                   : No
  269. Text #14
  270. ID                                       : 18
  271. Format                                   : PGS
  272. Muxing mode                              : zlib
  273. Codec ID                                 : S_HDMV/PGS
  274. Codec ID/Info                            : Picture based subtitle format used on BDs/HD-DVDs
  275. Duration                                 : 1 h 27 min
  276. Bit rate                                 : 25.7 kb/s
  277. Count of elements                        : 2032
  278. Stream size                              : 16.1 MiB (0%)
  279. Title                                    : Korean-PGS
  280. Language                                 : Korean
  281. Default                                  : No
  282. Forced                                   : No
  283. Text #15
  284. ID                                       : 19
  285. Format                                   : PGS
  286. Muxing mode                              : zlib
  287. Codec ID                                 : S_HDMV/PGS
  288. Codec ID/Info                            : Picture based subtitle format used on BDs/HD-DVDs
  289. Duration                                 : 1 h 25 min
  290. Bit rate                                 : 28.3 kb/s
  291. Count of elements                        : 1988
  292. Stream size                              : 17.3 MiB (0%)
  293. Title                                    : Norwegian-PGS
  294. Language                                 : Norwegian
  295. Default                                  : No
  296. Forced                                   : No
  297. Text #16
  298. ID                                       : 20
  299. Format                                   : PGS
  300. Muxing mode                              : zlib
  301. Codec ID                                 : S_HDMV/PGS
  302. Codec ID/Info                            : Picture based subtitle format used on BDs/HD-DVDs
  303. Duration                                 : 1 h 31 min
  304. Bit rate                                 : 29.1 kb/s
  305. Count of elements                        : 2002
  306. Stream size                              : 19.0 MiB (0%)
  307. Title                                    : Portuguese-PGS
  308. Language                                 : Portuguese
  309. Default                                  : No
  310. Forced                                   : No
  311. Text #17
  312. ID                                       : 21
  313. Format                                   : PGS
  314. Muxing mode                              : zlib
  315. Codec ID                                 : S_HDMV/PGS
  316. Codec ID/Info                            : Picture based subtitle format used on BDs/HD-DVDs
  317. Duration                                 : 1 h 31 min
  318. Bit rate                                 : 24.8 kb/s
  319. Count of elements                        : 1934
  320. Stream size                              : 16.2 MiB (0%)
  321. Title                                    : Portuguese-PGS
  322. Language                                 : Portuguese
  323. Default                                  : No
  324. Forced                                   : No
  325. Text #18
  326. ID                                       : 22
  327. Format                                   : PGS
  328. Muxing mode                              : zlib
  329. Codec ID                                 : S_HDMV/PGS
  330. Codec ID/Info                            : Picture based subtitle format used on BDs/HD-DVDs
  331. Duration                                 : 1 h 27 min
  332. Bit rate                                 : 31.0 kb/s
  333. Count of elements                        : 1986
  334. Stream size                              : 19.5 MiB (0%)
  335. Title                                    : Spanish-PGS
  336. Language                                 : Spanish
  337. Default                                  : No
  338. Forced                                   : No
  339. Text #19
  340. ID                                       : 23
  341. Format                                   : PGS
  342. Muxing mode                              : zlib
  343. Codec ID                                 : S_HDMV/PGS
  344. Codec ID/Info                            : Picture based subtitle format used on BDs/HD-DVDs
  345. Duration                                 : 1 h 31 min
  346. Bit rate                                 : 29.6 kb/s
  347. Count of elements                        : 2020
  348. Stream size                              : 19.4 MiB (0%)
  349. Title                                    : Spanish-PGS
  350. Language                                 : Spanish
  351. Default                                  : No
  352. Forced                                   : No
  353. Text #20
  354. ID                                       : 24
  355. Format                                   : PGS
  356. Muxing mode                              : zlib
  357. Codec ID                                 : S_HDMV/PGS
  358. Codec ID/Info                            : Picture based subtitle format used on BDs/HD-DVDs
  359. Duration                                 : 1 h 25 min
  360. Bit rate                                 : 26.1 kb/s
  361. Count of elements                        : 1918
  362. Stream size                              : 16.0 MiB (0%)
  363. Title                                    : Swedish-PGS
  364. Language                                 : Swedish
  365. Default                                  : No
  366. Forced                                   : No
  367. Text #21
  368. ID                                       : 25
  369. Format                                   : PGS
  370. Muxing mode                              : zlib
  371. Codec ID                                 : S_HDMV/PGS
  372. Codec ID/Info                            : Picture based subtitle format used on BDs/HD-DVDs
  373. Duration                                 : 1 h 25 min
  374. Bit rate                                 : 32.6 kb/s
  375. Count of elements                        : 2022
  376. Stream size                              : 19.9 MiB (0%)
  377. Title                                    : Thai-PGS
  378. Language                                 : Thai
  379. Default                                  : No
  380. Forced                                   : No
  381. Menu
  382. 00:00:00.000                             : en:Overhead Credits
  383. 00:02:38.241                             : en:The Perfect Vacation
  384. 00:05:43.593                             : en:A Wrong Turn
  385. 00:08:11.324                             : en:Recently Deceased
  386. 00:10:55.697                             : en:Perusing The Obits
  387. 00:13:18.506                             : en:Enter The Deetzes
  388. 00:16:07.383                             : en:Ghostly Gambits
  389. 00:19:34.924                             : en:Wormlike Wildlife
  390. 00:22:10.704                             : en:Moving Day
  391. 00:24:52.700                             : en:The Power Of Advertising
  392. 00:26:45.896                             : en:The Afterlife
  393. 00:31:42.317                             : en:Interview With Juno
  394. 00:37:26.494                             : en:Help Me!
  395. 00:38:24.427                             : en:Unspookable
  396. 00:43:54.590                             : en:Beetlejuice
  397. 00:50:45.167                             : en:The Dinner Party (Day-O)
  398. 00:55:01.590                             : en:No-Shows
  399. 00:58:53.363                             : en:Turn On The Juice
  400. 01:01:01.658                             : en:"Make My Millenium"
  401. 01:02:42.592                             : en:Never Trust The Living
  402. 01:04:03.298                             : en:Funny Faces
  403. 01:07:15.949                             : en:Lydia Meets Beetlejuice
  404. 01:11:37.627                             : en:Ortho\'s Seance
  405. 01:17:12.211                             : en:"It\'s Showtime"
  406. 01:19:25.761                             : en:Marriage Of Inconvenience
  407. 01:24:49.876                             : en:High Marks
  408. 01:27:03.468                             : en:Lightheaded
  409. 01:28:20.629                             : en:End Credits
复制代码




                                       
                                       

                                       
                                       
                                       




回复

使用道具 举报

懒得打字嘛,点击右侧快捷回复 【右侧内容,后台自定义】
您需要登录后才可以回帖 登录 | 立即加入

本版积分规则

Archiver|小黑屋| 蓝光电影网 |网站地图

Copyright © 2021 Comsenz Inc. Powered by 蓝光电影网

蓝光电影网

本站内容由用户自主分享和转载自互联网,转载目的在于传递更多信息,并不代表本网赞同其观点和对其真实性负责。

如有侵权、违反国家法律政策行为,请联系我们,我们会第一时间及时清除和处理!

举报反馈邮箱:[email protected]

快速回复 返回顶部 返回列表