找回密码

蓝光电影网

查看: 81|回复: 0

[2160p] 大侦探福尔摩斯/神探福尔摩斯 Sherlock.Holmes.2009.2160p.BluRay.x264.8bit.SDR.DTS-HD.MA.5.1-SWTYBLZ 39.46GB

[复制链接]
蓝光币
1080
发表于 2020-9-1 09:45:22 | 显示全部楼层 |阅读模式


◎译  名 大侦察福尔摩斯/神探福尔摩斯(港)/福尔摩斯(台)/福尔摩斯和华生
◎片  名 Sherlock Holmes
◎年  代 2009
◎产  地 美国,德国
◎类  别 行动 / 悬疑 / 犯罪
◎语  言 英语,法语
◎上映日期 2009-12-25(美国) / 2010-02-25(中国大陆)
◎IMDb评分  7.6/10 from 573895 users
◎IMDb链接  https://www.imdb.com/title/tt0988045/
◎豆瓣评分 7.6/10 from 264556 users
◎豆瓣链接 https://movie.douban.com/subject/2998270/
◎片  长 128分钟
◎导  演 盖·里奇 Guy Ritchie
◎编  剧 迈克尔·罗伯特·约翰逊 Michael Robert Johnson / 安东尼·佩卡姆 Anthony Peckham / 西蒙·金伯格 Simon Kinberg / 莱昂内尔·威格拉姆 Lionel Wigram
◎主  演 小罗伯特·唐尼 Robert Downey Jr.
       裘德·洛 Jude Law
       瑞秋·麦克亚当斯 Rachel McAdams
       马克·斯特朗 Mark Strong
       凯利·蕾莉 Kelly Reilly
       威廉·霍普 William Hope
       克里夫·罗素 Clive Russell
       James A. Stephens
       杰佛逊·豪尔 Jefferson Hall
       詹姆斯·福克斯 James Fox
       威廉·休斯顿 William Houston
       彼得·迈尔斯 Peter Miles
       埃迪·马森 Eddie Marsan
       布罗娜·加拉赫 Bronagh Gallagher
       汉斯·麦瑟逊 Hans Matheson
       罗伯特·梅耶 Robert Maillet
       杰拉丁妮·詹姆斯 Geraldine James
◎标  签 推理 | 悬疑 | 美国 | 行动 | 犯罪 | 黑色诙谐 | 2009 | 笑剧
◎简  介


  大侦察福尔摩斯(小罗伯特·唐尼 Robert Downer Jr. 饰)即使在置人于死地之时也异常的逻辑清楚,但是办案时杂乱无章的他在私底下的生活中简直就是个“怪胎”,最少在他的助手华生医生(裘德·洛 Jude Law饰)眼中他是这样一小我。他们亲手清闲法外的“黑暗巫师”布莱克大人(马克·斯特朗 Mark Strong 饰)在临死前说灭亡即是起头,随后艾琳·艾德勒(瑞秋·麦克亚当斯 Rachel McAdams 饰)出现在他的身旁要他帮手找个失落的人,而她身旁有个影子般可怕人物。坊间传闻黑暗巫师已经新生,他的墓地遭到破坏,而躺在棺材里的人还有其人。又到了大侦察福尔摩斯出马的时辰了,但是观察进程从一路头就险象环生,助手华生医生在观察中更是几乎丧命,福尔摩斯也堕入连串的迷团当中。
  
  本片按照著名同名漫画改编,作者莱昂纳尔·威格拉姆(Lionel Wigram)。2010年第82届奥斯卡最好艺术指导、最好配乐2项提名、第67届金球奖音乐/笑剧类最好男配角Robert Downey Jr.
◎获奖情况
  第82届奥斯卡金像奖 ?(2010)
  最好艺术指导(提名) 莎拉·格林伍德?/?凯蒂·斯宾塞
  最好原创配乐(提名) 汉斯·季默
  
  第67届金球奖 ?(2010)
  电影类音乐/笑剧片最好男配角 小罗伯特·唐尼
  
  第19届MTV电影奖 ?(2010)
  MTV电影奖最好打架(提名) 小罗伯特·唐尼?/?马克·斯特朗
  
  第12届美国青少年挑选奖 ?(2010)
  最好行动冒险电影
  最好行动冒险电影男演员(提名) 小罗伯特·唐尼
  最好行动冒险电影女演员 瑞秋·麦克亚当斯
  1. Video
  2. ID                                       : 1
  3. Format                                   : AVC
  4. Format/Info                              : Advanced Video Codec
  5. Format profile                           : [email protected]
  6. Format settings                          : CABAC / 5 Ref Frames
  7. Format settings, CABAC                   : Yes
  8. Format settings, Reference frames        : 5 frames
  9. Codec ID                                 : V_MPEG4/ISO/AVC
  10. Duration                                 : 2 h 8 min
  11. Bit rate                                 : 38.8 Mb/s
  12. Width                                    : 3 840 pixels
  13. Height                                   : 2 160 pixels
  14. Display aspect ratio                     : 16:9
  15. Frame rate mode                          : Constant
  16. Frame rate                               : 23.976 (24000/1001/189150) FPS
  17. Color space                              : YUV
  18. Chroma subsampling                       : 4:2:0
  19. Bit depth                                : 8 bits
  20. Scan type                                : Progressive
  21. Bits/(Pixel*Frame)                       : 0.195
  22. Stream size                              : 34.8 GiB (89%)
  23. Title                                    : Sherlock.Holmes.2009.2160p.BluRay.x264.8bit.SDR.DTS-HD.MA.5.1-SWTYBLZ
  24. Writing library                          : x264 core 157 r2935 545de2f
  25. Encoding settings                        : cabac=1 / ref=5 / deblock=1:-1:-1 / analyse=0x3:0x113 / me=umh / subme=10 / psy=1 / psy_rd=1.00:0.15 / mixed_ref=1 / me_range=48 / chroma_me=1 / trellis=2 / 8x8dct=1 / cqm=0 / deadzone=21,11 / fast_pskip=1 / chroma_qp_offset=-3 / threads=48 / lookahead_threads=4 / sliced_threads=0 / nr=0 / decimate=0 / interlaced=0 / bluray_compat=0 / constrained_intra=0 / bframes=3 / b_pyramid=2 / b_adapt=2 / b_bias=0 / direct=3 / weightb=1 / open_gop=0 / weightp=2 / keyint=250 / keyint_min=23 / scenecut=40 / intra_refresh=0 / rc_lookahead=50 / rc=crf / mbtree=1 / crf=18.0 / qcomp=0.60 / qpmin=0 / qpmax=69 / qpstep=4 / ip_ratio=1.40 / aq=1:1.00
  26. Default                                  : Yes
  27. Forced                                   : No
  28. Audio #1
  29. ID                                       : 2
  30. Format                                   : DTS XLL
  31. Format/Info                              : Digital Theater Systems
  32. Commercial name                          : DTS-HD Master Audio
  33. Codec ID                                 : A_DTS
  34. Duration                                 : 2 h 8 min
  35. Bit rate mode                            : Variable
  36. Bit rate                                 : 3 979 kb/s
  37. Channel(s)                               : 6 channels
  38. Channel layout                           : C L R Ls Rs LFE
  39. Sampling rate                            : 48.0 kHz
  40. Frame rate                               : 93.750 FPS (512 SPF)
  41. Bit depth                                : 24 bits
  42. Compression mode                         : Lossless
  43. Stream size                              : 3.57 GiB (9%)
  44. Title                                    : Sherlock.Holmes.2009.2160p.BluRay.x264.8bit.SDR.DTS-HD.MA.5.1-SWTYBLZ
  45. Language                                 : English
  46. Default                                  : Yes
  47. Forced                                   : No
  48. Audio #2
  49. ID                                       : 3
  50. Format                                   : AC-3
  51. Format/Info                              : Audio Coding 3
  52. Commercial name                          : Dolby Digital
  53. Codec ID                                 : A_AC3
  54. Duration                                 : 2 h 8 min
  55. Bit rate mode                            : Constant
  56. Bit rate                                 : 640 kb/s
  57. Channel(s)                               : 6 channels
  58. Channel layout                           : L R C LFE Ls Rs
  59. Sampling rate                            : 48.0 kHz
  60. Frame rate                               : 31.250 FPS (1536 SPF)
  61. Compression mode                         : Lossy
  62. Stream size                              : 588 MiB (1%)
  63. Title                                    : Sherlock.Holmes.2009.2160p.BluRay.x264.8bit.SDR.DTS-HD.MA.5.1-SWTYBLZ
  64. Language                                 : English
  65. Service kind                             : Complete Main
  66. Default                                  : No
  67. Forced                                   : No
  68. Text #1
  69. ID                                       : 4
  70. Format                                   : UTF-8
  71. Codec ID                                 : S_TEXT/UTF8
  72. Codec ID/Info                            : UTF-8 Plain Text
  73. Duration                                 : 1 h 58 min
  74. Bit rate                                 : 57 b/s
  75. Count of elements                        : 1499
  76. Stream size                              : 50.1 KiB (0%)
  77. Title                                    : English-SRT
  78. Language                                 : English
  79. Default                                  : Yes
  80. Forced                                   : No
  81. Text #2
  82. ID                                       : 5
  83. Format                                   : PGS
  84. Muxing mode                              : zlib
  85. Codec ID                                 : S_HDMV/PGS
  86. Codec ID/Info                            : Picture based subtitle format used on BDs/HD-DVDs
  87. Duration                                 : 2 h 0 min
  88. Bit rate                                 : 32.8 kb/s
  89. Count of elements                        : 3016
  90. Stream size                              : 28.2 MiB (0%)
  91. Title                                    : English-PGS
  92. Language                                 : English
  93. Default                                  : No
  94. Forced                                   : No
  95. Text #3
  96. ID                                       : 6
  97. Format                                   : PGS
  98. Muxing mode                              : zlib
  99. Codec ID                                 : S_HDMV/PGS
  100. Codec ID/Info                            : Picture based subtitle format used on BDs/HD-DVDs
  101. Duration                                 : 2 h 6 min
  102. Bit rate                                 : 16.0 kb/s
  103. Count of elements                        : 2884
  104. Stream size                              : 14.5 MiB (0%)
  105. Title                                    : Arabic-PGS
  106. Language                                 : Arabic
  107. Default                                  : No
  108. Forced                                   : No
  109. Text #4
  110. ID                                       : 7
  111. Format                                   : PGS
  112. Muxing mode                              : zlib
  113. Codec ID                                 : S_HDMV/PGS
  114. Codec ID/Info                            : Picture based subtitle format used on BDs/HD-DVDs
  115. Duration                                 : 2 h 8 min
  116. Bit rate                                 : 28.0 kb/s
  117. Count of elements                        : 2820
  118. Stream size                              : 25.7 MiB (0%)
  119. Title                                    : Bulgarian-PGS
  120. Language                                 : Bulgarian
  121. Default                                  : No
  122. Forced                                   : No
  123. Text #5
  124. ID                                       : 8
  125. Format                                   : PGS
  126. Muxing mode                              : zlib
  127. Codec ID                                 : S_HDMV/PGS
  128. Codec ID/Info                            : Picture based subtitle format used on BDs/HD-DVDs
  129. Duration                                 : 2 h 6 min
  130. Bit rate                                 : 21.5 kb/s
  131. Count of elements                        : 2860
  132. Stream size                              : 19.5 MiB (0%)
  133. Title                                    : Chinese-PGS
  134. Language                                 : Chinese
  135. Default                                  : No
  136. Forced                                   : No
  137. Text #6
  138. ID                                       : 9
  139. Format                                   : PGS
  140. Muxing mode                              : zlib
  141. Codec ID                                 : S_HDMV/PGS
  142. Codec ID/Info                            : Picture based subtitle format used on BDs/HD-DVDs
  143. Duration                                 : 1 h 58 min
  144. Bit rate                                 : 25.1 kb/s
  145. Count of elements                        : 2912
  146. Stream size                              : 21.3 MiB (0%)
  147. Title                                    : Chinese-PGS
  148. Language                                 : Chinese
  149. Default                                  : No
  150. Forced                                   : No
  151. Text #7
  152. ID                                       : 10
  153. Format                                   : PGS
  154. Muxing mode                              : zlib
  155. Codec ID                                 : S_HDMV/PGS
  156. Codec ID/Info                            : Picture based subtitle format used on BDs/HD-DVDs
  157. Duration                                 : 2 h 6 min
  158. Bit rate                                 : 25.0 kb/s
  159. Count of elements                        : 2892
  160. Stream size                              : 22.6 MiB (0%)
  161. Title                                    : Chinese-PGS
  162. Language                                 : Chinese
  163. Default                                  : No
  164. Forced                                   : No
  165. Text #8
  166. ID                                       : 11
  167. Format                                   : PGS
  168. Muxing mode                              : zlib
  169. Codec ID                                 : S_HDMV/PGS
  170. Codec ID/Info                            : Picture based subtitle format used on BDs/HD-DVDs
  171. Duration                                 : 2 h 8 min
  172. Bit rate                                 : 25.4 kb/s
  173. Count of elements                        : 2832
  174. Stream size                              : 23.4 MiB (0%)
  175. Title                                    : Croatian-PGS
  176. Language                                 : Croatian
  177. Default                                  : No
  178. Forced                                   : No
  179. Text #9
  180. ID                                       : 12
  181. Format                                   : PGS
  182. Muxing mode                              : zlib
  183. Codec ID                                 : S_HDMV/PGS
  184. Codec ID/Info                            : Picture based subtitle format used on BDs/HD-DVDs
  185. Duration                                 : 2 h 6 min
  186. Bit rate                                 : 25.1 kb/s
  187. Count of elements                        : 2834
  188. Stream size                              : 22.8 MiB (0%)
  189. Title                                    : Czech-PGS
  190. Language                                 : Czech
  191. Default                                  : No
  192. Forced                                   : No
  193. Text #10
  194. ID                                       : 13
  195. Format                                   : PGS
  196. Muxing mode                              : zlib
  197. Codec ID                                 : S_HDMV/PGS
  198. Codec ID/Info                            : Picture based subtitle format used on BDs/HD-DVDs
  199. Duration                                 : 2 h 6 min
  200. Bit rate                                 : 26.6 kb/s
  201. Count of elements                        : 2592
  202. Stream size                              : 24.1 MiB (0%)
  203. Title                                    : Danish-PGS
  204. Language                                 : Danish
  205. Default                                  : No
  206. Forced                                   : No
  207. Text #11
  208. ID                                       : 14
  209. Format                                   : PGS
  210. Muxing mode                              : zlib
  211. Codec ID                                 : S_HDMV/PGS
  212. Codec ID/Info                            : Picture based subtitle format used on BDs/HD-DVDs
  213. Duration                                 : 1 h 59 min
  214. Bit rate                                 : 25.5 kb/s
  215. Count of elements                        : 2232
  216. Stream size                              : 21.8 MiB (0%)
  217. Title                                    : Dutch-PGS
  218. Language                                 : Dutch
  219. Default                                  : No
  220. Forced                                   : No
  221. Text #12
  222. ID                                       : 15
  223. Format                                   : PGS
  224. Muxing mode                              : zlib
  225. Codec ID                                 : S_HDMV/PGS
  226. Codec ID/Info                            : Picture based subtitle format used on BDs/HD-DVDs
  227. Duration                                 : 2 h 8 min
  228. Bit rate                                 : 25.4 kb/s
  229. Count of elements                        : 2860
  230. Stream size                              : 23.4 MiB (0%)
  231. Title                                    : Estonian-PGS
  232. Language                                 : Estonian
  233. Default                                  : No
  234. Forced                                   : No
  235. Text #13
  236. ID                                       : 16
  237. Format                                   : PGS
  238. Muxing mode                              : zlib
  239. Codec ID                                 : S_HDMV/PGS
  240. Codec ID/Info                            : Picture based subtitle format used on BDs/HD-DVDs
  241. Duration                                 : 2 h 6 min
  242. Bit rate                                 : 28.5 kb/s
  243. Count of elements                        : 2664
  244. Stream size                              : 25.8 MiB (0%)
  245. Title                                    : Finnish-PGS
  246. Language                                 : Finnish
  247. Default                                  : No
  248. Forced                                   : No
  249. Text #14
  250. ID                                       : 17
  251. Format                                   : PGS
  252. Muxing mode                              : zlib
  253. Codec ID                                 : S_HDMV/PGS
  254. Codec ID/Info                            : Picture based subtitle format used on BDs/HD-DVDs
  255. Duration                                 : 2 h 6 min
  256. Bit rate                                 : 23.5 kb/s
  257. Count of elements                        : 2980
  258. Stream size                              : 21.3 MiB (0%)
  259. Title                                    : French-PGS
  260. Language                                 : French
  261. Default                                  : No
  262. Forced                                   : No
  263. Text #15
  264. ID                                       : 18
  265. Format                                   : PGS
  266. Muxing mode                              : zlib
  267. Codec ID                                 : S_HDMV/PGS
  268. Codec ID/Info                            : Picture based subtitle format used on BDs/HD-DVDs
  269. Duration                                 : 2 h 8 min
  270. Bit rate                                 : 30.3 kb/s
  271. Count of elements                        : 2882
  272. Stream size                              : 27.8 MiB (0%)
  273. Title                                    : German-PGS
  274. Language                                 : German
  275. Default                                  : No
  276. Forced                                   : No
  277. Text #16
  278. ID                                       : 19
  279. Format                                   : PGS
  280. Muxing mode                              : zlib
  281. Codec ID                                 : S_HDMV/PGS
  282. Codec ID/Info                            : Picture based subtitle format used on BDs/HD-DVDs
  283. Duration                                 : 2 h 8 min
  284. Bit rate                                 : 21.5 kb/s
  285. Count of elements                        : 2894
  286. Stream size                              : 19.8 MiB (0%)
  287. Title                                    : Hebrew-PGS
  288. Language                                 : Hebrew
  289. Default                                  : No
  290. Forced                                   : No
  291. Text #17
  292. ID                                       : 20
  293. Format                                   : PGS
  294. Muxing mode                              : zlib
  295. Codec ID                                 : S_HDMV/PGS
  296. Codec ID/Info                            : Picture based subtitle format used on BDs/HD-DVDs
  297. Duration                                 : 2 h 6 min
  298. Bit rate                                 : 24.2 kb/s
  299. Count of elements                        : 2688
  300. Stream size                              : 22.0 MiB (0%)
  301. Title                                    : Hungarian-PGS
  302. Language                                 : Hungarian
  303. Default                                  : No
  304. Forced                                   : No
  305. Text #18
  306. ID                                       : 21
  307. Format                                   : PGS
  308. Muxing mode                              : zlib
  309. Codec ID                                 : S_HDMV/PGS
  310. Codec ID/Info                            : Picture based subtitle format used on BDs/HD-DVDs
  311. Duration                                 : 2 h 8 min
  312. Bit rate                                 : 23.6 kb/s
  313. Count of elements                        : 2872
  314. Stream size                              : 21.7 MiB (0%)
  315. Title                                    : Icelandic-pgs
  316. Language                                 : Icelandic
  317. Default                                  : No
  318. Forced                                   : No
  319. Text #19
  320. ID                                       : 22
  321. Format                                   : PGS
  322. Muxing mode                              : zlib
  323. Codec ID                                 : S_HDMV/PGS
  324. Codec ID/Info                            : Picture based subtitle format used on BDs/HD-DVDs
  325. Duration                                 : 2 h 8 min
  326. Bit rate                                 : 25.2 kb/s
  327. Count of elements                        : 2546
  328. Stream size                              : 23.1 MiB (0%)
  329. Title                                    : Italian-PGS
  330. Language                                 : Italian
  331. Default                                  : No
  332. Forced                                   : No
  333. Text #20
  334. ID                                       : 23
  335. Format                                   : PGS
  336. Muxing mode                              : zlib
  337. Codec ID                                 : S_HDMV/PGS
  338. Codec ID/Info                            : Picture based subtitle format used on BDs/HD-DVDs
  339. Duration                                 : 1 h 59 min
  340. Bit rate                                 : 21.7 kb/s
  341. Count of elements                        : 2789
  342. Stream size                              : 18.5 MiB (0%)
  343. Title                                    : Japanese-PGS
  344. Language                                 : Japanese
  345. Default                                  : No
  346. Forced                                   : No
  347. Text #21
  348. ID                                       : 24
  349. Format                                   : PGS
  350. Muxing mode                              : zlib
  351. Codec ID                                 : S_HDMV/PGS
  352. Codec ID/Info                            : Picture based subtitle format used on BDs/HD-DVDs
  353. Duration                                 : 2 h 6 min
  354. Bit rate                                 : 17.4 kb/s
  355. Count of elements                        : 2810
  356. Stream size                              : 15.7 MiB (0%)
  357. Title                                    : Korean-PGS
  358. Language                                 : Korean
  359. Default                                  : No
  360. Forced                                   : No
  361. Text #22
  362. ID                                       : 25
  363. Format                                   : PGS
  364. Muxing mode                              : zlib
  365. Codec ID                                 : S_HDMV/PGS
  366. Codec ID/Info                            : Picture based subtitle format used on BDs/HD-DVDs
  367. Duration                                 : 2 h 8 min
  368. Bit rate                                 : 23.6 kb/s
  369. Count of elements                        : 2872
  370. Stream size                              : 21.7 MiB (0%)
  371. Title                                    : Latvian-PGS
  372. Language                                 : Latvian
  373. Default                                  : No
  374. Forced                                   : No
  375. Text #23
  376. ID                                       : 26
  377. Format                                   : PGS
  378. Muxing mode                              : zlib
  379. Codec ID                                 : S_HDMV/PGS
  380. Codec ID/Info                            : Picture based subtitle format used on BDs/HD-DVDs
  381. Duration                                 : 2 h 8 min
  382. Bit rate                                 : 28.7 kb/s
  383. Count of elements                        : 2944
  384. Stream size                              : 26.4 MiB (0%)
  385. Title                                    : Lithuanian-PGS
  386. Language                                 : Lithuanian
  387. Default                                  : No
  388. Forced                                   : No
  389. Text #24
  390. ID                                       : 27
  391. Format                                   : PGS
  392. Muxing mode                              : zlib
  393. Codec ID                                 : S_HDMV/PGS
  394. Codec ID/Info                            : Picture based subtitle format used on BDs/HD-DVDs
  395. Duration                                 : 1 h 59 min
  396. Bit rate                                 : 28.3 kb/s
  397. Count of elements                        : 2854
  398. Stream size                              : 24.1 MiB (0%)
  399. Title                                    : Norwegian-PGS
  400. Language                                 : Norwegian
  401. Default                                  : No
  402. Forced                                   : No
  403. Text #25
  404. ID                                       : 28
  405. Format                                   : PGS
  406. Muxing mode                              : zlib
  407. Codec ID                                 : S_HDMV/PGS
  408. Codec ID/Info                            : Picture based subtitle format used on BDs/HD-DVDs
  409. Duration                                 : 1 h 58 min
  410. Bit rate                                 : 25.8 kb/s
  411. Count of elements                        : 2166
  412. Stream size                              : 21.9 MiB (0%)
  413. Title                                    : Polish-PGS
  414. Language                                 : Polish
  415. Default                                  : No
  416. Forced                                   : No
  417. Text #26
  418. ID                                       : 29
  419. Format                                   : PGS
  420. Muxing mode                              : zlib
  421. Codec ID                                 : S_HDMV/PGS
  422. Codec ID/Info                            : Picture based subtitle format used on BDs/HD-DVDs
  423. Duration                                 : 2 h 8 min
  424. Bit rate                                 : 28.6 kb/s
  425. Count of elements                        : 2850
  426. Stream size                              : 26.3 MiB (0%)
  427. Title                                    : Portuguese-PGS
  428. Language                                 : Portuguese
  429. Default                                  : No
  430. Forced                                   : No
  431. Text #27
  432. ID                                       : 30
  433. Format                                   : PGS
  434. Muxing mode                              : zlib
  435. Codec ID                                 : S_HDMV/PGS
  436. Codec ID/Info                            : Picture based subtitle format used on BDs/HD-DVDs
  437. Duration                                 : 2 h 8 min
  438. Bit rate                                 : 31.0 kb/s
  439. Count of elements                        : 2758
  440. Stream size                              : 28.5 MiB (0%)
  441. Title                                    : Portuguese-PGS
  442. Language                                 : Portuguese
  443. Default                                  : No
  444. Forced                                   : No
  445. Text #28
  446. ID                                       : 31
  447. Format                                   : PGS
  448. Muxing mode                              : zlib
  449. Codec ID                                 : S_HDMV/PGS
  450. Codec ID/Info                            : Picture based subtitle format used on BDs/HD-DVDs
  451. Duration                                 : 2 h 6 min
  452. Bit rate                                 : 29.7 kb/s
  453. Count of elements                        : 2900
  454. Stream size                              : 26.9 MiB (0%)
  455. Title                                    : Romanian-PGS
  456. Language                                 : Romanian
  457. Default                                  : No
  458. Forced                                   : No
  459. Text #29
  460. ID                                       : 32
  461. Format                                   : PGS
  462. Muxing mode                              : zlib
  463. Codec ID                                 : S_HDMV/PGS
  464. Codec ID/Info                            : Picture based subtitle format used on BDs/HD-DVDs
  465. Duration                                 : 2 h 8 min
  466. Bit rate                                 : 28.7 kb/s
  467. Count of elements                        : 2898
  468. Stream size                              : 26.3 MiB (0%)
  469. Title                                    : Russian-PGS
  470. Language                                 : Russian
  471. Default                                  : No
  472. Forced                                   : No
  473. Text #30
  474. ID                                       : 33
  475. Format                                   : PGS
  476. Muxing mode                              : zlib
  477. Codec ID                                 : S_HDMV/PGS
  478. Codec ID/Info                            : Picture based subtitle format used on BDs/HD-DVDs
  479. Duration                                 : 2 h 8 min
  480. Bit rate                                 : 25.9 kb/s
  481. Count of elements                        : 2808
  482. Stream size                              : 23.8 MiB (0%)
  483. Title                                    : Serbian-PGS
  484. Language                                 : Serbian
  485. Default                                  : No
  486. Forced                                   : No
  487. Text #31
  488. ID                                       : 34
  489. Format                                   : PGS
  490. Muxing mode                              : zlib
  491. Codec ID                                 : S_HDMV/PGS
  492. Codec ID/Info                            : Picture based subtitle format used on BDs/HD-DVDs
  493. Duration                                 : 2 h 8 min
  494. Bit rate                                 : 22.9 kb/s
  495. Count of elements                        : 2778
  496. Stream size                              : 21.0 MiB (0%)
  497. Title                                    : Slovenian-PGS
  498. Language                                 : Slovenian
  499. Default                                  : No
  500. Forced                                   : No
  501. Text #32
  502. ID                                       : 35
  503. Format                                   : PGS
  504. Muxing mode                              : zlib
  505. Codec ID                                 : S_HDMV/PGS
  506. Codec ID/Info                            : Picture based subtitle format used on BDs/HD-DVDs
  507. Duration                                 : 1 h 59 min
  508. Bit rate                                 : 30.1 kb/s
  509. Count of elements                        : 2844
  510. Stream size                              : 25.7 MiB (0%)
  511. Title                                    : Spanish-PGS
  512. Language                                 : Spanish
  513. Default                                  : No
  514. Forced                                   : No
  515. Text #33
  516. ID                                       : 36
  517. Format                                   : PGS
  518. Muxing mode                              : zlib
  519. Codec ID                                 : S_HDMV/PGS
  520. Codec ID/Info                            : Picture based subtitle format used on BDs/HD-DVDs
  521. Duration                                 : 2 h 6 min
  522. Bit rate                                 : 28.4 kb/s
  523. Count of elements                        : 2946
  524. Stream size                              : 25.7 MiB (0%)
  525. Title                                    : Spanish-PGS
  526. Language                                 : Spanish
  527. Default                                  : No
  528. Forced                                   : No
  529. Text #34
  530. ID                                       : 37
  531. Format                                   : PGS
  532. Muxing mode                              : zlib
  533. Codec ID                                 : S_HDMV/PGS
  534. Codec ID/Info                            : Picture based subtitle format used on BDs/HD-DVDs
  535. Duration                                 : 1 h 59 min
  536. Bit rate                                 : 30.6 kb/s
  537. Count of elements                        : 2762
  538. Stream size                              : 26.1 MiB (0%)
  539. Title                                    : Swedish-PGS
  540. Language                                 : Swedish
  541. Default                                  : No
  542. Forced                                   : No
  543. Text #35
  544. ID                                       : 38
  545. Format                                   : PGS
  546. Muxing mode                              : zlib
  547. Codec ID                                 : S_HDMV/PGS
  548. Codec ID/Info                            : Picture based subtitle format used on BDs/HD-DVDs
  549. Duration                                 : 2 h 6 min
  550. Bit rate                                 : 26.5 kb/s
  551. Count of elements                        : 2874
  552. Stream size                              : 24.0 MiB (0%)
  553. Title                                    : Thai-PGS
  554. Language                                 : Thai
  555. Default                                  : No
  556. Forced                                   : No
  557. Text #36
  558. ID                                       : 39
  559. Format                                   : PGS
  560. Muxing mode                              : zlib
  561. Codec ID                                 : S_HDMV/PGS
  562. Codec ID/Info                            : Picture based subtitle format used on BDs/HD-DVDs
  563. Duration                                 : 2 h 8 min
  564. Bit rate                                 : 28.8 kb/s
  565. Count of elements                        : 2860
  566. Stream size                              : 26.4 MiB (0%)
  567. Title                                    : Turkish-PGS
  568. Language                                 : Turkish
  569. Default                                  : No
  570. Forced                                   : No
  571. Menu
  572. 00:00:00.000                             : en:Catching A Killer
  573. 00:06:51.161                             : en:Case Of Stagnation
  574. 00:11:34.819                             : en:Telling About Mary
  575. 00:15:46.279                             : en:Blow By Blow
  576. 00:19:13.486                             : en:Last Request
  577. 00:23:33.662                             : en:Bound Together
  578. 00:27:54.464                             : en:Miss Adler For Hire
  579. 00:32:05.841                             : en:The Irene I Know
  580. 00:37:13.106                             : en:Resurrection
  581. 00:40:54.994                             : en:Apt Prediction
  582. 00:44:41.804                             : en:Sorcery And Science
  583. 00:47:44.278                             : en:Meat Or Potatoes?
  584. 00:50:56.762                             : en:Giving Up The Ship
  585. 00:55:22.194                             : en:Friends In High Places
  586. 00:59:09.045                             : en:Blackwood\'s Lineage
  587. 01:03:09.369                             : en:Mutual Danger
  588. 01:06:12.635                             : en:Dead And Bath
  589. 01:11:18.774                             : en:Remake The World
  590. 01:14:43.938                             : en:On Purpose
  591. 01:17:40.906                             : en:Lambs To Slaughter
  592. 01:23:39.681                             : en:Trap For Three
  593. 01:26:11.541                             : en:The Best You Can Do
  594. 01:31:01.748                             : en:Next Target
  595. 01:35:19.964                             : en:Smoking Out A Coward
  596. 01:39:50.568                             : en:Countdown To Noon
  597. 01:44:25.342                             : en:Bell And Death Tolls
  598. 01:48:26.542                             : en:Cutting A Conjurer Loose
  599. 01:54:07.299                             : en:My Weak Spot
  600. 01:56:12.090                             : en:Moriarty\'s Mark
  601. 02:00:30.807                             : en:End Credits
复制代码




                                       
                                       

                                       
                                       
                                       




回复

使用道具 举报

懒得打字嘛,点击右侧快捷回复 【右侧内容,后台自定义】
您需要登录后才可以回帖 登录 | 立即加入

本版积分规则

Archiver|小黑屋| 蓝光电影网 |网站地图

Copyright © 2021 Comsenz Inc. Powered by 蓝光电影网

蓝光电影网

本站内容由用户自主分享和转载自互联网,转载目的在于传递更多信息,并不代表本网赞同其观点和对其真实性负责。

如有侵权、违反国家法律政策行为,请联系我们,我们会第一时间及时清除和处理!

举报反馈邮箱:[email protected]

快速回复 返回顶部 返回列表