找回密码

蓝光电影网

查看: 169|回复: 0

[UHD.HEVC] 异形魔怪/从地心窜出 Tremors.1990.2160p.BluRay.REMUX.HEVC.DTS-HD.MA.5.1-FGT 65.52GB

[复制链接]
蓝光币
1082
发表于 2020-12-11 20:28:36 | 显示全部楼层 |阅读模式
[img][/img]

◎译  名 异形魔怪/从地心窜出/来自地底深处/深渊异形/震颤
◎片  名 Tremors
◎年  代 1990
◎产  地 美国
◎类  别 笑剧 / 可骇
◎语  言 英语
◎上映日期 1990-01-19(美国)
◎IMDb评分  7.1/10 from 119303 users
◎IMDb链接  https://www.imdb.com/title/tt0100814/
◎豆瓣评分 7.2/10 from 8995 users
◎豆瓣链接 https://movie.douban.com/subject/1292599/
◎片  长 96 分钟
◎导  演 罗恩·安德伍德 Ron Underwood
◎编  剧 布伦特·马多克 Brent Maddock / 罗恩·安德伍德 Ron Underwood / S·S·威尔逊 S.S. Wilson
◎主  演 凯文·贝肯 Kevin Bacon
       弗莱德·沃德 Fred Ward
       Finn Carter
       迈克尔·格罗斯 Michael Gross
       瑞芭·麦肯泰尔 Reba McEntire
       罗伯特·詹 Robert Jayne
       夏洛特·斯图尔特 Charlotte Stewart
       托尼·吉纳罗 Tony Genaro
       阿丽亚娜·理查兹 Ariana Richards
       黄自强 Victor Wong
       Sunshine Parker
       康拉德·巴赫曼 Conrad Bachmann
       比比·贝什 Bibi Besch
       汤姆·伍德鲁夫 Tom Woodruff Jr.
◎标  签 美国 | 怪物 | 可骇 | 科幻 | 惊悚 | 笑剧 | 1990 | 美国电影
◎简  介


  在一个名为“完善”的安好小镇上,米奇(凯文·贝肯 Kevin Bacon 饰)和死党巴斯特(弗莱德·沃德 Fred Ward 饰)又度过了属于他们的安静一天。对于在这个无趣的小镇里处置着一份又一份没有前途,仅能生活的工作这一究竟,两个未老先衰的年轻人感应非常无法和困扰。终究,他们决议要走出完善镇,起头他们多姿多彩的新生活,而就在此时,通向镇外的唯逐一条公路莫名陷落了,某些不详的征象起头显现。
  
  早在数星期之前,镇上发生了六畜奥秘失落的可骇事务,同时,地质系门生蕾贝卡( 芬妮·卡特 Finn Carter 饰)发现小镇的地壳活动非常异常。现在,众人终究将这些缭乱的线索拼集到了一路,在大师的脚下,黑不见光的地底,究竟是什么在捋臂张拳?
  1. Video
  2. ID                                       : 1
  3. ID in the original source medium         : 4113 (0x1011)
  4. Format                                   : HEVC
  5. Format/Info                              : High Efficiency Video Coding
  6. Format profile                           : Main [email protected]@High
  7. HDR format                               : SMPTE ST 2086, HDR10 compatible
  8. Codec ID                                 : V_MPEGH/ISO/HEVC
  9. Duration                                 : 1 h 36 min
  10. Bit rate                                 : 88.4 Mb/s
  11. Width                                    : 3 840 pixels
  12. Height                                   : 2 160 pixels
  13. Display aspect ratio                     : 16:9
  14. Frame rate mode                          : Constant
  15. Frame rate                               : 23.976 (24000/1001/189150) FPS
  16. Color space                              : YUV
  17. Chroma subsampling                       : 4:2:0 (Type 2)
  18. Bit depth                                : 10 bits
  19. Bits/(Pixel*Frame)                       : 0.444
  20. Stream size                              : 59.3 GiB (90%)
  21. Title                                    : Tremors.1990.2160p.BluRay.REMUX.HEVC.DTS-HD.MA.5.1-FGT
  22. Language                                 : English
  23. Default                                  : No
  24. Forced                                   : No
  25. Color range                              : Limited
  26. Color primaries                          : BT.2020
  27. Transfer characteristics                 : PQ
  28. Matrix coefficients                      : BT.2020 non-constant
  29. Mastering display color primaries        : BT.2020
  30. Mastering display luminance              : min: 0.0001 cd/m2, max: 1000 cd/m2
  31. Original source medium                   : Blu-ray
  32. Audio #1
  33. ID                                       : 2
  34. ID in the original source medium         : 4354 (0x1102)
  35. Format                                   : DTS XLL
  36. Format/Info                              : Digital Theater Systems
  37. Commercial name                          : DTS-HD Master Audio
  38. Codec ID                                 : A_DTS
  39. Duration                                 : 1 h 36 min
  40. Bit rate mode                            : Variable
  41. Bit rate                                 : 3 655 kb/s
  42. Channel(s)                               : 6 channels
  43. Channel layout                           : C L R Ls Rs LFE
  44. Sampling rate                            : 48.0 kHz
  45. Frame rate                               : 93.750 FPS (512 SPF)
  46. Bit depth                                : 24 bits
  47. Compression mode                         : Lossless
  48. Stream size                              : 2.45 GiB (4%)
  49. Title                                    : Tremors.1990.2160p.BluRay.REMUX.HEVC.DTS-HD.MA.5.1-FGT
  50. Language                                 : English
  51. Default                                  : Yes
  52. Forced                                   : No
  53. Original source medium                   : Blu-ray
  54. Audio #2
  55. ID                                       : 3
  56. Format                                   : AC-3
  57. Format/Info                              : Audio Coding 3
  58. Commercial name                          : Dolby Digital
  59. Codec ID                                 : A_AC3
  60. Duration                                 : 1 h 36 min
  61. Bit rate mode                            : Constant
  62. Bit rate                                 : 640 kb/s
  63. Channel(s)                               : 6 channels
  64. Channel layout                           : L R C LFE Ls Rs
  65. Sampling rate                            : 48.0 kHz
  66. Frame rate                               : 31.250 FPS (1536 SPF)
  67. Compression mode                         : Lossy
  68. Stream size                              : 439 MiB (1%)
  69. Title                                    : Tremors.1990.2160p.BluRay.REMUX.HEVC.DTS-HD.MA.5.1-FGT
  70. Language                                 : English
  71. Service kind                             : Complete Main
  72. Default                                  : No
  73. Forced                                   : No
  74. Audio #3
  75. ID                                       : 4
  76. ID in the original source medium         : 4352 (0x1100)
  77. Format                                   : DTS XLL
  78. Format/Info                              : Digital Theater Systems
  79. Commercial name                          : DTS-HD Master Audio
  80. Codec ID                                 : A_DTS
  81. Duration                                 : 1 h 36 min
  82. Bit rate mode                            : Variable
  83. Bit rate                                 : 1 734 kb/s
  84. Channel(s)                               : 2 channels
  85. Channel layout                           : L R
  86. Sampling rate                            : 48.0 kHz
  87. Frame rate                               : 93.750 FPS (512 SPF)
  88. Bit depth                                : 24 bits
  89. Compression mode                         : Lossless
  90. Stream size                              : 1.16 GiB (2%)
  91. Title                                    : Tremors.1990.2160p.BluRay.REMUX.HEVC.DTS-HD.MA.5.1-FGT
  92. Language                                 : English
  93. Default                                  : No
  94. Forced                                   : No
  95. Original source medium                   : Blu-ray
  96. Audio #4
  97. ID                                       : 5
  98. ID in the original source medium         : 4353 (0x1101)
  99. Format                                   : DTS XLL
  100. Format/Info                              : Digital Theater Systems
  101. Commercial name                          : DTS-HD Master Audio
  102. Codec ID                                 : A_DTS
  103. Duration                                 : 1 h 36 min
  104. Bit rate mode                            : Variable
  105. Bit rate                                 : 2 876 kb/s
  106. Channel(s)                               : 4 channels
  107. Channel layout                           : C L R Cb
  108. Sampling rate                            : 48.0 kHz
  109. Frame rate                               : 93.750 FPS (512 SPF)
  110. Bit depth                                : 24 bits
  111. Compression mode                         : Lossless
  112. Stream size                              : 1.93 GiB (3%)
  113. Title                                    : Tremors.1990.2160p.BluRay.REMUX.HEVC.DTS-HD.MA.5.1-FGT
  114. Language                                 : English
  115. Default                                  : No
  116. Forced                                   : No
  117. Original source medium                   : Blu-ray
  118. Audio #5
  119. ID                                       : 6
  120. ID in the original source medium         : 4355 (0x1103)
  121. Format                                   : AC-3
  122. Format/Info                              : Audio Coding 3
  123. Commercial name                          : Dolby Digital
  124. Codec ID                                 : A_AC3
  125. Duration                                 : 1 h 36 min
  126. Bit rate mode                            : Constant
  127. Bit rate                                 : 192 kb/s
  128. Channel(s)                               : 2 channels
  129. Channel layout                           : L R
  130. Sampling rate                            : 48.0 kHz
  131. Frame rate                               : 31.250 FPS (1536 SPF)
  132. Compression mode                         : Lossy
  133. Stream size                              : 132 MiB (0%)
  134. Title                                    : Tremors.1990.2160p.BluRay.REMUX.HEVC.DTS-HD.MA.5.1-FGT
  135. Language                                 : English
  136. Service kind                             : Complete Main
  137. Default                                  : No
  138. Forced                                   : No
  139. Original source medium                   : Blu-ray
  140. Audio #6
  141. ID                                       : 7
  142. ID in the original source medium         : 4356 (0x1104)
  143. Format                                   : AC-3
  144. Format/Info                              : Audio Coding 3
  145. Commercial name                          : Dolby Digital
  146. Codec ID                                 : A_AC3
  147. Duration                                 : 1 h 36 min
  148. Bit rate mode                            : Constant
  149. Bit rate                                 : 192 kb/s
  150. Channel(s)                               : 2 channels
  151. Channel layout                           : L R
  152. Sampling rate                            : 48.0 kHz
  153. Frame rate                               : 31.250 FPS (1536 SPF)
  154. Compression mode                         : Lossy
  155. Stream size                              : 132 MiB (0%)
  156. Title                                    : Tremors.1990.2160p.BluRay.REMUX.HEVC.DTS-HD.MA.5.1-FGT
  157. Language                                 : English
  158. Service kind                             : Complete Main
  159. Default                                  : No
  160. Forced                                   : No
  161. Original source medium                   : Blu-ray
  162. Text #1
  163. ID                                       : 8
  164. Format                                   : UTF-8
  165. Codec ID                                 : S_TEXT/UTF8
  166. Codec ID/Info                            : UTF-8 Plain Text
  167. Duration                                 : 1 h 34 min
  168. Bit rate                                 : 53 b/s
  169. Count of elements                        : 1160
  170. Stream size                              : 37.1 KiB (0%)
  171. Title                                    : English-SRT
  172. Language                                 : English
  173. Default                                  : Yes
  174. Forced                                   : No
  175. Text #2
  176. ID                                       : 9
  177. ID in the original source medium         : 4768 (0x12A0)
  178. Format                                   : PGS
  179. Muxing mode                              : zlib
  180. Codec ID                                 : S_HDMV/PGS
  181. Codec ID/Info                            : Picture based subtitle format used on BDs/HD-DVDs
  182. Duration                                 : 1 h 35 min
  183. Bit rate                                 : 38.3 kb/s
  184. Count of elements                        : 2582
  185. Stream size                              : 26.0 MiB (0%)
  186. Title                                    : English-PGS
  187. Language                                 : English
  188. Default                                  : No
  189. Forced                                   : No
  190. Original source medium                   : Blu-ray
  191. Menu
  192. 00:00:00.000                             : en:Chapter 01
  193. 00:08:30.426                             : en:Chapter 02
  194. 00:15:49.907                             : en:Chapter 03
  195. 00:22:40.484                             : en:Chapter 04
  196. 00:31:33.725                             : en:Chapter 05
  197. 00:40:32.763                             : en:Chapter 06
  198. 00:47:52.244                             : en:Chapter 07
  199. 00:55:55.143                             : en:Chapter 08
  200. 01:01:35.233                             : en:Chapter 09
  201. 01:10:35.564                             : en:Chapter 10
  202. 01:21:12.242                             : en:Chapter 11
  203. 01:27:44.968                             : en:Chapter 12
复制代码



                                       
                                       

                                       
                                       
                                       




回复

使用道具 举报

懒得打字嘛,点击右侧快捷回复 【右侧内容,后台自定义】
您需要登录后才可以回帖 登录 | 立即加入

本版积分规则

Archiver|小黑屋| 蓝光电影网 |网站地图

Copyright © 2021 Comsenz Inc. Powered by 蓝光电影网

蓝光电影网

本站内容由用户自主分享和转载自互联网,转载目的在于传递更多信息,并不代表本网赞同其观点和对其真实性负责。

如有侵权、违反国家法律政策行为,请联系我们,我们会第一时间及时清除和处理!

举报反馈邮箱:[email protected]

快速回复 返回顶部 返回列表