找回密码

蓝光电影网

查看: 60|回复: 0

[2160p] 大侦探福尔摩斯/神探福尔摩斯 Sherlock.Holmes.2009.2160p.BluRay.x265.10bit.SDR.DTS-HD.MA.5.1-SWTYBLZ 35.85GB

[复制链接]
蓝光币
1080
发表于 2020-9-1 09:38:02 | 显示全部楼层 |阅读模式


◎译  名 大侦察福尔摩斯/神探福尔摩斯(港)/福尔摩斯(台)/福尔摩斯和华生
◎片  名 Sherlock Holmes
◎年  代 2009
◎产  地 美国,德国
◎类  别 行动 / 悬疑 / 犯罪
◎语  言 英语,法语
◎上映日期 2009-12-25(美国) / 2010-02-25(中国大陆)
◎IMDb评分  7.6/10 from 573895 users
◎IMDb链接  https://www.imdb.com/title/tt0988045/
◎豆瓣评分 7.6/10 from 264556 users
◎豆瓣链接 https://movie.douban.com/subject/2998270/
◎片  长 128分钟
◎导  演 盖·里奇 Guy Ritchie
◎编  剧 迈克尔·罗伯特·约翰逊 Michael Robert Johnson / 安东尼·佩卡姆 Anthony Peckham / 西蒙·金伯格 Simon Kinberg / 莱昂内尔·威格拉姆 Lionel Wigram
◎主  演 小罗伯特·唐尼 Robert Downey Jr.
       裘德·洛 Jude Law
       瑞秋·麦克亚当斯 Rachel McAdams
       马克·斯特朗 Mark Strong
       凯利·蕾莉 Kelly Reilly
       威廉·霍普 William Hope
       克里夫·罗素 Clive Russell
       James A. Stephens
       杰佛逊·豪尔 Jefferson Hall
       詹姆斯·福克斯 James Fox
       威廉·休斯顿 William Houston
       彼得·迈尔斯 Peter Miles
       埃迪·马森 Eddie Marsan
       布罗娜·加拉赫 Bronagh Gallagher
       汉斯·麦瑟逊 Hans Matheson
       罗伯特·梅耶 Robert Maillet
       杰拉丁妮·詹姆斯 Geraldine James
◎标  签 推理 | 悬疑 | 美国 | 行动 | 犯罪 | 黑色诙谐 | 2009 | 笑剧
◎简  介


  大侦察福尔摩斯(小罗伯特·唐尼 Robert Downer Jr. 饰)即使在置人于死地之时也异常的逻辑清楚,但是办案时杂乱无章的他在私底下的生活中简直就是个“怪胎”,最少在他的助手华生医生(裘德·洛 Jude Law饰)眼中他是这样一小我。他们亲手清闲法外的“黑暗巫师”布莱克大人(马克·斯特朗 Mark Strong 饰)在临死前说灭亡即是起头,随后艾琳·艾德勒(瑞秋·麦克亚当斯 Rachel McAdams 饰)出现在他的身旁要他帮手找个失落的人,而她身旁有个影子般可怕人物。坊间传闻黑暗巫师已经新生,他的墓地遭到破坏,而躺在棺材里的人还有其人。又到了大侦察福尔摩斯出马的时辰了,但是观察进程从一路头就险象环生,助手华生医生在观察中更是几乎丧命,福尔摩斯也堕入连串的迷团当中。
  
  本片按照著名同名漫画改编,作者莱昂纳尔·威格拉姆(Lionel Wigram)。2010年第82届奥斯卡最好艺术指导、最好配乐2项提名、第67届金球奖音乐/笑剧类最好男配角Robert Downey Jr.
◎获奖情况
  第82届奥斯卡金像奖 ?(2010)
  最好艺术指导(提名) 莎拉·格林伍德?/?凯蒂·斯宾塞
  最好原创配乐(提名) 汉斯·季默
  
  第67届金球奖 ?(2010)
  电影类音乐/笑剧片最好男配角 小罗伯特·唐尼
  
  第19届MTV电影奖 ?(2010)
  MTV电影奖最好打架(提名) 小罗伯特·唐尼?/?马克·斯特朗
  
  第12届美国青少年挑选奖 ?(2010)
  最好行动冒险电影
  最好行动冒险电影男演员(提名) 小罗伯特·唐尼
  最好行动冒险电影女演员 瑞秋·麦克亚当斯
  1. Video
  2. ID                                       : 1
  3. Format                                   : HEVC
  4. Format/Info                              : High Efficiency Video Coding
  5. Format profile                           : Main [email protected]@High
  6. Codec ID                                 : V_MPEGH/ISO/HEVC
  7. Duration                                 : 2 h 8 min
  8. Bit rate                                 : 34.8 Mb/s
  9. Width                                    : 3 840 pixels
  10. Height                                   : 2 160 pixels
  11. Display aspect ratio                     : 16:9
  12. Frame rate mode                          : Constant
  13. Frame rate                               : 23.976 (24000/1001/189150) FPS
  14. Color space                              : YUV
  15. Chroma subsampling                       : 4:2:0
  16. Bit depth                                : 10 bits
  17. Bits/(Pixel*Frame)                       : 0.175
  18. Stream size                              : 31.2 GiB (87%)
  19. Title                                    : Sherlock.Holmes.2009.2160p.BluRay.x265.10bit.SDR.DTS-HD.MA.5.1-SWTYBLZ
  20. Writing library                          : x265 3.0ed72af837053:[Windows][GCC 8.2.0][64 bit] 10bit
  21. Encoding settings                        : cpuid=1111039 / frame-threads=6 / numa-pools=40 / wpp / no-pmode / no-pme / no-psnr / no-ssim / log-level=2 / input-csp=1 / input-res=3840x2160 / interlace=0 / total-frames=184857 / level-idc=51 / high-tier=1 / uhd-bd=0 / ref=3 / no-allow-non-conformance / repeat-headers / annexb / aud / hrd / info / hash=0 / no-temporal-layers / no-open-gop / min-keyint=1 / keyint=24 / gop-lookahead=0 / bframes=4 / b-adapt=2 / b-pyramid / bframe-bias=0 / rc-lookahead=25 / lookahead-slices=4 / scenecut=40 / radl=0 / no-splice / no-intra-refresh / ctu=64 / min-cu-size=8 / no-rect / no-amp / max-tu-size=32 / tu-inter-depth=1 / tu-intra-depth=1 / limit-tu=0 / rdoq-level=0 / dynamic-rd=0.00 / no-ssim-rd / signhide / no-tskip / nr-intra=0 / nr-inter=0 / no-constrained-intra / strong-intra-smoothing / max-merge=2 / limit-refs=3 / no-limit-modes / me=1 / subme=2 / merange=57 / temporal-mvp / weightp / no-weightb / no-analyze-src-pics / deblock=0:0 / no-sao / no-sao-non-deblock / rd=3 / no-early-skip / rskip / no-fast-intra / no-tskip-fast / no-cu-lossless / no-b-intra / no-splitrd-skip / rdpenalty=0 / psy-rd=2.00 / psy-rdoq=0.00 / no-rd-refine / no-lossless / cbqpoffs=0 / crqpoffs=0 / rc=crf / crf=16.0 / qcomp=0.60 / qpstep=4 / stats-write=0 / stats-read=0 / vbv-maxrate=160000 / vbv-bufsize=160000 / vbv-init=0.9 / crf-max=0.0 / crf-min=0.0 / ipratio=1.40 / pbratio=1.30 / aq-mode=1 / aq-strength=1.00 / cutree / zone-count=0 / no-strict-cbr / qg-size=32 / no-rc-grain / qpmax=69 / qpmin=0 / no-const-vbv / sar=1 / overscan=0 / videoformat=5 / range=0 / colorprim=2 / transfer=2 / colormatrix=2 / chromaloc=0 / display-window=0 / max-cll=0,0 / min-luma=0 / max-luma=1023 / log2-max-poc-lsb=8 / vui-timing-info / vui-hrd-info / slices=1 / opt-qp-pps / opt-ref-list-length-pps / no-multi-pass-opt-rps / scenecut-bias=0.05 / no-opt-cu-delta-qp / no-aq-motion / no-hdr / no-hdr-opt / no-dhdr10-opt / no-idr-recovery-sei / analysis-reuse-level=5 / scale-factor=0 / refine-intra=0 / refine-inter=0 / refine-mv=0 / refine-ctu-distortion=0 / no-limit-sao / ctu-info=0 / no-lowpass-dct / refine-analysis-type=0 / copy-pic=1 / max-ausize-factor=1.0 / no-dynamic-refine / no-single-sei / no-hevc-aq / qp-adaptation-range=1.00
  22. Default                                  : Yes
  23. Forced                                   : No
  24. Audio #1
  25. ID                                       : 2
  26. Format                                   : DTS XLL
  27. Format/Info                              : Digital Theater Systems
  28. Commercial name                          : DTS-HD Master Audio
  29. Codec ID                                 : A_DTS
  30. Duration                                 : 2 h 8 min
  31. Bit rate mode                            : Variable
  32. Bit rate                                 : 3 979 kb/s
  33. Channel(s)                               : 6 channels
  34. Channel layout                           : C L R Ls Rs LFE
  35. Sampling rate                            : 48.0 kHz
  36. Frame rate                               : 93.750 FPS (512 SPF)
  37. Bit depth                                : 24 bits
  38. Compression mode                         : Lossless
  39. Stream size                              : 3.57 GiB (10%)
  40. Title                                    : Sherlock.Holmes.2009.2160p.BluRay.x265.10bit.SDR.DTS-HD.MA.5.1-SWTYBLZ
  41. Language                                 : English
  42. Default                                  : Yes
  43. Forced                                   : No
  44. Audio #2
  45. ID                                       : 3
  46. Format                                   : AC-3
  47. Format/Info                              : Audio Coding 3
  48. Commercial name                          : Dolby Digital
  49. Codec ID                                 : A_AC3
  50. Duration                                 : 2 h 8 min
  51. Bit rate mode                            : Constant
  52. Bit rate                                 : 640 kb/s
  53. Channel(s)                               : 6 channels
  54. Channel layout                           : L R C LFE Ls Rs
  55. Sampling rate                            : 48.0 kHz
  56. Frame rate                               : 31.250 FPS (1536 SPF)
  57. Compression mode                         : Lossy
  58. Stream size                              : 588 MiB (2%)
  59. Title                                    : Sherlock.Holmes.2009.2160p.BluRay.x265.10bit.SDR.DTS-HD.MA.5.1-SWTYBLZ
  60. Language                                 : English
  61. Service kind                             : Complete Main
  62. Default                                  : No
  63. Forced                                   : No
  64. Text #1
  65. ID                                       : 4
  66. Format                                   : UTF-8
  67. Codec ID                                 : S_TEXT/UTF8
  68. Codec ID/Info                            : UTF-8 Plain Text
  69. Duration                                 : 1 h 58 min
  70. Bit rate                                 : 57 b/s
  71. Count of elements                        : 1499
  72. Stream size                              : 50.1 KiB (0%)
  73. Title                                    : English-SRT
  74. Language                                 : English
  75. Default                                  : Yes
  76. Forced                                   : No
  77. Text #2
  78. ID                                       : 5
  79. Format                                   : PGS
  80. Muxing mode                              : zlib
  81. Codec ID                                 : S_HDMV/PGS
  82. Codec ID/Info                            : Picture based subtitle format used on BDs/HD-DVDs
  83. Duration                                 : 2 h 0 min
  84. Bit rate                                 : 32.8 kb/s
  85. Count of elements                        : 3016
  86. Stream size                              : 28.2 MiB (0%)
  87. Title                                    : English-PGS
  88. Language                                 : English
  89. Default                                  : No
  90. Forced                                   : No
  91. Text #3
  92. ID                                       : 6
  93. Format                                   : PGS
  94. Muxing mode                              : zlib
  95. Codec ID                                 : S_HDMV/PGS
  96. Codec ID/Info                            : Picture based subtitle format used on BDs/HD-DVDs
  97. Duration                                 : 2 h 6 min
  98. Bit rate                                 : 16.0 kb/s
  99. Count of elements                        : 2884
  100. Stream size                              : 14.5 MiB (0%)
  101. Title                                    : Arabic-PGS
  102. Language                                 : Arabic
  103. Default                                  : No
  104. Forced                                   : No
  105. Text #4
  106. ID                                       : 7
  107. Format                                   : PGS
  108. Muxing mode                              : zlib
  109. Codec ID                                 : S_HDMV/PGS
  110. Codec ID/Info                            : Picture based subtitle format used on BDs/HD-DVDs
  111. Duration                                 : 2 h 8 min
  112. Bit rate                                 : 28.0 kb/s
  113. Count of elements                        : 2820
  114. Stream size                              : 25.7 MiB (0%)
  115. Title                                    : Bulgarian-PGS
  116. Language                                 : Bulgarian
  117. Default                                  : No
  118. Forced                                   : No
  119. Text #5
  120. ID                                       : 8
  121. Format                                   : PGS
  122. Muxing mode                              : zlib
  123. Codec ID                                 : S_HDMV/PGS
  124. Codec ID/Info                            : Picture based subtitle format used on BDs/HD-DVDs
  125. Duration                                 : 2 h 6 min
  126. Bit rate                                 : 21.5 kb/s
  127. Count of elements                        : 2860
  128. Stream size                              : 19.5 MiB (0%)
  129. Title                                    : Chinese-PGS
  130. Language                                 : Chinese
  131. Default                                  : No
  132. Forced                                   : No
  133. Text #6
  134. ID                                       : 9
  135. Format                                   : PGS
  136. Muxing mode                              : zlib
  137. Codec ID                                 : S_HDMV/PGS
  138. Codec ID/Info                            : Picture based subtitle format used on BDs/HD-DVDs
  139. Duration                                 : 1 h 58 min
  140. Bit rate                                 : 25.1 kb/s
  141. Count of elements                        : 2912
  142. Stream size                              : 21.3 MiB (0%)
  143. Title                                    : Chinese-PGS
  144. Language                                 : Chinese
  145. Default                                  : No
  146. Forced                                   : No
  147. Text #7
  148. ID                                       : 10
  149. Format                                   : PGS
  150. Muxing mode                              : zlib
  151. Codec ID                                 : S_HDMV/PGS
  152. Codec ID/Info                            : Picture based subtitle format used on BDs/HD-DVDs
  153. Duration                                 : 2 h 6 min
  154. Bit rate                                 : 25.0 kb/s
  155. Count of elements                        : 2892
  156. Stream size                              : 22.6 MiB (0%)
  157. Title                                    : Chinese-PGS
  158. Language                                 : Chinese
  159. Default                                  : No
  160. Forced                                   : No
  161. Text #8
  162. ID                                       : 11
  163. Format                                   : PGS
  164. Muxing mode                              : zlib
  165. Codec ID                                 : S_HDMV/PGS
  166. Codec ID/Info                            : Picture based subtitle format used on BDs/HD-DVDs
  167. Duration                                 : 2 h 8 min
  168. Bit rate                                 : 25.4 kb/s
  169. Count of elements                        : 2832
  170. Stream size                              : 23.4 MiB (0%)
  171. Title                                    : Croatian-PGS
  172. Language                                 : Croatian
  173. Default                                  : No
  174. Forced                                   : No
  175. Text #9
  176. ID                                       : 12
  177. Format                                   : PGS
  178. Muxing mode                              : zlib
  179. Codec ID                                 : S_HDMV/PGS
  180. Codec ID/Info                            : Picture based subtitle format used on BDs/HD-DVDs
  181. Duration                                 : 2 h 6 min
  182. Bit rate                                 : 25.1 kb/s
  183. Count of elements                        : 2834
  184. Stream size                              : 22.8 MiB (0%)
  185. Title                                    : Czech-PGS
  186. Language                                 : Czech
  187. Default                                  : No
  188. Forced                                   : No
  189. Text #10
  190. ID                                       : 13
  191. Format                                   : PGS
  192. Muxing mode                              : zlib
  193. Codec ID                                 : S_HDMV/PGS
  194. Codec ID/Info                            : Picture based subtitle format used on BDs/HD-DVDs
  195. Duration                                 : 2 h 6 min
  196. Bit rate                                 : 26.6 kb/s
  197. Count of elements                        : 2592
  198. Stream size                              : 24.1 MiB (0%)
  199. Title                                    : Danish-PGS
  200. Language                                 : Danish
  201. Default                                  : No
  202. Forced                                   : No
  203. Text #11
  204. ID                                       : 14
  205. Format                                   : PGS
  206. Muxing mode                              : zlib
  207. Codec ID                                 : S_HDMV/PGS
  208. Codec ID/Info                            : Picture based subtitle format used on BDs/HD-DVDs
  209. Duration                                 : 1 h 59 min
  210. Bit rate                                 : 25.5 kb/s
  211. Count of elements                        : 2232
  212. Stream size                              : 21.8 MiB (0%)
  213. Title                                    : Dutch-PGS
  214. Language                                 : Dutch
  215. Default                                  : No
  216. Forced                                   : No
  217. Text #12
  218. ID                                       : 15
  219. Format                                   : PGS
  220. Muxing mode                              : zlib
  221. Codec ID                                 : S_HDMV/PGS
  222. Codec ID/Info                            : Picture based subtitle format used on BDs/HD-DVDs
  223. Duration                                 : 2 h 8 min
  224. Bit rate                                 : 25.4 kb/s
  225. Count of elements                        : 2860
  226. Stream size                              : 23.4 MiB (0%)
  227. Title                                    : Estonian-PGS
  228. Language                                 : Estonian
  229. Default                                  : No
  230. Forced                                   : No
  231. Text #13
  232. ID                                       : 16
  233. Format                                   : PGS
  234. Muxing mode                              : zlib
  235. Codec ID                                 : S_HDMV/PGS
  236. Codec ID/Info                            : Picture based subtitle format used on BDs/HD-DVDs
  237. Duration                                 : 2 h 6 min
  238. Bit rate                                 : 28.5 kb/s
  239. Count of elements                        : 2664
  240. Stream size                              : 25.8 MiB (0%)
  241. Title                                    : Finnish-PGS
  242. Language                                 : Finnish
  243. Default                                  : No
  244. Forced                                   : No
  245. Text #14
  246. ID                                       : 17
  247. Format                                   : PGS
  248. Muxing mode                              : zlib
  249. Codec ID                                 : S_HDMV/PGS
  250. Codec ID/Info                            : Picture based subtitle format used on BDs/HD-DVDs
  251. Duration                                 : 2 h 6 min
  252. Bit rate                                 : 23.5 kb/s
  253. Count of elements                        : 2980
  254. Stream size                              : 21.3 MiB (0%)
  255. Title                                    : French-PGS
  256. Language                                 : French
  257. Default                                  : No
  258. Forced                                   : No
  259. Text #15
  260. ID                                       : 18
  261. Format                                   : PGS
  262. Muxing mode                              : zlib
  263. Codec ID                                 : S_HDMV/PGS
  264. Codec ID/Info                            : Picture based subtitle format used on BDs/HD-DVDs
  265. Duration                                 : 2 h 8 min
  266. Bit rate                                 : 30.3 kb/s
  267. Count of elements                        : 2882
  268. Stream size                              : 27.8 MiB (0%)
  269. Title                                    : German-PGS
  270. Language                                 : German
  271. Default                                  : No
  272. Forced                                   : No
  273. Text #16
  274. ID                                       : 19
  275. Format                                   : PGS
  276. Muxing mode                              : zlib
  277. Codec ID                                 : S_HDMV/PGS
  278. Codec ID/Info                            : Picture based subtitle format used on BDs/HD-DVDs
  279. Duration                                 : 2 h 8 min
  280. Bit rate                                 : 21.5 kb/s
  281. Count of elements                        : 2894
  282. Stream size                              : 19.8 MiB (0%)
  283. Title                                    : Hebrew-PGS
  284. Language                                 : Hebrew
  285. Default                                  : No
  286. Forced                                   : No
  287. Text #17
  288. ID                                       : 20
  289. Format                                   : PGS
  290. Muxing mode                              : zlib
  291. Codec ID                                 : S_HDMV/PGS
  292. Codec ID/Info                            : Picture based subtitle format used on BDs/HD-DVDs
  293. Duration                                 : 2 h 6 min
  294. Bit rate                                 : 24.2 kb/s
  295. Count of elements                        : 2688
  296. Stream size                              : 22.0 MiB (0%)
  297. Title                                    : Hungarian-PGS
  298. Language                                 : Hungarian
  299. Default                                  : No
  300. Forced                                   : No
  301. Text #18
  302. ID                                       : 21
  303. Format                                   : PGS
  304. Muxing mode                              : zlib
  305. Codec ID                                 : S_HDMV/PGS
  306. Codec ID/Info                            : Picture based subtitle format used on BDs/HD-DVDs
  307. Duration                                 : 2 h 8 min
  308. Bit rate                                 : 23.6 kb/s
  309. Count of elements                        : 2872
  310. Stream size                              : 21.7 MiB (0%)
  311. Title                                    : Icelandic-pgs
  312. Language                                 : Icelandic
  313. Default                                  : No
  314. Forced                                   : No
  315. Text #19
  316. ID                                       : 22
  317. Format                                   : PGS
  318. Muxing mode                              : zlib
  319. Codec ID                                 : S_HDMV/PGS
  320. Codec ID/Info                            : Picture based subtitle format used on BDs/HD-DVDs
  321. Duration                                 : 2 h 8 min
  322. Bit rate                                 : 25.2 kb/s
  323. Count of elements                        : 2546
  324. Stream size                              : 23.1 MiB (0%)
  325. Title                                    : Italian-PGS
  326. Language                                 : Italian
  327. Default                                  : No
  328. Forced                                   : No
  329. Text #20
  330. ID                                       : 23
  331. Format                                   : PGS
  332. Muxing mode                              : zlib
  333. Codec ID                                 : S_HDMV/PGS
  334. Codec ID/Info                            : Picture based subtitle format used on BDs/HD-DVDs
  335. Duration                                 : 1 h 59 min
  336. Bit rate                                 : 21.7 kb/s
  337. Count of elements                        : 2789
  338. Stream size                              : 18.5 MiB (0%)
  339. Title                                    : Japanese-PGS
  340. Language                                 : Japanese
  341. Default                                  : No
  342. Forced                                   : No
  343. Text #21
  344. ID                                       : 24
  345. Format                                   : PGS
  346. Muxing mode                              : zlib
  347. Codec ID                                 : S_HDMV/PGS
  348. Codec ID/Info                            : Picture based subtitle format used on BDs/HD-DVDs
  349. Duration                                 : 2 h 6 min
  350. Bit rate                                 : 17.4 kb/s
  351. Count of elements                        : 2810
  352. Stream size                              : 15.7 MiB (0%)
  353. Title                                    : Korean-PGS
  354. Language                                 : Korean
  355. Default                                  : No
  356. Forced                                   : No
  357. Text #22
  358. ID                                       : 25
  359. Format                                   : PGS
  360. Muxing mode                              : zlib
  361. Codec ID                                 : S_HDMV/PGS
  362. Codec ID/Info                            : Picture based subtitle format used on BDs/HD-DVDs
  363. Duration                                 : 2 h 8 min
  364. Bit rate                                 : 23.6 kb/s
  365. Count of elements                        : 2872
  366. Stream size                              : 21.7 MiB (0%)
  367. Title                                    : Latvian-PGS
  368. Language                                 : Latvian
  369. Default                                  : No
  370. Forced                                   : No
  371. Text #23
  372. ID                                       : 26
  373. Format                                   : PGS
  374. Muxing mode                              : zlib
  375. Codec ID                                 : S_HDMV/PGS
  376. Codec ID/Info                            : Picture based subtitle format used on BDs/HD-DVDs
  377. Duration                                 : 2 h 8 min
  378. Bit rate                                 : 28.7 kb/s
  379. Count of elements                        : 2944
  380. Stream size                              : 26.4 MiB (0%)
  381. Title                                    : Lithuanian-PGS
  382. Language                                 : Lithuanian
  383. Default                                  : No
  384. Forced                                   : No
  385. Text #24
  386. ID                                       : 27
  387. Format                                   : PGS
  388. Muxing mode                              : zlib
  389. Codec ID                                 : S_HDMV/PGS
  390. Codec ID/Info                            : Picture based subtitle format used on BDs/HD-DVDs
  391. Duration                                 : 1 h 59 min
  392. Bit rate                                 : 28.3 kb/s
  393. Count of elements                        : 2854
  394. Stream size                              : 24.1 MiB (0%)
  395. Title                                    : Norwegian-PGS
  396. Language                                 : Norwegian
  397. Default                                  : No
  398. Forced                                   : No
  399. Text #25
  400. ID                                       : 28
  401. Format                                   : PGS
  402. Muxing mode                              : zlib
  403. Codec ID                                 : S_HDMV/PGS
  404. Codec ID/Info                            : Picture based subtitle format used on BDs/HD-DVDs
  405. Duration                                 : 1 h 58 min
  406. Bit rate                                 : 25.8 kb/s
  407. Count of elements                        : 2166
  408. Stream size                              : 21.9 MiB (0%)
  409. Title                                    : Polish-PGS
  410. Language                                 : Polish
  411. Default                                  : No
  412. Forced                                   : No
  413. Text #26
  414. ID                                       : 29
  415. Format                                   : PGS
  416. Muxing mode                              : zlib
  417. Codec ID                                 : S_HDMV/PGS
  418. Codec ID/Info                            : Picture based subtitle format used on BDs/HD-DVDs
  419. Duration                                 : 2 h 8 min
  420. Bit rate                                 : 28.6 kb/s
  421. Count of elements                        : 2850
  422. Stream size                              : 26.3 MiB (0%)
  423. Title                                    : Portuguese-PGS
  424. Language                                 : Portuguese
  425. Default                                  : No
  426. Forced                                   : No
  427. Text #27
  428. ID                                       : 30
  429. Format                                   : PGS
  430. Muxing mode                              : zlib
  431. Codec ID                                 : S_HDMV/PGS
  432. Codec ID/Info                            : Picture based subtitle format used on BDs/HD-DVDs
  433. Duration                                 : 2 h 8 min
  434. Bit rate                                 : 31.0 kb/s
  435. Count of elements                        : 2758
  436. Stream size                              : 28.5 MiB (0%)
  437. Title                                    : Portuguese-PGS
  438. Language                                 : Portuguese
  439. Default                                  : No
  440. Forced                                   : No
  441. Text #28
  442. ID                                       : 31
  443. Format                                   : PGS
  444. Muxing mode                              : zlib
  445. Codec ID                                 : S_HDMV/PGS
  446. Codec ID/Info                            : Picture based subtitle format used on BDs/HD-DVDs
  447. Duration                                 : 2 h 6 min
  448. Bit rate                                 : 29.7 kb/s
  449. Count of elements                        : 2900
  450. Stream size                              : 26.9 MiB (0%)
  451. Title                                    : Romanian-PGS
  452. Language                                 : Romanian
  453. Default                                  : No
  454. Forced                                   : No
  455. Text #29
  456. ID                                       : 32
  457. Format                                   : PGS
  458. Muxing mode                              : zlib
  459. Codec ID                                 : S_HDMV/PGS
  460. Codec ID/Info                            : Picture based subtitle format used on BDs/HD-DVDs
  461. Duration                                 : 2 h 8 min
  462. Bit rate                                 : 28.7 kb/s
  463. Count of elements                        : 2898
  464. Stream size                              : 26.3 MiB (0%)
  465. Title                                    : Russian-PGS
  466. Language                                 : Russian
  467. Default                                  : No
  468. Forced                                   : No
  469. Text #30
  470. ID                                       : 33
  471. Format                                   : PGS
  472. Muxing mode                              : zlib
  473. Codec ID                                 : S_HDMV/PGS
  474. Codec ID/Info                            : Picture based subtitle format used on BDs/HD-DVDs
  475. Duration                                 : 2 h 8 min
  476. Bit rate                                 : 25.9 kb/s
  477. Count of elements                        : 2808
  478. Stream size                              : 23.8 MiB (0%)
  479. Title                                    : Serbian-PGS
  480. Language                                 : Serbian
  481. Default                                  : No
  482. Forced                                   : No
  483. Text #31
  484. ID                                       : 34
  485. Format                                   : PGS
  486. Muxing mode                              : zlib
  487. Codec ID                                 : S_HDMV/PGS
  488. Codec ID/Info                            : Picture based subtitle format used on BDs/HD-DVDs
  489. Duration                                 : 2 h 8 min
  490. Bit rate                                 : 22.9 kb/s
  491. Count of elements                        : 2778
  492. Stream size                              : 21.0 MiB (0%)
  493. Title                                    : Slovenian-PGS
  494. Language                                 : Slovenian
  495. Default                                  : No
  496. Forced                                   : No
  497. Text #32
  498. ID                                       : 35
  499. Format                                   : PGS
  500. Muxing mode                              : zlib
  501. Codec ID                                 : S_HDMV/PGS
  502. Codec ID/Info                            : Picture based subtitle format used on BDs/HD-DVDs
  503. Duration                                 : 1 h 59 min
  504. Bit rate                                 : 30.1 kb/s
  505. Count of elements                        : 2844
  506. Stream size                              : 25.7 MiB (0%)
  507. Title                                    : Spanish-PGS
  508. Language                                 : Spanish
  509. Default                                  : No
  510. Forced                                   : No
  511. Text #33
  512. ID                                       : 36
  513. Format                                   : PGS
  514. Muxing mode                              : zlib
  515. Codec ID                                 : S_HDMV/PGS
  516. Codec ID/Info                            : Picture based subtitle format used on BDs/HD-DVDs
  517. Duration                                 : 2 h 6 min
  518. Bit rate                                 : 28.4 kb/s
  519. Count of elements                        : 2946
  520. Stream size                              : 25.7 MiB (0%)
  521. Title                                    : Spanish-PGS
  522. Language                                 : Spanish
  523. Default                                  : No
  524. Forced                                   : No
  525. Text #34
  526. ID                                       : 37
  527. Format                                   : PGS
  528. Muxing mode                              : zlib
  529. Codec ID                                 : S_HDMV/PGS
  530. Codec ID/Info                            : Picture based subtitle format used on BDs/HD-DVDs
  531. Duration                                 : 1 h 59 min
  532. Bit rate                                 : 30.6 kb/s
  533. Count of elements                        : 2762
  534. Stream size                              : 26.1 MiB (0%)
  535. Title                                    : Swedish-PGS
  536. Language                                 : Swedish
  537. Default                                  : No
  538. Forced                                   : No
  539. Text #35
  540. ID                                       : 38
  541. Format                                   : PGS
  542. Muxing mode                              : zlib
  543. Codec ID                                 : S_HDMV/PGS
  544. Codec ID/Info                            : Picture based subtitle format used on BDs/HD-DVDs
  545. Duration                                 : 2 h 6 min
  546. Bit rate                                 : 26.5 kb/s
  547. Count of elements                        : 2874
  548. Stream size                              : 24.0 MiB (0%)
  549. Title                                    : Thai-PGS
  550. Language                                 : Thai
  551. Default                                  : No
  552. Forced                                   : No
  553. Text #36
  554. ID                                       : 39
  555. Format                                   : PGS
  556. Muxing mode                              : zlib
  557. Codec ID                                 : S_HDMV/PGS
  558. Codec ID/Info                            : Picture based subtitle format used on BDs/HD-DVDs
  559. Duration                                 : 2 h 8 min
  560. Bit rate                                 : 28.8 kb/s
  561. Count of elements                        : 2860
  562. Stream size                              : 26.4 MiB (0%)
  563. Title                                    : Turkish-PGS
  564. Language                                 : Turkish
  565. Default                                  : No
  566. Forced                                   : No
  567. Menu
  568. 00:00:00.000                             : en:Catching A Killer
  569. 00:06:51.161                             : en:Case Of Stagnation
  570. 00:11:34.819                             : en:Telling About Mary
  571. 00:15:46.279                             : en:Blow By Blow
  572. 00:19:13.486                             : en:Last Request
  573. 00:23:33.662                             : en:Bound Together
  574. 00:27:54.464                             : en:Miss Adler For Hire
  575. 00:32:05.841                             : en:The Irene I Know
  576. 00:37:13.106                             : en:Resurrection
  577. 00:40:54.994                             : en:Apt Prediction
  578. 00:44:41.804                             : en:Sorcery And Science
  579. 00:47:44.278                             : en:Meat Or Potatoes?
  580. 00:50:56.762                             : en:Giving Up The Ship
  581. 00:55:22.194                             : en:Friends In High Places
  582. 00:59:09.045                             : en:Blackwood\'s Lineage
  583. 01:03:09.369                             : en:Mutual Danger
  584. 01:06:12.635                             : en:Dead And Bath
  585. 01:11:18.774                             : en:Remake The World
  586. 01:14:43.938                             : en:On Purpose
  587. 01:17:40.906                             : en:Lambs To Slaughter
  588. 01:23:39.681                             : en:Trap For Three
  589. 01:26:11.541                             : en:The Best You Can Do
  590. 01:31:01.748                             : en:Next Target
  591. 01:35:19.964                             : en:Smoking Out A Coward
  592. 01:39:50.568                             : en:Countdown To Noon
  593. 01:44:25.342                             : en:Bell And Death Tolls
  594. 01:48:26.542                             : en:Cutting A Conjurer Loose
  595. 01:54:07.299                             : en:My Weak Spot
  596. 01:56:12.090                             : en:Moriarty\'s Mark
  597. 02:00:30.807                             : en:End Credits
复制代码






                                       
                                       

                                       
                                       
                                       




回复

使用道具 举报

懒得打字嘛,点击右侧快捷回复 【右侧内容,后台自定义】
您需要登录后才可以回帖 登录 | 立即加入

本版积分规则

Archiver|小黑屋| 蓝光电影网 |网站地图

Copyright © 2021 Comsenz Inc. Powered by 蓝光电影网

蓝光电影网

本站内容由用户自主分享和转载自互联网,转载目的在于传递更多信息,并不代表本网赞同其观点和对其真实性负责。

如有侵权、违反国家法律政策行为,请联系我们,我们会第一时间及时清除和处理!

举报反馈邮箱:[email protected]

快速回复 返回顶部 返回列表