找回密码

蓝光电影网

查看: 97|回复: 0

[UHD.HEVC] 红圈 Le.Cercle.Rouge.1970.FRENCH.2160p.BluRay.REMUX.HEVC.DTS-HD.MA.2.0-FGT 43.96GB

[复制链接]
蓝光币
1082
发表于 2020-12-11 18:17:45 | 显示全部楼层 |阅读模式
[img][/img]

◎译  名 红圈/The Red Circle/仁义血环/夺宝群英/死性不改/血环
◎片  名 Le cercle rouge
◎年  代 1970
◎产  地 法国,意大利
◎类  别 剧情 / 惊悚 / 犯罪
◎语  言 法语
◎上映日期 1970-10-20
◎IMDb评分  8/10 from 22031 users
◎IMDb链接  https://www.imdb.com/title/tt0065531/
◎豆瓣评分 8.3/10 from 7457 users
◎豆瓣链接 https://movie.douban.com/subject/1401915/
◎片  长 140 分钟
◎导  演 让-皮埃尔·梅尔维尔 Jean-Pierre Melville
◎编  剧 让-皮埃尔·梅尔维尔 Jean-Pierre Melville
◎主  演 阿兰·德龙 Alain Delon
       布尔维尔 Bourvil
       吉安·马里亚·沃隆特 Gian Maria Volonté
       伊夫·蒙当 Yves Montand
       保罗·克罗谢 Paul Crauchet
       弗朗索瓦·佩里埃 Fran?ois Périer
       雅克·加朗 Jacques Galland
       罗伯特·法瓦尔 Robert Favart
       爱德华·弗朗科姆 édouard Francomme
       Jean Pignol
       让·尚皮恩 Jean Champion
       皮埃尔·科莱 Pierre Collet
       René Berthier
       保罗·阿米奥 Paul Amiot
◎标  签 法国 | 梅尔维尔 | 犯罪 | 法国电影 | 1970 | 黑色电影 | 黑色 | 让-皮埃尔·梅尔维尔
◎简  介


  由马迪警督押送的怀疑犯威高(吉昂?马利亚?沃隆特 Gian Maria Volonté 饰)从火车上逃窜,马迪顿时联络总部在遍地设备路障,而且出动警力大力搜捕威高。科里(阿兰?德龙 Alain Delon 饰)提早从牢狱里被开释,当晚找到了昔日旧友里克敲诈获得了钱和枪,随后买了车分开此地。威高死里逃生偶合之下躲进了科里的后备箱里。科里经过路障检查时帮助威高蒙混过关,两人就此结识。他们途中被劫匪抢劫,两人相互配合杀死了劫匪。马迪警官判定威高逃窜会投靠酒吧店东桑提,因而找到桑撮要求他当线人并供给线索,桑提拒绝后被拘留。而此时威高和科里找到了被革职的差人简森(伊夫?蒙当 Yves Montand 饰),三人同谋计齐截次珠宝抢劫案……
  1. Video
  2. ID                                       : 1
  3. ID in the original source medium         : 4113 (0x1011)
  4. Format                                   : HEVC
  5. Format/Info                              : High Efficiency Video Coding
  6. Format profile                           : Main [email protected]@High
  7. HDR format                               : SMPTE ST 2086, HDR10 compatible
  8. Codec ID                                 : V_MPEGH/ISO/HEVC
  9. Duration                                 : 2 h 20 min
  10. Bit rate                                 : 40.5 Mb/s
  11. Width                                    : 3 840 pixels
  12. Height                                   : 2 160 pixels
  13. Display aspect ratio                     : 16:9
  14. Frame rate mode                          : Constant
  15. Frame rate                               : 24.000 FPS
  16. Color space                              : YUV
  17. Chroma subsampling                       : 4:2:0 (Type 2)
  18. Bit depth                                : 10 bits
  19. Bits/(Pixel*Frame)                       : 0.203
  20. Stream size                              : 39.7 GiB (90%)
  21. Title                                    : Le.Cercle.Rouge.1970.FRENCH.2160p.BluRay.REMUX.HEVC.DTS-HD.MA.2.0-FGT
  22. Language                                 : English
  23. Default                                  : No
  24. Forced                                   : No
  25. Color range                              : Limited
  26. Color primaries                          : BT.2020
  27. Transfer characteristics                 : PQ
  28. Matrix coefficients                      : BT.2020 non-constant
  29. Mastering display color primaries        : BT.2020
  30. Mastering display luminance              : min: 0.0001 cd/m2, max: 1000 cd/m2
  31. Original source medium                   : Blu-ray
  32. Audio #1
  33. ID                                       : 2
  34. ID in the original source medium         : 4352 (0x1100)
  35. Format                                   : DTS XLL
  36. Format/Info                              : Digital Theater Systems
  37. Commercial name                          : DTS-HD Master Audio
  38. Codec ID                                 : A_DTS
  39. Duration                                 : 2 h 20 min
  40. Bit rate mode                            : Variable
  41. Bit rate                                 : 1 819 kb/s
  42. Channel(s)                               : 2 channels
  43. Channel layout                           : L R
  44. Sampling rate                            : 48.0 kHz
  45. Frame rate                               : 93.750 FPS (512 SPF)
  46. Bit depth                                : 24 bits
  47. Compression mode                         : Lossless
  48. Stream size                              : 1.79 GiB (4%)
  49. Title                                    : Le.Cercle.Rouge.1970.FRENCH.2160p.BluRay.REMUX.HEVC.DTS-HD.MA.2.0-FGT
  50. Language                                 : French
  51. Default                                  : Yes
  52. Forced                                   : No
  53. Original source medium                   : Blu-ray
  54. Audio #2
  55. ID                                       : 3
  56. Format                                   : AC-3
  57. Format/Info                              : Audio Coding 3
  58. Commercial name                          : Dolby Digital
  59. Codec ID                                 : A_AC3
  60. Duration                                 : 2 h 20 min
  61. Bit rate mode                            : Constant
  62. Bit rate                                 : 640 kb/s
  63. Channel(s)                               : 2 channels
  64. Channel layout                           : L R
  65. Sampling rate                            : 48.0 kHz
  66. Frame rate                               : 31.250 FPS (1536 SPF)
  67. Compression mode                         : Lossy
  68. Stream size                              : 643 MiB (1%)
  69. Title                                    : Le.Cercle.Rouge.1970.FRENCH.2160p.BluRay.REMUX.HEVC.DTS-HD.MA.2.0-FGT
  70. Language                                 : French
  71. Service kind                             : Complete Main
  72. Default                                  : No
  73. Forced                                   : No
  74. Audio #3
  75. ID                                       : 4
  76. ID in the original source medium         : 4353 (0x1101)
  77. Format                                   : DTS XLL
  78. Format/Info                              : Digital Theater Systems
  79. Commercial name                          : DTS-HD Master Audio
  80. Codec ID                                 : A_DTS
  81. Duration                                 : 2 h 20 min
  82. Bit rate mode                            : Variable
  83. Bit rate                                 : 1 815 kb/s
  84. Channel(s)                               : 2 channels
  85. Channel layout                           : L R
  86. Sampling rate                            : 48.0 kHz
  87. Frame rate                               : 93.750 FPS (512 SPF)
  88. Bit depth                                : 24 bits
  89. Compression mode                         : Lossless
  90. Stream size                              : 1.78 GiB (4%)
  91. Title                                    : Le.Cercle.Rouge.1970.FRENCH.2160p.BluRay.REMUX.HEVC.DTS-HD.MA.2.0-FGT
  92. Language                                 : German
  93. Default                                  : No
  94. Forced                                   : No
  95. Original source medium                   : Blu-ray
  96. Text #1
  97. ID                                       : 5
  98. Format                                   : UTF-8
  99. Codec ID                                 : S_TEXT/UTF8
  100. Codec ID/Info                            : UTF-8 Plain Text
  101. Duration                                 : 2 h 19 min
  102. Bit rate                                 : 17 b/s
  103. Count of elements                        : 606
  104. Stream size                              : 17.5 KiB (0%)
  105. Title                                    : English-SRT
  106. Language                                 : English
  107. Default                                  : Yes
  108. Forced                                   : No
  109. Text #2
  110. ID                                       : 6
  111. ID in the original source medium         : 4768 (0x12A0)
  112. Format                                   : PGS
  113. Muxing mode                              : zlib
  114. Codec ID                                 : S_HDMV/PGS
  115. Codec ID/Info                            : Picture based subtitle format used on BDs/HD-DVDs
  116. Duration                                 : 2 h 19 min
  117. Bit rate                                 : 11.0 kb/s
  118. Count of elements                        : 1882
  119. Stream size                              : 11.0 MiB (0%)
  120. Title                                    : French-PGS
  121. Language                                 : French
  122. Default                                  : No
  123. Forced                                   : No
  124. Original source medium                   : Blu-ray
  125. Text #3
  126. ID                                       : 7
  127. ID in the original source medium         : 4769 (0x12A1)
  128. Format                                   : PGS
  129. Muxing mode                              : zlib
  130. Codec ID                                 : S_HDMV/PGS
  131. Codec ID/Info                            : Picture based subtitle format used on BDs/HD-DVDs
  132. Duration                                 : 2 h 19 min
  133. Bit rate                                 : 12.0 kb/s
  134. Count of elements                        : 1234
  135. Stream size                              : 12.0 MiB (0%)
  136. Title                                    : German-PGS
  137. Language                                 : German
  138. Default                                  : No
  139. Forced                                   : No
  140. Original source medium                   : Blu-ray
  141. Text #4
  142. ID                                       : 8
  143. ID in the original source medium         : 4770 (0x12A2)
  144. Format                                   : PGS
  145. Muxing mode                              : zlib
  146. Codec ID                                 : S_HDMV/PGS
  147. Codec ID/Info                            : Picture based subtitle format used on BDs/HD-DVDs
  148. Duration                                 : 2 h 19 min
  149. Bit rate                                 : 10.5 kb/s
  150. Count of elements                        : 1214
  151. Stream size                              : 10.5 MiB (0%)
  152. Title                                    : English-PGS
  153. Language                                 : English
  154. Default                                  : No
  155. Forced                                   : No
  156. Original source medium                   : Blu-ray
  157. Text #5
  158. ID                                       : 9
  159. ID in the original source medium         : 4771 (0x12A3)
  160. Format                                   : PGS
  161. Muxing mode                              : zlib
  162. Codec ID                                 : S_HDMV/PGS
  163. Codec ID/Info                            : Picture based subtitle format used on BDs/HD-DVDs
  164. Duration                                 : 2 h 4 min
  165. Bit rate                                 : 428 b/s
  166. Count of elements                        : 32
  167. Stream size                              : 390 KiB (0%)
  168. Title                                    : German-FORCED-PGS
  169. Language                                 : German
  170. Default                                  : No
  171. Forced                                   : No
  172. Original source medium                   : Blu-ray
  173. Menu
  174. 00:00:00.000                             : en:Chapter 01
  175. 00:11:45.541                             : en:Chapter 02
  176. 00:21:59.000                             : en:Chapter 03
  177. 00:34:12.000                             : en:Chapter 04
  178. 00:46:21.250                             : en:Chapter 05
  179. 00:57:19.000                             : en:Chapter 06
  180. 01:08:52.958                             : en:Chapter 07
  181. 01:20:32.791                             : en:Chapter 08
  182. 01:31:51.958                             : en:Chapter 09
  183. 01:55:48.250                             : en:Chapter 10
  184. 02:07:59.833                             : en:Chapter 11
  185. 02:18:51.916                             : en:Chapter 12
复制代码



                                       
                                       

                                       
                                       
                                       




回复

使用道具 举报

懒得打字嘛,点击右侧快捷回复 【右侧内容,后台自定义】
您需要登录后才可以回帖 登录 | 立即加入

本版积分规则

Archiver|小黑屋| 蓝光电影网 |网站地图

Copyright © 2021 Comsenz Inc. Powered by 蓝光电影网

蓝光电影网

本站内容由用户自主分享和转载自互联网,转载目的在于传递更多信息,并不代表本网赞同其观点和对其真实性负责。

如有侵权、违反国家法律政策行为,请联系我们,我们会第一时间及时清除和处理!

举报反馈邮箱:[email protected]

快速回复 返回顶部 返回列表