找回密码

蓝光电影网

查看: 74|回复: 0

[2160p] 大侦探福尔摩斯2:诡影游戏/大侦探福尔摩斯2:暗影游戏 Sherlock.Holmes.A.Game.of.Shadows.2011.2160p.BluRay.x264.8bit.SDR.DTS-HD.MA.5.1-SWTYBLZ 49.85GB

[复制链接]
蓝光币
1082
发表于 2020-8-31 16:44:01 | 显示全部楼层 |阅读模式


◎译  名 大侦察福尔摩斯2:诡影游戏/大侦察福尔摩斯2:阴影游戏/神探福尔摩斯:诡影游戏(港)/福尔摩斯:诡影游戏(台)/福尔摩斯2
◎片  名 Sherlock Holmes: A Game of Shadows
◎年  代 2011
◎产  地 美国
◎类  别 行动 / 悬疑 / 犯罪
◎语  言 英语
◎上映日期 2011-12-16(美国) / 2012-01-15(中国大陆)
◎IMDb评分  7.5/10 from 413644 users
◎IMDb链接  https://www.imdb.com/title/tt1515091/
◎豆瓣评分 7.6/10 from 194085 users
◎豆瓣链接 https://movie.douban.com/subject/4051753/
◎片  长 129分钟
◎导  演 盖·里奇 Guy Ritchie
◎编  剧 阿瑟·柯南·道尔 Arthur Conan Doyle / 基兰·马尔罗尼 Kieran Mulroney / 米歇尔·马尔罗尼 Michele Mulroney / 德蒙特·莫罗尼 Dermot Mulroney
◎主  演 小罗伯特·唐尼 Robert Downey Jr.
       裘德·洛 Jude Law
       瑞秋·麦克亚当斯 Rachel McAdams
       劳米·拉佩斯 Noomi Rapace
       斯蒂芬·弗雷 Stephen Fry
       凯利·蕾莉 Kelly Reilly
       杰瑞德·哈里斯 Jared Harris
       杰拉丁妮·詹姆斯 Geraldine James
       威廉·休斯顿 William Houston
       保罗·安德森 Paul Anderson
       劳伦斯·波萨 Laurentiu Possa
       弗拉基米尔·弗迪克 Vladimir Furdik
       丹尼尔·纳普勒斯 Daniel Naprous
       埃迪·马森 Eddie Marsan
       杰克·拉斯基 Jack Laskey
       蒂埃里·钮维 Thierry Neuvic
◎标  签 福尔摩斯 | 悬疑 | 美国 | 侦察 | RobertDowneyJr | JudeLaw | 犯罪 | 美国电影
◎简  介


  奥天时皇储忽然自杀案件,让寂静6个月的福尔摩斯(小罗伯特·唐尼 Robert Downey Jr. 饰)再次启动。此次,福尔摩斯有了一个强有力的对手——智力上与福尔摩斯相当的莫里亚蒂教授(杰瑞德·哈里斯 Jared Harris 饰)。为了观察清楚皇储的自杀案件,福尔摩 斯与华生(裘德·洛 Jude Law 饰),在吉普赛占星师西姆(劳米·拉佩斯 Noomi Rapace 饰)的帮助下,和莫里亚蒂展开了在全部欧洲大陆上的较劲,从英国到法国、德国……虽然被称为最聪明的人,可是莫里亚蒂教授恍如能预知福尔摩斯的行迹,都能先一步福尔摩斯溜之大吉。莫里亚蒂教授灭亡名单上的人一个个被抹杀,历史能够就此被改编,面临如此强大的对手,福尔摩斯若何应对?
◎获奖情况
  第14届美国青少年挑选奖 ?(2012)
  最好行动片(提名)
  最好行动片男演员(提名) 小罗伯特·唐尼
  最好行动片女演员(提名) 劳米·拉佩斯
  1. Video
  2. ID                                       : 1
  3. Format                                   : AVC
  4. Format/Info                              : Advanced Video Codec
  5. Format profile                           : [email protected]
  6. Format settings                          : CABAC / 5 Ref Frames
  7. Format settings, CABAC                   : Yes
  8. Format settings, Reference frames        : 5 frames
  9. Codec ID                                 : V_MPEG4/ISO/AVC
  10. Duration                                 : 2 h 8 min
  11. Bit rate                                 : 50.0 Mb/s
  12. Width                                    : 3 840 pixels
  13. Height                                   : 1 600 pixels
  14. Display aspect ratio                     : 2.40:1
  15. Frame rate mode                          : Constant
  16. Frame rate                               : 23.976 (24000/1001/189150) FPS
  17. Color space                              : YUV
  18. Chroma subsampling                       : 4:2:0
  19. Bit depth                                : 8 bits
  20. Scan type                                : Progressive
  21. Bits/(Pixel*Frame)                       : 0.340
  22. Stream size                              : 45.0 GiB (91%)
  23. Title                                    : Sherlock.Holmes.A.Game.of.Shadows.2011.2160p.BluRay.x264.8bit.SDR.DTS-HD.MA.5.1-SWTYBLZ
  24. Writing library                          : x264 core 157 r2935 545de2f
  25. Encoding settings                        : cabac=1 / ref=5 / deblock=1:-1:-1 / analyse=0x3:0x113 / me=umh / subme=10 / psy=1 / psy_rd=1.00:0.15 / mixed_ref=1 / me_range=48 / chroma_me=1 / trellis=2 / 8x8dct=1 / cqm=0 / deadzone=21,11 / fast_pskip=1 / chroma_qp_offset=-3 / threads=48 / lookahead_threads=4 / sliced_threads=0 / nr=0 / decimate=0 / interlaced=0 / bluray_compat=0 / constrained_intra=0 / bframes=3 / b_pyramid=2 / b_adapt=2 / b_bias=0 / direct=3 / weightb=1 / open_gop=0 / weightp=2 / keyint=250 / keyint_min=23 / scenecut=40 / intra_refresh=0 / rc_lookahead=50 / rc=crf / mbtree=1 / crf=18.0 / qcomp=0.60 / qpmin=0 / qpmax=69 / qpstep=4 / ip_ratio=1.40 / aq=1:1.00
  26. Default                                  : Yes
  27. Forced                                   : No
  28. Audio #1
  29. ID                                       : 2
  30. Format                                   : DTS XLL
  31. Format/Info                              : Digital Theater Systems
  32. Commercial name                          : DTS-HD Master Audio
  33. Codec ID                                 : A_DTS
  34. Duration                                 : 2 h 8 min
  35. Bit rate mode                            : Variable
  36. Bit rate                                 : 4 079 kb/s
  37. Channel(s)                               : 6 channels
  38. Channel layout                           : C L R Ls Rs LFE
  39. Sampling rate                            : 48.0 kHz
  40. Frame rate                               : 93.750 FPS (512 SPF)
  41. Bit depth                                : 24 bits
  42. Compression mode                         : Lossless
  43. Stream size                              : 3.67 GiB (7%)
  44. Title                                    : Sherlock.Holmes.A.Game.of.Shadows.2011.2160p.BluRay.x264.8bit.SDR.DTS-HD.MA.5.1-SWTYBLZ
  45. Language                                 : English
  46. Default                                  : Yes
  47. Forced                                   : No
  48. Audio #2
  49. ID                                       : 3
  50. Format                                   : AC-3
  51. Format/Info                              : Audio Coding 3
  52. Commercial name                          : Dolby Digital
  53. Codec ID                                 : A_AC3
  54. Duration                                 : 2 h 8 min
  55. Bit rate mode                            : Constant
  56. Bit rate                                 : 640 kb/s
  57. Channel(s)                               : 6 channels
  58. Channel layout                           : L R C LFE Ls Rs
  59. Sampling rate                            : 48.0 kHz
  60. Frame rate                               : 31.250 FPS (1536 SPF)
  61. Compression mode                         : Lossy
  62. Stream size                              : 589 MiB (1%)
  63. Title                                    : Sherlock.Holmes.A.Game.of.Shadows.2011.2160p.BluRay.x264.8bit.SDR.DTS-HD.MA.5.1-SWTYBLZ
  64. Service kind                             : Complete Main
  65. Default                                  : No
  66. Forced                                   : No
  67. Text #1
  68. ID                                       : 4
  69. Format                                   : UTF-8
  70. Codec ID                                 : S_TEXT/UTF8
  71. Codec ID/Info                            : UTF-8 Plain Text
  72. Duration                                 : 1 h 59 min
  73. Bit rate                                 : 48 b/s
  74. Count of elements                        : 1180
  75. Stream size                              : 42.9 KiB (0%)
  76. Title                                    : English-SRT
  77. Language                                 : English
  78. Default                                  : Yes
  79. Forced                                   : No
  80. Text #2
  81. ID                                       : 5
  82. Format                                   : PGS
  83. Muxing mode                              : zlib
  84. Codec ID                                 : S_HDMV/PGS
  85. Codec ID/Info                            : Picture based subtitle format used on BDs/HD-DVDs
  86. Duration                                 : 1 h 59 min
  87. Bit rate                                 : 30.7 kb/s
  88. Count of elements                        : 2900
  89. Stream size                              : 26.3 MiB (0%)
  90. Title                                    : English-PGS
  91. Language                                 : English
  92. Default                                  : No
  93. Forced                                   : No
  94. Text #3
  95. ID                                       : 6
  96. Format                                   : PGS
  97. Muxing mode                              : zlib
  98. Codec ID                                 : S_HDMV/PGS
  99. Codec ID/Info                            : Picture based subtitle format used on BDs/HD-DVDs
  100. Duration                                 : 2 h 0 min
  101. Bit rate                                 : 13.1 kb/s
  102. Count of elements                        : 2684
  103. Stream size                              : 11.2 MiB (0%)
  104. Title                                    : Arabic-PGS
  105. Language                                 : Arabic
  106. Default                                  : No
  107. Forced                                   : No
  108. Text #4
  109. ID                                       : 7
  110. Format                                   : PGS
  111. Muxing mode                              : zlib
  112. Codec ID                                 : S_HDMV/PGS
  113. Codec ID/Info                            : Picture based subtitle format used on BDs/HD-DVDs
  114. Duration                                 : 2 h 8 min
  115. Bit rate                                 : 22.9 kb/s
  116. Count of elements                        : 2468
  117. Stream size                              : 21.0 MiB (0%)
  118. Title                                    : Bulgarian-PGS
  119. Language                                 : Bulgarian
  120. Default                                  : No
  121. Forced                                   : No
  122. Text #5
  123. ID                                       : 8
  124. Format                                   : PGS
  125. Muxing mode                              : zlib
  126. Codec ID                                 : S_HDMV/PGS
  127. Codec ID/Info                            : Picture based subtitle format used on BDs/HD-DVDs
  128. Duration                                 : 2 h 8 min
  129. Bit rate                                 : 20.1 kb/s
  130. Count of elements                        : 2408
  131. Stream size                              : 18.4 MiB (0%)
  132. Title                                    : Chinese-PGS
  133. Language                                 : Chinese
  134. Default                                  : No
  135. Forced                                   : No
  136. Text #6
  137. ID                                       : 9
  138. Format                                   : PGS
  139. Muxing mode                              : zlib
  140. Codec ID                                 : S_HDMV/PGS
  141. Codec ID/Info                            : Picture based subtitle format used on BDs/HD-DVDs
  142. Duration                                 : 2 h 8 min
  143. Bit rate                                 : 22.7 kb/s
  144. Count of elements                        : 2406
  145. Stream size                              : 20.8 MiB (0%)
  146. Title                                    : Chinese-PGS
  147. Language                                 : Chinese
  148. Default                                  : No
  149. Forced                                   : No
  150. Text #7
  151. ID                                       : 10
  152. Format                                   : PGS
  153. Muxing mode                              : zlib
  154. Codec ID                                 : S_HDMV/PGS
  155. Codec ID/Info                            : Picture based subtitle format used on BDs/HD-DVDs
  156. Duration                                 : 2 h 8 min
  157. Bit rate                                 : 20.6 kb/s
  158. Count of elements                        : 2436
  159. Stream size                              : 18.9 MiB (0%)
  160. Title                                    : Chinese-PGS
  161. Language                                 : Chinese
  162. Default                                  : No
  163. Forced                                   : No
  164. Text #8
  165. ID                                       : 11
  166. Format                                   : PGS
  167. Muxing mode                              : zlib
  168. Codec ID                                 : S_HDMV/PGS
  169. Codec ID/Info                            : Picture based subtitle format used on BDs/HD-DVDs
  170. Duration                                 : 2 h 8 min
  171. Bit rate                                 : 21.0 kb/s
  172. Count of elements                        : 1902
  173. Stream size                              : 19.3 MiB (0%)
  174. Title                                    : Croatian-PGS
  175. Language                                 : Croatian
  176. Default                                  : No
  177. Forced                                   : No
  178. Text #9
  179. ID                                       : 12
  180. Format                                   : PGS
  181. Muxing mode                              : zlib
  182. Codec ID                                 : S_HDMV/PGS
  183. Codec ID/Info                            : Picture based subtitle format used on BDs/HD-DVDs
  184. Duration                                 : 2 h 8 min
  185. Bit rate                                 : 21.7 kb/s
  186. Count of elements                        : 2390
  187. Stream size                              : 19.9 MiB (0%)
  188. Title                                    : Czech-PGS
  189. Language                                 : Czech
  190. Default                                  : No
  191. Forced                                   : No
  192. Text #10
  193. ID                                       : 13
  194. Format                                   : PGS
  195. Muxing mode                              : zlib
  196. Codec ID                                 : S_HDMV/PGS
  197. Codec ID/Info                            : Picture based subtitle format used on BDs/HD-DVDs
  198. Duration                                 : 2 h 8 min
  199. Bit rate                                 : 22.9 kb/s
  200. Count of elements                        : 1922
  201. Stream size                              : 21.0 MiB (0%)
  202. Title                                    : Danish-PGS
  203. Language                                 : Danish
  204. Default                                  : No
  205. Forced                                   : No
  206. Text #11
  207. ID                                       : 14
  208. Format                                   : PGS
  209. Muxing mode                              : zlib
  210. Codec ID                                 : S_HDMV/PGS
  211. Codec ID/Info                            : Picture based subtitle format used on BDs/HD-DVDs
  212. Duration                                 : 2 h 8 min
  213. Bit rate                                 : 21.5 kb/s
  214. Count of elements                        : 2090
  215. Stream size                              : 19.7 MiB (0%)
  216. Title                                    : Dutch-PGS
  217. Language                                 : Dutch
  218. Default                                  : No
  219. Forced                                   : No
  220. Text #12
  221. ID                                       : 15
  222. Format                                   : PGS
  223. Muxing mode                              : zlib
  224. Codec ID                                 : S_HDMV/PGS
  225. Codec ID/Info                            : Picture based subtitle format used on BDs/HD-DVDs
  226. Duration                                 : 2 h 8 min
  227. Bit rate                                 : 18.7 kb/s
  228. Count of elements                        : 2470
  229. Stream size                              : 17.1 MiB (0%)
  230. Title                                    : Estonian-PGS
  231. Language                                 : Estonian
  232. Default                                  : No
  233. Forced                                   : No
  234. Text #13
  235. ID                                       : 16
  236. Format                                   : PGS
  237. Muxing mode                              : zlib
  238. Codec ID                                 : S_HDMV/PGS
  239. Codec ID/Info                            : Picture based subtitle format used on BDs/HD-DVDs
  240. Duration                                 : 2 h 8 min
  241. Bit rate                                 : 20.7 kb/s
  242. Count of elements                        : 2048
  243. Stream size                              : 18.9 MiB (0%)
  244. Title                                    : Finnish-PGS
  245. Language                                 : Finnish
  246. Default                                  : No
  247. Forced                                   : No
  248. Text #14
  249. ID                                       : 17
  250. Format                                   : PGS
  251. Muxing mode                              : zlib
  252. Codec ID                                 : S_HDMV/PGS
  253. Codec ID/Info                            : Picture based subtitle format used on BDs/HD-DVDs
  254. Duration                                 : 2 h 8 min
  255. Bit rate                                 : 23.6 kb/s
  256. Count of elements                        : 2342
  257. Stream size                              : 21.7 MiB (0%)
  258. Title                                    : French-PGS
  259. Language                                 : French
  260. Default                                  : No
  261. Forced                                   : No
  262. Text #15
  263. ID                                       : 18
  264. Format                                   : PGS
  265. Muxing mode                              : zlib
  266. Codec ID                                 : S_HDMV/PGS
  267. Codec ID/Info                            : Picture based subtitle format used on BDs/HD-DVDs
  268. Duration                                 : 1 h 59 min
  269. Bit rate                                 : 36.5 kb/s
  270. Count of elements                        : 2996
  271. Stream size                              : 31.3 MiB (0%)
  272. Title                                    : German-PGS
  273. Language                                 : German
  274. Default                                  : No
  275. Forced                                   : No
  276. Text #16
  277. ID                                       : 19
  278. Format                                   : PGS
  279. Muxing mode                              : zlib
  280. Codec ID                                 : S_HDMV/PGS
  281. Codec ID/Info                            : Picture based subtitle format used on BDs/HD-DVDs
  282. Duration                                 : 2 h 8 min
  283. Bit rate                                 : 18.2 kb/s
  284. Count of elements                        : 2334
  285. Stream size                              : 16.7 MiB (0%)
  286. Title                                    : Hebrew-PGS
  287. Language                                 : Hebrew
  288. Default                                  : No
  289. Forced                                   : No
  290. Text #17
  291. ID                                       : 20
  292. Format                                   : PGS
  293. Muxing mode                              : zlib
  294. Codec ID                                 : S_HDMV/PGS
  295. Codec ID/Info                            : Picture based subtitle format used on BDs/HD-DVDs
  296. Duration                                 : 2 h 8 min
  297. Bit rate                                 : 21.8 kb/s
  298. Count of elements                        : 2246
  299. Stream size                              : 20.0 MiB (0%)
  300. Title                                    : Hungarian-PGS
  301. Language                                 : Hungarian
  302. Default                                  : No
  303. Forced                                   : No
  304. Text #18
  305. ID                                       : 21
  306. Format                                   : PGS
  307. Muxing mode                              : zlib
  308. Codec ID                                 : S_HDMV/PGS
  309. Codec ID/Info                            : Picture based subtitle format used on BDs/HD-DVDs
  310. Duration                                 : 2 h 8 min
  311. Bit rate                                 : 22.9 kb/s
  312. Count of elements                        : 2522
  313. Stream size                              : 21.0 MiB (0%)
  314. Title                                    : Icelandic-PGS
  315. Language                                 : Icelandic
  316. Default                                  : No
  317. Forced                                   : No
  318. Text #19
  319. ID                                       : 22
  320. Format                                   : PGS
  321. Muxing mode                              : zlib
  322. Codec ID                                 : S_HDMV/PGS
  323. Codec ID/Info                            : Picture based subtitle format used on BDs/HD-DVDs
  324. Duration                                 : 2 h 8 min
  325. Bit rate                                 : 26.6 kb/s
  326. Count of elements                        : 2402
  327. Stream size                              : 24.4 MiB (0%)
  328. Title                                    : Indonesian-PGS
  329. Language                                 : Indonesian
  330. Default                                  : No
  331. Forced                                   : No
  332. Text #20
  333. ID                                       : 23
  334. Format                                   : PGS
  335. Muxing mode                              : zlib
  336. Codec ID                                 : S_HDMV/PGS
  337. Codec ID/Info                            : Picture based subtitle format used on BDs/HD-DVDs
  338. Duration                                 : 2 h 8 min
  339. Bit rate                                 : 28.9 kb/s
  340. Count of elements                        : 2972
  341. Stream size                              : 26.5 MiB (0%)
  342. Title                                    : Italian-PGS
  343. Language                                 : Italian
  344. Default                                  : No
  345. Forced                                   : No
  346. Text #21
  347. ID                                       : 24
  348. Format                                   : PGS
  349. Muxing mode                              : zlib
  350. Codec ID                                 : S_HDMV/PGS
  351. Codec ID/Info                            : Picture based subtitle format used on BDs/HD-DVDs
  352. Duration                                 : 2 h 0 min
  353. Bit rate                                 : 19.2 kb/s
  354. Count of elements                        : 2500
  355. Stream size                              : 16.5 MiB (0%)
  356. Title                                    : Japanese-PGS
  357. Language                                 : Japanese
  358. Default                                  : No
  359. Forced                                   : No
  360. Text #22
  361. ID                                       : 25
  362. Format                                   : PGS
  363. Muxing mode                              : zlib
  364. Codec ID                                 : S_HDMV/PGS
  365. Codec ID/Info                            : Picture based subtitle format used on BDs/HD-DVDs
  366. Duration                                 : 1 h 59 min
  367. Bit rate                                 : 16.2 kb/s
  368. Count of elements                        : 2384
  369. Stream size                              : 13.9 MiB (0%)
  370. Title                                    : Korean-PGS
  371. Language                                 : Korean
  372. Default                                  : No
  373. Forced                                   : No
  374. Text #23
  375. ID                                       : 26
  376. Format                                   : PGS
  377. Muxing mode                              : zlib
  378. Codec ID                                 : S_HDMV/PGS
  379. Codec ID/Info                            : Picture based subtitle format used on BDs/HD-DVDs
  380. Duration                                 : 2 h 8 min
  381. Bit rate                                 : 17.8 kb/s
  382. Count of elements                        : 2494
  383. Stream size                              : 16.3 MiB (0%)
  384. Title                                    : Latvian-PSG
  385. Language                                 : Latvian
  386. Default                                  : No
  387. Forced                                   : No
  388. Text #24
  389. ID                                       : 27
  390. Format                                   : PGS
  391. Muxing mode                              : zlib
  392. Codec ID                                 : S_HDMV/PGS
  393. Codec ID/Info                            : Picture based subtitle format used on BDs/HD-DVDs
  394. Duration                                 : 2 h 8 min
  395. Bit rate                                 : 23.8 kb/s
  396. Count of elements                        : 2544
  397. Stream size                              : 21.8 MiB (0%)
  398. Title                                    : Lithuanian-PGS
  399. Language                                 : Lithuanian
  400. Default                                  : No
  401. Forced                                   : No
  402. Text #25
  403. ID                                       : 28
  404. Format                                   : PGS
  405. Muxing mode                              : zlib
  406. Codec ID                                 : S_HDMV/PGS
  407. Codec ID/Info                            : Picture based subtitle format used on BDs/HD-DVDs
  408. Duration                                 : 2 h 8 min
  409. Bit rate                                 : 22.0 kb/s
  410. Count of elements                        : 1938
  411. Stream size                              : 20.1 MiB (0%)
  412. Title                                    : Norwegian-PGS
  413. Language                                 : Norwegian
  414. Default                                  : No
  415. Forced                                   : No
  416. Text #26
  417. ID                                       : 29
  418. Format                                   : PGS
  419. Muxing mode                              : zlib
  420. Codec ID                                 : S_HDMV/PGS
  421. Codec ID/Info                            : Picture based subtitle format used on BDs/HD-DVDs
  422. Duration                                 : 2 h 8 min
  423. Bit rate                                 : 20.3 kb/s
  424. Count of elements                        : 2340
  425. Stream size                              : 18.6 MiB (0%)
  426. Title                                    : Polish-PGS
  427. Language                                 : Polish
  428. Default                                  : No
  429. Forced                                   : No
  430. Text #27
  431. ID                                       : 30
  432. Format                                   : PGS
  433. Muxing mode                              : zlib
  434. Codec ID                                 : S_HDMV/PGS
  435. Codec ID/Info                            : Picture based subtitle format used on BDs/HD-DVDs
  436. Duration                                 : 2 h 8 min
  437. Bit rate                                 : 23.8 kb/s
  438. Count of elements                        : 2450
  439. Stream size                              : 21.8 MiB (0%)
  440. Title                                    : Portuguese-PGS
  441. Language                                 : Portuguese
  442. Default                                  : No
  443. Forced                                   : No
  444. Text #28
  445. ID                                       : 31
  446. Format                                   : PGS
  447. Muxing mode                              : zlib
  448. Codec ID                                 : S_HDMV/PGS
  449. Codec ID/Info                            : Picture based subtitle format used on BDs/HD-DVDs
  450. Duration                                 : 2 h 8 min
  451. Bit rate                                 : 23.7 kb/s
  452. Count of elements                        : 2420
  453. Stream size                              : 21.7 MiB (0%)
  454. Title                                    : Portuguese-PGS
  455. Language                                 : Portuguese
  456. Default                                  : No
  457. Forced                                   : No
  458. Text #29
  459. ID                                       : 32
  460. Format                                   : PGS
  461. Muxing mode                              : zlib
  462. Codec ID                                 : S_HDMV/PGS
  463. Codec ID/Info                            : Picture based subtitle format used on BDs/HD-DVDs
  464. Duration                                 : 2 h 8 min
  465. Bit rate                                 : 23.0 kb/s
  466. Count of elements                        : 2364
  467. Stream size                              : 21.1 MiB (0%)
  468. Title                                    : Romanian-PGS
  469. Language                                 : Romanian
  470. Default                                  : No
  471. Forced                                   : No
  472. Text #30
  473. ID                                       : 33
  474. Format                                   : PGS
  475. Muxing mode                              : zlib
  476. Codec ID                                 : S_HDMV/PGS
  477. Codec ID/Info                            : Picture based subtitle format used on BDs/HD-DVDs
  478. Duration                                 : 2 h 8 min
  479. Bit rate                                 : 19.2 kb/s
  480. Count of elements                        : 2522
  481. Stream size                              : 17.6 MiB (0%)
  482. Title                                    : Russian-PGS
  483. Language                                 : Russian
  484. Default                                  : No
  485. Forced                                   : No
  486. Text #31
  487. ID                                       : 34
  488. Format                                   : PGS
  489. Muxing mode                              : zlib
  490. Codec ID                                 : S_HDMV/PGS
  491. Codec ID/Info                            : Picture based subtitle format used on BDs/HD-DVDs
  492. Duration                                 : 2 h 8 min
  493. Bit rate                                 : 21.4 kb/s
  494. Count of elements                        : 2384
  495. Stream size                              : 19.6 MiB (0%)
  496. Title                                    : Serbian-PGS
  497. Language                                 : Serbian
  498. Default                                  : No
  499. Forced                                   : No
  500. Text #32
  501. ID                                       : 35
  502. Format                                   : PGS
  503. Muxing mode                              : zlib
  504. Codec ID                                 : S_HDMV/PGS
  505. Codec ID/Info                            : Picture based subtitle format used on BDs/HD-DVDs
  506. Duration                                 : 2 h 8 min
  507. Bit rate                                 : 19.2 kb/s
  508. Count of elements                        : 1770
  509. Stream size                              : 17.6 MiB (0%)
  510. Title                                    : Slovenian-PGS
  511. Language                                 : Slovenian
  512. Default                                  : No
  513. Forced                                   : No
  514. Text #33
  515. ID                                       : 36
  516. Format                                   : PGS
  517. Muxing mode                              : zlib
  518. Codec ID                                 : S_HDMV/PGS
  519. Codec ID/Info                            : Picture based subtitle format used on BDs/HD-DVDs
  520. Duration                                 : 2 h 8 min
  521. Bit rate                                 : 23.2 kb/s
  522. Count of elements                        : 2502
  523. Stream size                              : 21.2 MiB (0%)
  524. Title                                    : Spanish-PGS
  525. Language                                 : Spanish
  526. Default                                  : No
  527. Forced                                   : No
  528. Text #34
  529. ID                                       : 37
  530. Format                                   : PGS
  531. Muxing mode                              : zlib
  532. Codec ID                                 : S_HDMV/PGS
  533. Codec ID/Info                            : Picture based subtitle format used on BDs/HD-DVDs
  534. Duration                                 : 2 h 8 min
  535. Bit rate                                 : 25.2 kb/s
  536. Count of elements                        : 2558
  537. Stream size                              : 23.1 MiB (0%)
  538. Title                                    : Spanish-PGS
  539. Language                                 : Spanish
  540. Default                                  : No
  541. Forced                                   : No
  542. Text #35
  543. ID                                       : 38
  544. Format                                   : PGS
  545. Muxing mode                              : zlib
  546. Codec ID                                 : S_HDMV/PGS
  547. Codec ID/Info                            : Picture based subtitle format used on BDs/HD-DVDs
  548. Duration                                 : 2 h 8 min
  549. Bit rate                                 : 22.3 kb/s
  550. Count of elements                        : 2004
  551. Stream size                              : 20.5 MiB (0%)
  552. Title                                    : Swedish-PGS
  553. Language                                 : Swedish
  554. Default                                  : No
  555. Forced                                   : No
  556. Text #36
  557. ID                                       : 39
  558. Format                                   : PGS
  559. Muxing mode                              : zlib
  560. Codec ID                                 : S_HDMV/PGS
  561. Codec ID/Info                            : Picture based subtitle format used on BDs/HD-DVDs
  562. Duration                                 : 2 h 8 min
  563. Bit rate                                 : 22.4 kb/s
  564. Count of elements                        : 2402
  565. Stream size                              : 20.6 MiB (0%)
  566. Title                                    : Thai-PGS
  567. Language                                 : Thai
  568. Default                                  : No
  569. Forced                                   : No
  570. Text #37
  571. ID                                       : 40
  572. Format                                   : PGS
  573. Muxing mode                              : zlib
  574. Codec ID                                 : S_HDMV/PGS
  575. Codec ID/Info                            : Picture based subtitle format used on BDs/HD-DVDs
  576. Duration                                 : 2 h 8 min
  577. Bit rate                                 : 23.1 kb/s
  578. Count of elements                        : 2472
  579. Stream size                              : 21.2 MiB (0%)
  580. Title                                    : Turkish-PGS
  581. Language                                 : Turkish
  582. Default                                  : No
  583. Forced                                   : No
  584. Menu
  585. 00:00:00.000                             : en:Chapter 1
  586. 00:09:17.891                             : en:Chapter 2
  587. 00:19:37.259                             : en:Chapter 3
  588. 00:30:46.470                             : en:Chapter 4
  589. 00:40:13.328                             : en:Chapter 5
  590. 00:50:28.651                             : en:Chapter 6
  591. 00:59:45.081                             : en:Chapter 7
  592. 01:09:20.448                             : en:Chapter 8
  593. 01:18:57.900                             : en:Chapter 9
  594. 01:30:08.320                             : en:Chapter 10
  595. 01:39:08.359                             : en:Chapter 11
  596. 01:49:50.000                             : en:Chapter 12
  597. 02:00:24.342                             : en:Chapter 13
复制代码





                                       
                                       

                                       
                                       
                                       




大侦察福尔摩斯2:诡影游戏/大侦察福尔摩斯2:阴影游戏 Sherlock.Holmes.A.Game.of.Shadows.2011.2160p.BluRay.x264.8bit.SDR.DTS-HD.MA.5.1-SWTYBLZ 49.85GB

Sherlock.Holmes.A.Game.of.Shadows.2011.2160p.BluRay.x264.8bit.SDR.DTS-HD.MA.5.1-.zip

126.23 KB, 下载次数: 0, 下载积分: 蓝光币 -2

回复

使用道具 举报

懒得打字嘛,点击右侧快捷回复 【右侧内容,后台自定义】
您需要登录后才可以回帖 登录 | 立即加入

本版积分规则

Archiver|小黑屋| 蓝光电影网 |网站地图

Copyright © 2021 Comsenz Inc. Powered by 蓝光电影网

蓝光电影网

本站内容由用户自主分享和转载自互联网,转载目的在于传递更多信息,并不代表本网赞同其观点和对其真实性负责。

如有侵权、违反国家法律政策行为,请联系我们,我们会第一时间及时清除和处理!

举报反馈邮箱:[email protected]

快速回复 返回顶部 返回列表