找回密码

蓝光电影网

查看: 79|回复: 0

[2160p] 大侦探福尔摩斯2:诡影游戏/大侦探福尔摩斯2:暗影游戏 Sherlock.Holmes.A.Game.of.Shadows.2011.2160p.BluRay.x265.10bit.SDR.DTS-HD.MA.5.1-SWTYBLZ 43.76GB

[复制链接]
蓝光币
1084
发表于 2020-8-31 16:40:16 | 显示全部楼层 |阅读模式


◎译  名 大侦察福尔摩斯2:诡影游戏/大侦察福尔摩斯2:阴影游戏/神探福尔摩斯:诡影游戏(港)/福尔摩斯:诡影游戏(台)/福尔摩斯2
◎片  名 Sherlock Holmes: A Game of Shadows
◎年  代 2011
◎产  地 美国
◎类  别 行动 / 悬疑 / 犯罪
◎语  言 英语
◎上映日期 2011-12-16(美国) / 2012-01-15(中国大陆)
◎IMDb评分  7.5/10 from 413644 users
◎IMDb链接  https://www.imdb.com/title/tt1515091/
◎豆瓣评分 7.6/10 from 194085 users
◎豆瓣链接 https://movie.douban.com/subject/4051753/
◎片  长 129分钟
◎导  演 盖·里奇 Guy Ritchie
◎编  剧 阿瑟·柯南·道尔 Arthur Conan Doyle / 基兰·马尔罗尼 Kieran Mulroney / 米歇尔·马尔罗尼 Michele Mulroney / 德蒙特·莫罗尼 Dermot Mulroney
◎主  演 小罗伯特·唐尼 Robert Downey Jr.
       裘德·洛 Jude Law
       瑞秋·麦克亚当斯 Rachel McAdams
       劳米·拉佩斯 Noomi Rapace
       斯蒂芬·弗雷 Stephen Fry
       凯利·蕾莉 Kelly Reilly
       杰瑞德·哈里斯 Jared Harris
       杰拉丁妮·詹姆斯 Geraldine James
       威廉·休斯顿 William Houston
       保罗·安德森 Paul Anderson
       劳伦斯·波萨 Laurentiu Possa
       弗拉基米尔·弗迪克 Vladimir Furdik
       丹尼尔·纳普勒斯 Daniel Naprous
       埃迪·马森 Eddie Marsan
       杰克·拉斯基 Jack Laskey
       蒂埃里·钮维 Thierry Neuvic
◎标  签 福尔摩斯 | 悬疑 | 美国 | 侦察 | RobertDowneyJr | JudeLaw | 犯罪 | 美国电影
◎简  介


  奥天时皇储忽然自杀案件,让寂静6个月的福尔摩斯(小罗伯特·唐尼 Robert Downey Jr. 饰)再次启动。此次,福尔摩斯有了一个强有力的对手——智力上与福尔摩斯相当的莫里亚蒂教授(杰瑞德·哈里斯 Jared Harris 饰)。为了观察清楚皇储的自杀案件,福尔摩 斯与华生(裘德·洛 Jude Law 饰),在吉普赛占星师西姆(劳米·拉佩斯 Noomi Rapace 饰)的帮助下,和莫里亚蒂展开了在全部欧洲大陆上的较劲,从英国到法国、德国……虽然被称为最聪明的人,可是莫里亚蒂教授恍如能预知福尔摩斯的行迹,都能先一步福尔摩斯溜之大吉。莫里亚蒂教授灭亡名单上的人一个个被抹杀,历史能够就此被改编,面临如此强大的对手,福尔摩斯若何应对?
◎获奖情况
  第14届美国青少年挑选奖 ?(2012)
  最好行动片(提名)
  最好行动片男演员(提名) 小罗伯特·唐尼
  最好行动片女演员(提名) 劳米·拉佩斯
  1. Video
  2. ID                                       : 1
  3. Format                                   : HEVC
  4. Format/Info                              : High Efficiency Video Coding
  5. Format profile                           : Main [email protected]@High
  6. Codec ID                                 : V_MPEGH/ISO/HEVC
  7. Duration                                 : 2 h 8 min
  8. Bit rate                                 : 43.3 Mb/s
  9. Width                                    : 3 840 pixels
  10. Height                                   : 1 600 pixels
  11. Display aspect ratio                     : 2.40:1
  12. Frame rate mode                          : Constant
  13. Frame rate                               : 23.976 (24000/1001/189150) FPS
  14. Color space                              : YUV
  15. Chroma subsampling                       : 4:2:0
  16. Bit depth                                : 10 bits
  17. Bits/(Pixel*Frame)                       : 0.294
  18. Stream size                              : 39.0 GiB (89%)
  19. Title                                    : Sherlock.Holmes.A.Game.of.Shadows.2011.2160p.BluRay.x265.10bit.SDR.DTS-HD.MA.5.1-SWTYBLZ
  20. Writing library                          : x265 3.0ed72af837053:[Windows][GCC 8.2.0][64 bit] 10bit
  21. Encoding settings                        : cpuid=1111039 / frame-threads=6 / numa-pools=40 / wpp / no-pmode / no-pme / no-psnr / no-ssim / log-level=2 / input-csp=1 / input-res=3840x1600 / interlace=0 / total-frames=185212 / level-idc=51 / high-tier=1 / uhd-bd=0 / ref=3 / no-allow-non-conformance / repeat-headers / annexb / aud / hrd / info / hash=0 / no-temporal-layers / no-open-gop / min-keyint=1 / keyint=24 / gop-lookahead=0 / bframes=4 / b-adapt=2 / b-pyramid / bframe-bias=0 / rc-lookahead=25 / lookahead-slices=4 / scenecut=40 / radl=0 / no-splice / no-intra-refresh / ctu=64 / min-cu-size=8 / no-rect / no-amp / max-tu-size=32 / tu-inter-depth=1 / tu-intra-depth=1 / limit-tu=0 / rdoq-level=0 / dynamic-rd=0.00 / no-ssim-rd / signhide / no-tskip / nr-intra=0 / nr-inter=0 / no-constrained-intra / strong-intra-smoothing / max-merge=2 / limit-refs=3 / no-limit-modes / me=1 / subme=2 / merange=57 / temporal-mvp / weightp / no-weightb / no-analyze-src-pics / deblock=0:0 / no-sao / no-sao-non-deblock / rd=3 / no-early-skip / rskip / no-fast-intra / no-tskip-fast / no-cu-lossless / no-b-intra / no-splitrd-skip / rdpenalty=0 / psy-rd=2.00 / psy-rdoq=0.00 / no-rd-refine / no-lossless / cbqpoffs=0 / crqpoffs=0 / rc=crf / crf=16.0 / qcomp=0.60 / qpstep=4 / stats-write=0 / stats-read=0 / vbv-maxrate=160000 / vbv-bufsize=160000 / vbv-init=0.9 / crf-max=0.0 / crf-min=0.0 / ipratio=1.40 / pbratio=1.30 / aq-mode=1 / aq-strength=1.00 / cutree / zone-count=0 / no-strict-cbr / qg-size=32 / no-rc-grain / qpmax=69 / qpmin=0 / no-const-vbv / sar=1 / overscan=0 / videoformat=5 / range=0 / colorprim=2 / transfer=2 / colormatrix=2 / chromaloc=0 / display-window=0 / max-cll=0,0 / min-luma=0 / max-luma=1023 / log2-max-poc-lsb=8 / vui-timing-info / vui-hrd-info / slices=1 / opt-qp-pps / opt-ref-list-length-pps / no-multi-pass-opt-rps / scenecut-bias=0.05 / no-opt-cu-delta-qp / no-aq-motion / no-hdr / no-hdr-opt / no-dhdr10-opt / no-idr-recovery-sei / analysis-reuse-level=5 / scale-factor=0 / refine-intra=0 / refine-inter=0 / refine-mv=0 / refine-ctu-distortion=0 / no-limit-sao / ctu-info=0 / no-lowpass-dct / refine-analysis-type=0 / copy-pic=1 / max-ausize-factor=1.0 / no-dynamic-refine / no-single-sei / no-hevc-aq / qp-adaptation-range=1.00
  22. Default                                  : Yes
  23. Forced                                   : No
  24. Audio #1
  25. ID                                       : 2
  26. Format                                   : DTS XLL
  27. Format/Info                              : Digital Theater Systems
  28. Commercial name                          : DTS-HD Master Audio
  29. Codec ID                                 : A_DTS
  30. Duration                                 : 2 h 8 min
  31. Bit rate mode                            : Variable
  32. Bit rate                                 : 4 079 kb/s
  33. Channel(s)                               : 6 channels
  34. Channel layout                           : C L R Ls Rs LFE
  35. Sampling rate                            : 48.0 kHz
  36. Frame rate                               : 93.750 FPS (512 SPF)
  37. Bit depth                                : 24 bits
  38. Compression mode                         : Lossless
  39. Stream size                              : 3.67 GiB (8%)
  40. Title                                    : Sherlock.Holmes.A.Game.of.Shadows.2011.2160p.BluRay.x265.10bit.SDR.DTS-HD.MA.5.1-SWTYBLZ
  41. Language                                 : English
  42. Default                                  : Yes
  43. Forced                                   : No
  44. Audio #2
  45. ID                                       : 3
  46. Format                                   : AC-3
  47. Format/Info                              : Audio Coding 3
  48. Commercial name                          : Dolby Digital
  49. Codec ID                                 : A_AC3
  50. Duration                                 : 2 h 8 min
  51. Bit rate mode                            : Constant
  52. Bit rate                                 : 640 kb/s
  53. Channel(s)                               : 6 channels
  54. Channel layout                           : L R C LFE Ls Rs
  55. Sampling rate                            : 48.0 kHz
  56. Frame rate                               : 31.250 FPS (1536 SPF)
  57. Compression mode                         : Lossy
  58. Stream size                              : 589 MiB (1%)
  59. Title                                    : Sherlock.Holmes.A.Game.of.Shadows.2011.2160p.BluRay.x265.10bit.SDR.DTS-HD.MA.5.1-SWTYBLZ
  60. Service kind                             : Complete Main
  61. Default                                  : No
  62. Forced                                   : No
  63. Text #1
  64. ID                                       : 4
  65. Format                                   : UTF-8
  66. Codec ID                                 : S_TEXT/UTF8
  67. Codec ID/Info                            : UTF-8 Plain Text
  68. Duration                                 : 1 h 59 min
  69. Bit rate                                 : 48 b/s
  70. Count of elements                        : 1180
  71. Stream size                              : 42.9 KiB (0%)
  72. Title                                    : English-SRT
  73. Language                                 : English
  74. Default                                  : Yes
  75. Forced                                   : No
  76. Text #2
  77. ID                                       : 5
  78. Format                                   : PGS
  79. Muxing mode                              : zlib
  80. Codec ID                                 : S_HDMV/PGS
  81. Codec ID/Info                            : Picture based subtitle format used on BDs/HD-DVDs
  82. Duration                                 : 1 h 59 min
  83. Bit rate                                 : 30.7 kb/s
  84. Count of elements                        : 2900
  85. Stream size                              : 26.3 MiB (0%)
  86. Title                                    : English-PGS
  87. Language                                 : English
  88. Default                                  : No
  89. Forced                                   : No
  90. Text #3
  91. ID                                       : 6
  92. Format                                   : PGS
  93. Muxing mode                              : zlib
  94. Codec ID                                 : S_HDMV/PGS
  95. Codec ID/Info                            : Picture based subtitle format used on BDs/HD-DVDs
  96. Duration                                 : 2 h 0 min
  97. Bit rate                                 : 13.1 kb/s
  98. Count of elements                        : 2684
  99. Stream size                              : 11.2 MiB (0%)
  100. Title                                    : Arabic-PGS
  101. Language                                 : Arabic
  102. Default                                  : No
  103. Forced                                   : No
  104. Text #4
  105. ID                                       : 7
  106. Format                                   : PGS
  107. Muxing mode                              : zlib
  108. Codec ID                                 : S_HDMV/PGS
  109. Codec ID/Info                            : Picture based subtitle format used on BDs/HD-DVDs
  110. Duration                                 : 2 h 8 min
  111. Bit rate                                 : 22.9 kb/s
  112. Count of elements                        : 2468
  113. Stream size                              : 21.0 MiB (0%)
  114. Title                                    : Bulgarian-PGS
  115. Language                                 : Bulgarian
  116. Default                                  : No
  117. Forced                                   : No
  118. Text #5
  119. ID                                       : 8
  120. Format                                   : PGS
  121. Muxing mode                              : zlib
  122. Codec ID                                 : S_HDMV/PGS
  123. Codec ID/Info                            : Picture based subtitle format used on BDs/HD-DVDs
  124. Duration                                 : 2 h 8 min
  125. Bit rate                                 : 20.1 kb/s
  126. Count of elements                        : 2408
  127. Stream size                              : 18.4 MiB (0%)
  128. Title                                    : Chinese-PGS
  129. Language                                 : Chinese
  130. Default                                  : No
  131. Forced                                   : No
  132. Text #6
  133. ID                                       : 9
  134. Format                                   : PGS
  135. Muxing mode                              : zlib
  136. Codec ID                                 : S_HDMV/PGS
  137. Codec ID/Info                            : Picture based subtitle format used on BDs/HD-DVDs
  138. Duration                                 : 2 h 8 min
  139. Bit rate                                 : 22.7 kb/s
  140. Count of elements                        : 2406
  141. Stream size                              : 20.8 MiB (0%)
  142. Title                                    : Chinese-PGS
  143. Language                                 : Chinese
  144. Default                                  : No
  145. Forced                                   : No
  146. Text #7
  147. ID                                       : 10
  148. Format                                   : PGS
  149. Muxing mode                              : zlib
  150. Codec ID                                 : S_HDMV/PGS
  151. Codec ID/Info                            : Picture based subtitle format used on BDs/HD-DVDs
  152. Duration                                 : 2 h 8 min
  153. Bit rate                                 : 20.6 kb/s
  154. Count of elements                        : 2436
  155. Stream size                              : 18.9 MiB (0%)
  156. Title                                    : Chinese-PGS
  157. Language                                 : Chinese
  158. Default                                  : No
  159. Forced                                   : No
  160. Text #8
  161. ID                                       : 11
  162. Format                                   : PGS
  163. Muxing mode                              : zlib
  164. Codec ID                                 : S_HDMV/PGS
  165. Codec ID/Info                            : Picture based subtitle format used on BDs/HD-DVDs
  166. Duration                                 : 2 h 8 min
  167. Bit rate                                 : 21.0 kb/s
  168. Count of elements                        : 1902
  169. Stream size                              : 19.3 MiB (0%)
  170. Title                                    : Croatian-PGS
  171. Language                                 : Croatian
  172. Default                                  : No
  173. Forced                                   : No
  174. Text #9
  175. ID                                       : 12
  176. Format                                   : PGS
  177. Muxing mode                              : zlib
  178. Codec ID                                 : S_HDMV/PGS
  179. Codec ID/Info                            : Picture based subtitle format used on BDs/HD-DVDs
  180. Duration                                 : 2 h 8 min
  181. Bit rate                                 : 21.7 kb/s
  182. Count of elements                        : 2390
  183. Stream size                              : 19.9 MiB (0%)
  184. Title                                    : Czech-PGS
  185. Language                                 : Czech
  186. Default                                  : No
  187. Forced                                   : No
  188. Text #10
  189. ID                                       : 13
  190. Format                                   : PGS
  191. Muxing mode                              : zlib
  192. Codec ID                                 : S_HDMV/PGS
  193. Codec ID/Info                            : Picture based subtitle format used on BDs/HD-DVDs
  194. Duration                                 : 2 h 8 min
  195. Bit rate                                 : 22.9 kb/s
  196. Count of elements                        : 1922
  197. Stream size                              : 21.0 MiB (0%)
  198. Title                                    : Danish-PGS
  199. Language                                 : Danish
  200. Default                                  : No
  201. Forced                                   : No
  202. Text #11
  203. ID                                       : 14
  204. Format                                   : PGS
  205. Muxing mode                              : zlib
  206. Codec ID                                 : S_HDMV/PGS
  207. Codec ID/Info                            : Picture based subtitle format used on BDs/HD-DVDs
  208. Duration                                 : 2 h 8 min
  209. Bit rate                                 : 21.5 kb/s
  210. Count of elements                        : 2090
  211. Stream size                              : 19.7 MiB (0%)
  212. Title                                    : Dutch-PGS
  213. Language                                 : Dutch
  214. Default                                  : No
  215. Forced                                   : No
  216. Text #12
  217. ID                                       : 15
  218. Format                                   : PGS
  219. Muxing mode                              : zlib
  220. Codec ID                                 : S_HDMV/PGS
  221. Codec ID/Info                            : Picture based subtitle format used on BDs/HD-DVDs
  222. Duration                                 : 2 h 8 min
  223. Bit rate                                 : 18.7 kb/s
  224. Count of elements                        : 2470
  225. Stream size                              : 17.1 MiB (0%)
  226. Title                                    : Estonian-PGS
  227. Language                                 : Estonian
  228. Default                                  : No
  229. Forced                                   : No
  230. Text #13
  231. ID                                       : 16
  232. Format                                   : PGS
  233. Muxing mode                              : zlib
  234. Codec ID                                 : S_HDMV/PGS
  235. Codec ID/Info                            : Picture based subtitle format used on BDs/HD-DVDs
  236. Duration                                 : 2 h 8 min
  237. Bit rate                                 : 20.7 kb/s
  238. Count of elements                        : 2048
  239. Stream size                              : 18.9 MiB (0%)
  240. Title                                    : Finnish-PGS
  241. Language                                 : Finnish
  242. Default                                  : No
  243. Forced                                   : No
  244. Text #14
  245. ID                                       : 17
  246. Format                                   : PGS
  247. Muxing mode                              : zlib
  248. Codec ID                                 : S_HDMV/PGS
  249. Codec ID/Info                            : Picture based subtitle format used on BDs/HD-DVDs
  250. Duration                                 : 2 h 8 min
  251. Bit rate                                 : 23.6 kb/s
  252. Count of elements                        : 2342
  253. Stream size                              : 21.7 MiB (0%)
  254. Title                                    : French-PGS
  255. Language                                 : French
  256. Default                                  : No
  257. Forced                                   : No
  258. Text #15
  259. ID                                       : 18
  260. Format                                   : PGS
  261. Muxing mode                              : zlib
  262. Codec ID                                 : S_HDMV/PGS
  263. Codec ID/Info                            : Picture based subtitle format used on BDs/HD-DVDs
  264. Duration                                 : 1 h 59 min
  265. Bit rate                                 : 36.5 kb/s
  266. Count of elements                        : 2996
  267. Stream size                              : 31.3 MiB (0%)
  268. Title                                    : German-PGS
  269. Language                                 : German
  270. Default                                  : No
  271. Forced                                   : No
  272. Text #16
  273. ID                                       : 19
  274. Format                                   : PGS
  275. Muxing mode                              : zlib
  276. Codec ID                                 : S_HDMV/PGS
  277. Codec ID/Info                            : Picture based subtitle format used on BDs/HD-DVDs
  278. Duration                                 : 2 h 8 min
  279. Bit rate                                 : 18.2 kb/s
  280. Count of elements                        : 2334
  281. Stream size                              : 16.7 MiB (0%)
  282. Title                                    : Hebrew-PGS
  283. Language                                 : Hebrew
  284. Default                                  : No
  285. Forced                                   : No
  286. Text #17
  287. ID                                       : 20
  288. Format                                   : PGS
  289. Muxing mode                              : zlib
  290. Codec ID                                 : S_HDMV/PGS
  291. Codec ID/Info                            : Picture based subtitle format used on BDs/HD-DVDs
  292. Duration                                 : 2 h 8 min
  293. Bit rate                                 : 21.8 kb/s
  294. Count of elements                        : 2246
  295. Stream size                              : 20.0 MiB (0%)
  296. Title                                    : Hungarian-PGS
  297. Language                                 : Hungarian
  298. Default                                  : No
  299. Forced                                   : No
  300. Text #18
  301. ID                                       : 21
  302. Format                                   : PGS
  303. Muxing mode                              : zlib
  304. Codec ID                                 : S_HDMV/PGS
  305. Codec ID/Info                            : Picture based subtitle format used on BDs/HD-DVDs
  306. Duration                                 : 2 h 8 min
  307. Bit rate                                 : 22.9 kb/s
  308. Count of elements                        : 2522
  309. Stream size                              : 21.0 MiB (0%)
  310. Title                                    : Icelandic-PGS
  311. Language                                 : Icelandic
  312. Default                                  : No
  313. Forced                                   : No
  314. Text #19
  315. ID                                       : 22
  316. Format                                   : PGS
  317. Muxing mode                              : zlib
  318. Codec ID                                 : S_HDMV/PGS
  319. Codec ID/Info                            : Picture based subtitle format used on BDs/HD-DVDs
  320. Duration                                 : 2 h 8 min
  321. Bit rate                                 : 26.6 kb/s
  322. Count of elements                        : 2402
  323. Stream size                              : 24.4 MiB (0%)
  324. Title                                    : Indonesian-PGS
  325. Language                                 : Indonesian
  326. Default                                  : No
  327. Forced                                   : No
  328. Text #20
  329. ID                                       : 23
  330. Format                                   : PGS
  331. Muxing mode                              : zlib
  332. Codec ID                                 : S_HDMV/PGS
  333. Codec ID/Info                            : Picture based subtitle format used on BDs/HD-DVDs
  334. Duration                                 : 2 h 8 min
  335. Bit rate                                 : 28.9 kb/s
  336. Count of elements                        : 2972
  337. Stream size                              : 26.5 MiB (0%)
  338. Title                                    : Italian-PGS
  339. Language                                 : Italian
  340. Default                                  : No
  341. Forced                                   : No
  342. Text #21
  343. ID                                       : 24
  344. Format                                   : PGS
  345. Muxing mode                              : zlib
  346. Codec ID                                 : S_HDMV/PGS
  347. Codec ID/Info                            : Picture based subtitle format used on BDs/HD-DVDs
  348. Duration                                 : 2 h 0 min
  349. Bit rate                                 : 19.2 kb/s
  350. Count of elements                        : 2500
  351. Stream size                              : 16.5 MiB (0%)
  352. Title                                    : Japanese-PGS
  353. Language                                 : Japanese
  354. Default                                  : No
  355. Forced                                   : No
  356. Text #22
  357. ID                                       : 25
  358. Format                                   : PGS
  359. Muxing mode                              : zlib
  360. Codec ID                                 : S_HDMV/PGS
  361. Codec ID/Info                            : Picture based subtitle format used on BDs/HD-DVDs
  362. Duration                                 : 1 h 59 min
  363. Bit rate                                 : 16.2 kb/s
  364. Count of elements                        : 2384
  365. Stream size                              : 13.9 MiB (0%)
  366. Title                                    : Korean-PGS
  367. Language                                 : Korean
  368. Default                                  : No
  369. Forced                                   : No
  370. Text #23
  371. ID                                       : 26
  372. Format                                   : PGS
  373. Muxing mode                              : zlib
  374. Codec ID                                 : S_HDMV/PGS
  375. Codec ID/Info                            : Picture based subtitle format used on BDs/HD-DVDs
  376. Duration                                 : 2 h 8 min
  377. Bit rate                                 : 17.8 kb/s
  378. Count of elements                        : 2494
  379. Stream size                              : 16.3 MiB (0%)
  380. Title                                    : Latvian-PSG
  381. Language                                 : Latvian
  382. Default                                  : No
  383. Forced                                   : No
  384. Text #24
  385. ID                                       : 27
  386. Format                                   : PGS
  387. Muxing mode                              : zlib
  388. Codec ID                                 : S_HDMV/PGS
  389. Codec ID/Info                            : Picture based subtitle format used on BDs/HD-DVDs
  390. Duration                                 : 2 h 8 min
  391. Bit rate                                 : 23.8 kb/s
  392. Count of elements                        : 2544
  393. Stream size                              : 21.8 MiB (0%)
  394. Title                                    : Lithuanian-PGS
  395. Language                                 : Lithuanian
  396. Default                                  : No
  397. Forced                                   : No
  398. Text #25
  399. ID                                       : 28
  400. Format                                   : PGS
  401. Muxing mode                              : zlib
  402. Codec ID                                 : S_HDMV/PGS
  403. Codec ID/Info                            : Picture based subtitle format used on BDs/HD-DVDs
  404. Duration                                 : 2 h 8 min
  405. Bit rate                                 : 22.0 kb/s
  406. Count of elements                        : 1938
  407. Stream size                              : 20.1 MiB (0%)
  408. Title                                    : Norwegian-PGS
  409. Language                                 : Norwegian
  410. Default                                  : No
  411. Forced                                   : No
  412. Text #26
  413. ID                                       : 29
  414. Format                                   : PGS
  415. Muxing mode                              : zlib
  416. Codec ID                                 : S_HDMV/PGS
  417. Codec ID/Info                            : Picture based subtitle format used on BDs/HD-DVDs
  418. Duration                                 : 2 h 8 min
  419. Bit rate                                 : 20.3 kb/s
  420. Count of elements                        : 2340
  421. Stream size                              : 18.6 MiB (0%)
  422. Title                                    : Polish-PGS
  423. Language                                 : Polish
  424. Default                                  : No
  425. Forced                                   : No
  426. Text #27
  427. ID                                       : 30
  428. Format                                   : PGS
  429. Muxing mode                              : zlib
  430. Codec ID                                 : S_HDMV/PGS
  431. Codec ID/Info                            : Picture based subtitle format used on BDs/HD-DVDs
  432. Duration                                 : 2 h 8 min
  433. Bit rate                                 : 23.8 kb/s
  434. Count of elements                        : 2450
  435. Stream size                              : 21.8 MiB (0%)
  436. Title                                    : Portuguese-PGS
  437. Language                                 : Portuguese
  438. Default                                  : No
  439. Forced                                   : No
  440. Text #28
  441. ID                                       : 31
  442. Format                                   : PGS
  443. Muxing mode                              : zlib
  444. Codec ID                                 : S_HDMV/PGS
  445. Codec ID/Info                            : Picture based subtitle format used on BDs/HD-DVDs
  446. Duration                                 : 2 h 8 min
  447. Bit rate                                 : 23.7 kb/s
  448. Count of elements                        : 2420
  449. Stream size                              : 21.7 MiB (0%)
  450. Title                                    : Portuguese-PGS
  451. Language                                 : Portuguese
  452. Default                                  : No
  453. Forced                                   : No
  454. Text #29
  455. ID                                       : 32
  456. Format                                   : PGS
  457. Muxing mode                              : zlib
  458. Codec ID                                 : S_HDMV/PGS
  459. Codec ID/Info                            : Picture based subtitle format used on BDs/HD-DVDs
  460. Duration                                 : 2 h 8 min
  461. Bit rate                                 : 23.0 kb/s
  462. Count of elements                        : 2364
  463. Stream size                              : 21.1 MiB (0%)
  464. Title                                    : Romanian-PGS
  465. Language                                 : Romanian
  466. Default                                  : No
  467. Forced                                   : No
  468. Text #30
  469. ID                                       : 33
  470. Format                                   : PGS
  471. Muxing mode                              : zlib
  472. Codec ID                                 : S_HDMV/PGS
  473. Codec ID/Info                            : Picture based subtitle format used on BDs/HD-DVDs
  474. Duration                                 : 2 h 8 min
  475. Bit rate                                 : 19.2 kb/s
  476. Count of elements                        : 2522
  477. Stream size                              : 17.6 MiB (0%)
  478. Title                                    : Russian-PGS
  479. Language                                 : Russian
  480. Default                                  : No
  481. Forced                                   : No
  482. Text #31
  483. ID                                       : 34
  484. Format                                   : PGS
  485. Muxing mode                              : zlib
  486. Codec ID                                 : S_HDMV/PGS
  487. Codec ID/Info                            : Picture based subtitle format used on BDs/HD-DVDs
  488. Duration                                 : 2 h 8 min
  489. Bit rate                                 : 21.4 kb/s
  490. Count of elements                        : 2384
  491. Stream size                              : 19.6 MiB (0%)
  492. Title                                    : Serbian-PGS
  493. Language                                 : Serbian
  494. Default                                  : No
  495. Forced                                   : No
  496. Text #32
  497. ID                                       : 35
  498. Format                                   : PGS
  499. Muxing mode                              : zlib
  500. Codec ID                                 : S_HDMV/PGS
  501. Codec ID/Info                            : Picture based subtitle format used on BDs/HD-DVDs
  502. Duration                                 : 2 h 8 min
  503. Bit rate                                 : 19.2 kb/s
  504. Count of elements                        : 1770
  505. Stream size                              : 17.6 MiB (0%)
  506. Title                                    : Slovenian-PGS
  507. Language                                 : Slovenian
  508. Default                                  : No
  509. Forced                                   : No
  510. Text #33
  511. ID                                       : 36
  512. Format                                   : PGS
  513. Muxing mode                              : zlib
  514. Codec ID                                 : S_HDMV/PGS
  515. Codec ID/Info                            : Picture based subtitle format used on BDs/HD-DVDs
  516. Duration                                 : 2 h 8 min
  517. Bit rate                                 : 23.2 kb/s
  518. Count of elements                        : 2502
  519. Stream size                              : 21.2 MiB (0%)
  520. Title                                    : Spanish-PGS
  521. Language                                 : Spanish
  522. Default                                  : No
  523. Forced                                   : No
  524. Text #34
  525. ID                                       : 37
  526. Format                                   : PGS
  527. Muxing mode                              : zlib
  528. Codec ID                                 : S_HDMV/PGS
  529. Codec ID/Info                            : Picture based subtitle format used on BDs/HD-DVDs
  530. Duration                                 : 2 h 8 min
  531. Bit rate                                 : 25.2 kb/s
  532. Count of elements                        : 2558
  533. Stream size                              : 23.1 MiB (0%)
  534. Title                                    : Spanish-PGS
  535. Language                                 : Spanish
  536. Default                                  : No
  537. Forced                                   : No
  538. Text #35
  539. ID                                       : 38
  540. Format                                   : PGS
  541. Muxing mode                              : zlib
  542. Codec ID                                 : S_HDMV/PGS
  543. Codec ID/Info                            : Picture based subtitle format used on BDs/HD-DVDs
  544. Duration                                 : 2 h 8 min
  545. Bit rate                                 : 22.3 kb/s
  546. Count of elements                        : 2004
  547. Stream size                              : 20.5 MiB (0%)
  548. Title                                    : Swedish-PGS
  549. Language                                 : Swedish
  550. Default                                  : No
  551. Forced                                   : No
  552. Text #36
  553. ID                                       : 39
  554. Format                                   : PGS
  555. Muxing mode                              : zlib
  556. Codec ID                                 : S_HDMV/PGS
  557. Codec ID/Info                            : Picture based subtitle format used on BDs/HD-DVDs
  558. Duration                                 : 2 h 8 min
  559. Bit rate                                 : 22.4 kb/s
  560. Count of elements                        : 2402
  561. Stream size                              : 20.6 MiB (0%)
  562. Title                                    : Thai-PGS
  563. Language                                 : Thai
  564. Default                                  : No
  565. Forced                                   : No
  566. Text #37
  567. ID                                       : 40
  568. Format                                   : PGS
  569. Muxing mode                              : zlib
  570. Codec ID                                 : S_HDMV/PGS
  571. Codec ID/Info                            : Picture based subtitle format used on BDs/HD-DVDs
  572. Duration                                 : 2 h 8 min
  573. Bit rate                                 : 23.1 kb/s
  574. Count of elements                        : 2472
  575. Stream size                              : 21.2 MiB (0%)
  576. Title                                    : Turkish-PGS
  577. Language                                 : Turkish
  578. Default                                  : No
  579. Forced                                   : No
  580. Menu
  581. 00:00:00.000                             : en:Chapter 1
  582. 00:09:17.891                             : en:Chapter 2
  583. 00:19:37.259                             : en:Chapter 3
  584. 00:30:46.470                             : en:Chapter 4
  585. 00:40:13.328                             : en:Chapter 5
  586. 00:50:28.651                             : en:Chapter 6
  587. 00:59:45.081                             : en:Chapter 7
  588. 01:09:20.448                             : en:Chapter 8
  589. 01:18:57.900                             : en:Chapter 9
  590. 01:30:08.320                             : en:Chapter 10
  591. 01:39:08.359                             : en:Chapter 11
  592. 01:49:50.000                             : en:Chapter 12
  593. 02:00:24.342                             : en:Chapter 13
复制代码





                                       
                                       

                                       
                                       
                                       




大侦察福尔摩斯2:诡影游戏/大侦察福尔摩斯2:阴影游戏 Sherlock.Holmes.A.Game.of.Shadows.2011.2160p.BluRay.x265.10bit.SDR.DTS-HD.MA.5.1-SWTYBLZ 43.76GB

Sherlock.Holmes.A.Game.of.Shadows.2011.2160p.BluRay.x265.10bit.SDR.DTS-HD.MA.5.1.zip

111.02 KB, 下载次数: 3, 下载积分: 蓝光币 -2

回复

使用道具 举报

懒得打字嘛,点击右侧快捷回复 【右侧内容,后台自定义】
您需要登录后才可以回帖 登录 | 立即加入

本版积分规则

Archiver|小黑屋| 蓝光电影网 |网站地图

Copyright © 2021 Comsenz Inc. Powered by 蓝光电影网

蓝光电影网

本站内容由用户自主分享和转载自互联网,转载目的在于传递更多信息,并不代表本网赞同其观点和对其真实性负责。

如有侵权、违反国家法律政策行为,请联系我们,我们会第一时间及时清除和处理!

举报反馈邮箱:[email protected]

快速回复 返回顶部 返回列表