找回密码

蓝光电影网

查看: 118|回复: 0

[2160p] 扑街野营 Boyz.in.the.Wood.2019.HDR.2160p.WEB.H265-NOGRP 9.34GB

[复制链接]
蓝光币
1082
发表于 2020-8-28 16:19:07 | 显示全部楼层 |阅读模式


◎译  名 扑街野营/Get Duked!
◎片  名 Boyz in the Wood
◎年  代 2020
◎产  地 英国
◎类  别 笑剧
◎语  言 英语
◎上映日期 2020-08-28(美国)
◎IMDb评分  6.8/10 from 213 users
◎IMDb链接  https://www.imdb.com/title/tt9735758/
◎豆瓣评分 /10 from 0 users
◎豆瓣链接 https://movie.douban.com/subject/30457664/
◎片  长 87分钟
◎导  演 尼尼安·多夫 Ninian Doff
◎编  剧 尼尼安·多夫 Ninian Doff
◎主  演 艾迪·伊扎德 Eddie Izzard
       凯特·迪基 Kate Dickie
       詹姆斯·科兹莫 James Cosmo
       凯文·格思里 Kevin Guthrie
       乔纳森·阿里斯 Jonathan Aris
       爱丽丝·洛维 Alice Lowe
       山缪尔·博顿利 Samuel Bottomley
       乔治·格伦 Georgie Glen
◎标  签 可骇 | 笑剧 | 惊悚 | 行动 | 英国 | 2019 | 英国电影 | 艾迪·伊扎德
◎简  介


  amazon original
◎获奖情况
  第22届英国自力电影奖 ?(2019)
  最好新人导演(提名) 尼尼安·多夫
  1. Video
  2. ID                                       : 1
  3. Format                                   : HEVC
  4. Format/Info                              : High Efficiency Video Coding
  5. Format profile                           : Main [email protected]@Main
  6. HDR format                               : SMPTE ST 2094 App 4, Version 1, HDR10+ Profile B compatible
  7. Codec ID                                 : V_MPEGH/ISO/HEVC
  8. Duration                                 : 1 h 26 min
  9. Bit rate                                 : 14.8 Mb/s
  10. Width                                    : 3 840 pixels
  11. Height                                   : 1 600 pixels
  12. Display aspect ratio                     : 2.40:1
  13. Frame rate mode                          : Constant
  14. Frame rate                               : 23.976 (24000/1001/189150) FPS
  15. Color space                              : YUV
  16. Chroma subsampling                       : 4:2:0
  17. Bit depth                                : 10 bits
  18. Bits/(Pixel*Frame)                       : 0.100
  19. Stream size                              : 8.94 GiB (96%)
  20. Default                                  : Yes
  21. Forced                                   : No
  22. Color range                              : Limited
  23. Color primaries                          : BT.2020
  24. Transfer characteristics                 : PQ
  25. Matrix coefficients                      : BT.2020 non-constant
  26. Mastering display color primaries        : Display P3
  27. Mastering display luminance              : min: 0.0001 cd/m2, max: 1000 cd/m2
  28. Maximum Content Light Level              : 10000 cd/m2
  29. Maximum Frame-Average Light Level        : 353 cd/m2
  30. Audio
  31. ID                                       : 2
  32. Format                                   : E-AC-3
  33. Format/Info                              : Enhanced AC-3
  34. Commercial name                          : Dolby Digital Plus
  35. Codec ID                                 : A_EAC3
  36. Duration                                 : 1 h 26 min
  37. Bit rate mode                            : Constant
  38. Bit rate                                 : 640 kb/s
  39. Channel(s)                               : 6 channels
  40. Channel layout                           : L R C LFE Ls Rs
  41. Sampling rate                            : 48.0 kHz
  42. Frame rate                               : 31.250 FPS (1536 SPF)
  43. Compression mode                         : Lossy
  44. Stream size                              : 397 MiB (4%)
  45. Language                                 : English
  46. Service kind                             : Complete Main
  47. Default                                  : No
  48. Forced                                   : No
  49. Text #1
  50. ID                                       : 3
  51. Format                                   : UTF-8
  52. Codec ID                                 : S_TEXT/UTF8
  53. Codec ID/Info                            : UTF-8 Plain Text
  54. Duration                                 : 1 h 26 min
  55. Bit rate                                 : 97 b/s
  56. Count of elements                        : 1848
  57. Stream size                              : 61.5 KiB (0%)
  58. Title                                    : English [CC]
  59. Language                                 : English
  60. Default                                  : Yes
  61. Forced                                   : No
  62. Text #2
  63. ID                                       : 4
  64. Format                                   : UTF-8
  65. Codec ID                                 : S_TEXT/UTF8
  66. Codec ID/Info                            : UTF-8 Plain Text
  67. Duration                                 : 50 min 14 s
  68. Bit rate                                 : 1 b/s
  69. Count of elements                        : 17
  70. Stream size                              : 575 Bytes (0%)
  71. Title                                    : German Forced Narrative
  72. Language                                 : German
  73. Default                                  : No
  74. Forced                                   : Yes
  75. Text #3
  76. ID                                       : 5
  77. Format                                   : UTF-8
  78. Codec ID                                 : S_TEXT/UTF8
  79. Codec ID/Info                            : UTF-8 Plain Text
  80. Duration                                 : 1 h 25 min
  81. Bit rate                                 : 62 b/s
  82. Count of elements                        : 1309
  83. Stream size                              : 39.2 KiB (0%)
  84. Title                                    : Bahasa Melayu
  85. Language                                 : Malay
  86. Default                                  : No
  87. Forced                                   : No
  88. Text #4
  89. ID                                       : 6
  90. Format                                   : UTF-8
  91. Codec ID                                 : S_TEXT/UTF8
  92. Codec ID/Info                            : UTF-8 Plain Text
  93. Duration                                 : 1 h 25 min
  94. Bit rate                                 : 63 b/s
  95. Count of elements                        : 1289
  96. Stream size                              : 39.9 KiB (0%)
  97. Title                                    : Dansk
  98. Language                                 : Danish
  99. Default                                  : No
  100. Forced                                   : No
  101. Text #5
  102. ID                                       : 7
  103. Format                                   : UTF-8
  104. Codec ID                                 : S_TEXT/UTF8
  105. Codec ID/Info                            : UTF-8 Plain Text
  106. Duration                                 : 1 h 21 min
  107. Bit rate                                 : 63 b/s
  108. Count of elements                        : 1296
  109. Stream size                              : 38.0 KiB (0%)
  110. Title                                    : Deutsch
  111. Language                                 : German
  112. Default                                  : No
  113. Forced                                   : No
  114. Text #6
  115. ID                                       : 8
  116. Format                                   : UTF-8
  117. Codec ID                                 : S_TEXT/UTF8
  118. Codec ID/Info                            : UTF-8 Plain Text
  119. Duration                                 : 1 h 25 min
  120. Bit rate                                 : 60 b/s
  121. Count of elements                        : 1302
  122. Stream size                              : 38.1 KiB (0%)
  123. Title                                    : Espa?ol (Espa?a)
  124. Language                                 : Spanish
  125. Default                                  : No
  126. Forced                                   : No
  127. Text #7
  128. ID                                       : 9
  129. Format                                   : UTF-8
  130. Codec ID                                 : S_TEXT/UTF8
  131. Codec ID/Info                            : UTF-8 Plain Text
  132. Duration                                 : 1 h 25 min
  133. Bit rate                                 : 64 b/s
  134. Count of elements                        : 1300
  135. Stream size                              : 40.6 KiB (0%)
  136. Title                                    : Espa?ol (Latinoamérica)
  137. Language                                 : Spanish
  138. Default                                  : No
  139. Forced                                   : No
  140. Text #8
  141. ID                                       : 10
  142. Format                                   : UTF-8
  143. Codec ID                                 : S_TEXT/UTF8
  144. Codec ID/Info                            : UTF-8 Plain Text
  145. Duration                                 : 1 h 25 min
  146. Bit rate                                 : 59 b/s
  147. Count of elements                        : 1290
  148. Stream size                              : 37.7 KiB (0%)
  149. Title                                    : Fran?ais
  150. Language                                 : French
  151. Default                                  : No
  152. Forced                                   : No
  153. Text #9
  154. ID                                       : 11
  155. Format                                   : UTF-8
  156. Codec ID                                 : S_TEXT/UTF8
  157. Codec ID/Info                            : UTF-8 Plain Text
  158. Duration                                 : 1 h 25 min
  159. Bit rate                                 : 64 b/s
  160. Count of elements                        : 1291
  161. Stream size                              : 40.3 KiB (0%)
  162. Title                                    : Indonesia
  163. Language                                 : Indonesian
  164. Default                                  : No
  165. Forced                                   : No
  166. Text #10
  167. ID                                       : 12
  168. Format                                   : UTF-8
  169. Codec ID                                 : S_TEXT/UTF8
  170. Codec ID/Info                            : UTF-8 Plain Text
  171. Duration                                 : 1 h 25 min
  172. Bit rate                                 : 56 b/s
  173. Count of elements                        : 1300
  174. Stream size                              : 35.6 KiB (0%)
  175. Title                                    : Italiano
  176. Language                                 : Italian
  177. Default                                  : No
  178. Forced                                   : No
  179. Text #11
  180. ID                                       : 13
  181. Format                                   : UTF-8
  182. Codec ID                                 : S_TEXT/UTF8
  183. Codec ID/Info                            : UTF-8 Plain Text
  184. Duration                                 : 1 h 25 min
  185. Bit rate                                 : 53 b/s
  186. Count of elements                        : 1221
  187. Stream size                              : 33.5 KiB (0%)
  188. Title                                    : Nederlands
  189. Language                                 : Dutch
  190. Default                                  : No
  191. Forced                                   : No
  192. Text #12
  193. ID                                       : 14
  194. Format                                   : UTF-8
  195. Codec ID                                 : S_TEXT/UTF8
  196. Codec ID/Info                            : UTF-8 Plain Text
  197. Duration                                 : 1 h 25 min
  198. Bit rate                                 : 62 b/s
  199. Count of elements                        : 1284
  200. Stream size                              : 39.2 KiB (0%)
  201. Title                                    : Norsk Bokm?l
  202. Language                                 : Norwegian
  203. Default                                  : No
  204. Forced                                   : No
  205. Text #13
  206. ID                                       : 15
  207. Format                                   : UTF-8
  208. Codec ID                                 : S_TEXT/UTF8
  209. Codec ID/Info                            : UTF-8 Plain Text
  210. Duration                                 : 1 h 25 min
  211. Bit rate                                 : 61 b/s
  212. Count of elements                        : 1301
  213. Stream size                              : 38.8 KiB (0%)
  214. Title                                    : Polski
  215. Language                                 : Polish
  216. Default                                  : No
  217. Forced                                   : No
  218. Text #14
  219. ID                                       : 16
  220. Format                                   : UTF-8
  221. Codec ID                                 : S_TEXT/UTF8
  222. Codec ID/Info                            : UTF-8 Plain Text
  223. Duration                                 : 1 h 21 min
  224. Bit rate                                 : 64 b/s
  225. Count of elements                        : 1298
  226. Stream size                              : 38.3 KiB (0%)
  227. Title                                    : Português (Brasil)
  228. Language                                 : Portuguese
  229. Default                                  : No
  230. Forced                                   : No
  231. Text #15
  232. ID                                       : 17
  233. Format                                   : UTF-8
  234. Codec ID                                 : S_TEXT/UTF8
  235. Codec ID/Info                            : UTF-8 Plain Text
  236. Duration                                 : 1 h 25 min
  237. Bit rate                                 : 62 b/s
  238. Count of elements                        : 1290
  239. Stream size                              : 39.2 KiB (0%)
  240. Title                                    : Português (Portugal)
  241. Language                                 : Portuguese
  242. Default                                  : No
  243. Forced                                   : No
  244. Text #16
  245. ID                                       : 18
  246. Format                                   : UTF-8
  247. Codec ID                                 : S_TEXT/UTF8
  248. Codec ID/Info                            : UTF-8 Plain Text
  249. Duration                                 : 1 h 25 min
  250. Bit rate                                 : 61 b/s
  251. Count of elements                        : 1274
  252. Stream size                              : 38.7 KiB (0%)
  253. Title                                    : Suomi
  254. Language                                 : Finnish
  255. Default                                  : No
  256. Forced                                   : No
  257. Text #17
  258. ID                                       : 19
  259. Format                                   : UTF-8
  260. Codec ID                                 : S_TEXT/UTF8
  261. Codec ID/Info                            : UTF-8 Plain Text
  262. Duration                                 : 1 h 25 min
  263. Bit rate                                 : 60 b/s
  264. Count of elements                        : 1227
  265. Stream size                              : 38.2 KiB (0%)
  266. Title                                    : Svenska
  267. Language                                 : Swedish
  268. Default                                  : No
  269. Forced                                   : No
  270. Text #18
  271. ID                                       : 20
  272. Format                                   : UTF-8
  273. Codec ID                                 : S_TEXT/UTF8
  274. Codec ID/Info                            : UTF-8 Plain Text
  275. Duration                                 : 1 h 25 min
  276. Bit rate                                 : 65 b/s
  277. Count of elements                        : 1297
  278. Stream size                              : 41.4 KiB (0%)
  279. Title                                    : Tl
  280. Language                                 : Tagalog
  281. Default                                  : No
  282. Forced                                   : No
  283. Text #19
  284. ID                                       : 21
  285. Format                                   : UTF-8
  286. Codec ID                                 : S_TEXT/UTF8
  287. Codec ID/Info                            : UTF-8 Plain Text
  288. Duration                                 : 1 h 25 min
  289. Bit rate                                 : 60 b/s
  290. Count of elements                        : 1303
  291. Stream size                              : 37.8 KiB (0%)
  292. Title                                    : Türk?e
  293. Language                                 : Turkish
  294. Default                                  : No
  295. Forced                                   : No
  296. Text #20
  297. ID                                       : 22
  298. Format                                   : UTF-8
  299. Codec ID                                 : S_TEXT/UTF8
  300. Codec ID/Info                            : UTF-8 Plain Text
  301. Duration                                 : 1 h 25 min
  302. Bit rate                                 : 95 b/s
  303. Count of elements                        : 1287
  304. Stream size                              : 59.9 KiB (0%)
  305. Title                                    : Русский
  306. Language                                 : Russian
  307. Default                                  : No
  308. Forced                                   : No
  309. Text #21
  310. ID                                       : 23
  311. Format                                   : UTF-8
  312. Codec ID                                 : S_TEXT/UTF8
  313. Codec ID/Info                            : UTF-8 Plain Text
  314. Duration                                 : 1 h 25 min
  315. Bit rate                                 : 88 b/s
  316. Count of elements                        : 1305
  317. Stream size                              : 55.7 KiB (0%)
  318. Title                                    : ?????
  319. Language                                 : Hebrew
  320. Default                                  : No
  321. Forced                                   : No
  322. Text #22
  323. ID                                       : 24
  324. Format                                   : UTF-8
  325. Codec ID                                 : S_TEXT/UTF8
  326. Codec ID/Info                            : UTF-8 Plain Text
  327. Duration                                 : 1 h 25 min
  328. Bit rate                                 : 102 b/s
  329. Count of elements                        : 1306
  330. Stream size                              : 64.3 KiB (0%)
  331. Title                                    : ???????
  332. Language                                 : Arabic
  333. Default                                  : No
  334. Forced                                   : No
  335. Text #23
  336. ID                                       : 25
  337. Format                                   : UTF-8
  338. Codec ID                                 : S_TEXT/UTF8
  339. Codec ID/Info                            : UTF-8 Plain Text
  340. Duration                                 : 1 h 25 min
  341. Bit rate                                 : 167 b/s
  342. Count of elements                        : 1304
  343. Stream size                              : 105 KiB (0%)
  344. Title                                    : ??????
  345. Language                                 : Hindi
  346. Default                                  : No
  347. Forced                                   : No
  348. Text #24
  349. ID                                       : 26
  350. Format                                   : UTF-8
  351. Codec ID                                 : S_TEXT/UTF8
  352. Codec ID/Info                            : UTF-8 Plain Text
  353. Duration                                 : 1 h 25 min
  354. Bit rate                                 : 201 b/s
  355. Count of elements                        : 1304
  356. Stream size                              : 127 KiB (0%)
  357. Title                                    : ?????
  358. Language                                 : Tamil
  359. Default                                  : No
  360. Forced                                   : No
  361. Text #25
  362. ID                                       : 27
  363. Format                                   : UTF-8
  364. Codec ID                                 : S_TEXT/UTF8
  365. Codec ID/Info                            : UTF-8 Plain Text
  366. Duration                                 : 1 h 25 min
  367. Bit rate                                 : 173 b/s
  368. Count of elements                        : 1303
  369. Stream size                              : 109 KiB (0%)
  370. Title                                    : ??????
  371. Language                                 : Telugu
  372. Default                                  : No
  373. Forced                                   : No
  374. Text #26
  375. ID                                       : 28
  376. Format                                   : UTF-8
  377. Codec ID                                 : S_TEXT/UTF8
  378. Codec ID/Info                            : UTF-8 Plain Text
  379. Duration                                 : 1 h 25 min
  380. Bit rate                                 : 153 b/s
  381. Count of elements                        : 1304
  382. Stream size                              : 96.4 KiB (0%)
  383. Title                                    : ???
  384. Language                                 : Thai
  385. Default                                  : No
  386. Forced                                   : No
  387. Text #27
  388. ID                                       : 29
  389. Format                                   : UTF-8
  390. Codec ID                                 : S_TEXT/UTF8
  391. Codec ID/Info                            : UTF-8 Plain Text
  392. Duration                                 : 1 h 25 min
  393. Bit rate                                 : 65 b/s
  394. Count of elements                        : 1304
  395. Stream size                              : 41.3 KiB (0%)
  396. Title                                    : 中文(简体)
  397. Language                                 : Chinese
  398. Default                                  : No
  399. Forced                                   : No
  400. Text #28
  401. ID                                       : 30
  402. Format                                   : UTF-8
  403. Codec ID                                 : S_TEXT/UTF8
  404. Codec ID/Info                            : UTF-8 Plain Text
  405. Duration                                 : 1 h 25 min
  406. Bit rate                                 : 58 b/s
  407. Count of elements                        : 1304
  408. Stream size                              : 36.7 KiB (0%)
  409. Title                                    : 中文(繁體)
  410. Language                                 : Chinese
  411. Default                                  : No
  412. Forced                                   : No
  413. Text #29
  414. ID                                       : 31
  415. Format                                   : UTF-8
  416. Codec ID                                 : S_TEXT/UTF8
  417. Codec ID/Info                            : UTF-8 Plain Text
  418. Duration                                 : 1 h 25 min
  419. Bit rate                                 : 55 b/s
  420. Count of elements                        : 1444
  421. Stream size                              : 35.1 KiB (0%)
  422. Title                                    : 日本語
  423. Language                                 : Japanese
  424. Default                                  : No
  425. Forced                                   : No
  426. Text #30
  427. ID                                       : 32
  428. Format                                   : UTF-8
  429. Codec ID                                 : S_TEXT/UTF8
  430. Codec ID/Info                            : UTF-8 Plain Text
  431. Duration                                 : 1 h 25 min
  432. Bit rate                                 : 69 b/s
  433. Count of elements                        : 1304
  434. Stream size                              : 43.6 KiB (0%)
  435. Title                                    : ???
  436. Language                                 : Korean
  437. Default                                  : No
  438. Forced                                   : No
复制代码



                                       
                                       

                                       
                                       
                                       




回复

使用道具 举报

懒得打字嘛,点击右侧快捷回复 【右侧内容,后台自定义】
您需要登录后才可以回帖 登录 | 立即加入

本版积分规则

Archiver|小黑屋| 蓝光电影网 |网站地图

Copyright © 2021 Comsenz Inc. Powered by 蓝光电影网

蓝光电影网

本站内容由用户自主分享和转载自互联网,转载目的在于传递更多信息,并不代表本网赞同其观点和对其真实性负责。

如有侵权、违反国家法律政策行为,请联系我们,我们会第一时间及时清除和处理!

举报反馈邮箱:[email protected]

快速回复 返回顶部 返回列表