找回密码

蓝光电影网

查看: 168|回复: 0

[UHD.HEVC] 圣诞顽童历险记 Game.Over.1989.FRENCH.2160p.BluRay.REMUX.HEVC.DTS-HD.MA.2.0-FGT 59.03GB

[复制链接]
蓝光币
1084
发表于 2020-12-8 18:44:52 | 显示全部楼层 |阅读模式
[img][/img]

◎译  名 圣诞顽童历险记/Dial Code Santa Claus/Game Over/Hide and Freak/圣诞历险记
◎片  名 3615 code Père No?l
◎年  代 1989
◎产  地 法国
◎类  别 行动 / 惊悚 / 可骇
◎语  言 法语
◎上映日期 1990-01-17
◎IMDb评分  6.4/10 from 1186 users
◎IMDb链接  https://www.imdb.com/title/tt0096741/
◎豆瓣评分 /10 from 0 users
◎豆瓣链接 https://movie.douban.com/subject/2226523/
◎片  长 87 分钟
◎导  演 雷内·曼佐 René Manzor
◎编  剧 雷内·曼佐 René Manzor
◎主  演 布丽吉特·佛西 Brigitte Fossey
       路易斯·迪克勒 Louis Ducreux
       Alain Lalanne
       弗朗索瓦-埃里克·金德伦 Fran?ois-Eric Gendron
       雷内·曼佐 René Manzor
◎标  签 法国 | 圣诞 | 惊悚 | 可骇 | 电影 | 儿童 | No?l(1989) | code
◎简  介


  一个会玩电脑、脱手才能超强的男孩和母亲、爷爷住在一栋大屋子里,圣诞节他要求圣诞老人抵家办事,成果上门的是个杀人的疯子!
  
  他操纵各类玩具、工具和疯子在家中周旋……最初带爷爷逃走。
  1. Video
  2. ID                                       : 1
  3. ID in the original source medium         : 4113 (0x1011)
  4. Format                                   : HEVC
  5. Format/Info                              : High Efficiency Video Coding
  6. Format profile                           : Main [email protected]@High
  7. HDR format                               : SMPTE ST 2086, HDR10 compatible
  8. Codec ID                                 : V_MPEGH/ISO/HEVC
  9. Duration                                 : 1 h 31 min
  10. Bit rate                                 : 89.7 Mb/s
  11. Width                                    : 3 840 pixels
  12. Height                                   : 2 160 pixels
  13. Display aspect ratio                     : 16:9
  14. Frame rate mode                          : Constant
  15. Frame rate                               : 23.976 (24000/1001/189150) FPS
  16. Color space                              : YUV
  17. Chroma subsampling                       : 4:2:0 (Type 2)
  18. Bit depth                                : 10 bits
  19. Bits/(Pixel*Frame)                       : 0.451
  20. Stream size                              : 57.2 GiB (97%)
  21. Title                                    : Game.Over.1989.FRENCH.2160p.BluRay.REMUX.HEVC.DTS-HD.MA.2.0-FGT
  22. Language                                 : French
  23. Default                                  : No
  24. Forced                                   : No
  25. Color range                              : Limited
  26. Color primaries                          : BT.2020
  27. Transfer characteristics                 : PQ
  28. Matrix coefficients                      : BT.2020 non-constant
  29. Mastering display color primaries        : BT.2020
  30. Mastering display luminance              : min: 0.0001 cd/m2, max: 1000 cd/m2
  31. Maximum Content Light Level              : 1000 cd/m2
  32. Maximum Frame-Average Light Level        : 400 cd/m2
  33. Original source medium                   : Blu-ray
  34. Audio #1
  35. ID                                       : 2
  36. ID in the original source medium         : 4352 (0x1100)
  37. Format                                   : DTS XLL
  38. Format/Info                              : Digital Theater Systems
  39. Commercial name                          : DTS-HD Master Audio
  40. Codec ID                                 : A_DTS
  41. Duration                                 : 1 h 31 min
  42. Bit rate mode                            : Variable
  43. Bit rate                                 : 2 141 kb/s
  44. Channel(s)                               : 2 channels
  45. Channel layout                           : L R
  46. Sampling rate                            : 48.0 kHz
  47. Frame rate                               : 93.750 FPS (512 SPF)
  48. Bit depth                                : 24 bits
  49. Compression mode                         : Lossless
  50. Stream size                              : 1.37 GiB (2%)
  51. Title                                    : Game.Over.1989.FRENCH.2160p.BluRay.REMUX.HEVC.DTS-HD.MA.2.0-FGT
  52. Language                                 : French
  53. Default                                  : Yes
  54. Forced                                   : No
  55. Original source medium                   : Blu-ray
  56. Audio #2
  57. ID                                       : 3
  58. Format                                   : AC-3
  59. Format/Info                              : Audio Coding 3
  60. Commercial name                          : Dolby Digital
  61. Codec ID                                 : A_AC3
  62. Duration                                 : 1 h 31 min
  63. Bit rate mode                            : Constant
  64. Bit rate                                 : 640 kb/s
  65. Channel(s)                               : 2 channels
  66. Channel layout                           : L R
  67. Sampling rate                            : 48.0 kHz
  68. Frame rate                               : 31.250 FPS (1536 SPF)
  69. Compression mode                         : Lossy
  70. Stream size                              : 418 MiB (1%)
  71. Title                                    : Game.Over.1989.FRENCH.2160p.BluRay.REMUX.HEVC.DTS-HD.MA.2.0-FGT
  72. Language                                 : French
  73. Service kind                             : Complete Main
  74. Default                                  : No
  75. Forced                                   : No
  76. Text #1
  77. ID                                       : 4
  78. Format                                   : UTF-8
  79. Codec ID                                 : S_TEXT/UTF8
  80. Codec ID/Info                            : UTF-8 Plain Text
  81. Duration                                 : 1 h 28 min
  82. Bit rate                                 : 27 b/s
  83. Count of elements                        : 504
  84. Stream size                              : 17.9 KiB (0%)
  85. Title                                    : English-SRT
  86. Language                                 : English
  87. Default                                  : Yes
  88. Forced                                   : No
  89. Text #2
  90. ID                                       : 5
  91. ID in the original source medium         : 4768 (0x12A0)
  92. Format                                   : PGS
  93. Muxing mode                              : zlib
  94. Codec ID                                 : S_HDMV/PGS
  95. Codec ID/Info                            : Picture based subtitle format used on BDs/HD-DVDs
  96. Duration                                 : 1 h 28 min
  97. Bit rate                                 : 12.7 kb/s
  98. Count of elements                        : 1230
  99. Stream size                              : 8.02 MiB (0%)
  100. Title                                    : English-PGS
  101. Language                                 : English
  102. Default                                  : No
  103. Forced                                   : No
  104. Original source medium                   : Blu-ray
  105. Menu
  106. 00:00:00.000                             : en:Chapter 01
  107. 00:18:59.930                             : en:Chapter 02
  108. 00:37:44.011                             : en:Chapter 03
  109. 00:57:48.798                             : en:Chapter 04
  110. 01:16:57.112                             : en:Chapter 05
复制代码



                                       
                                       

                                       
                                       
                                       




回复

使用道具 举报

懒得打字嘛,点击右侧快捷回复 【右侧内容,后台自定义】
您需要登录后才可以回帖 登录 | 立即加入

本版积分规则

Archiver|小黑屋| 蓝光电影网 |网站地图

Copyright © 2021 Comsenz Inc. Powered by 蓝光电影网

蓝光电影网

本站内容由用户自主分享和转载自互联网,转载目的在于传递更多信息,并不代表本网赞同其观点和对其真实性负责。

如有侵权、违反国家法律政策行为,请联系我们,我们会第一时间及时清除和处理!

举报反馈邮箱:[email protected]

快速回复 返回顶部 返回列表