找回密码

蓝光电影网

查看: 56|回复: 0

[2160p] 化学心脏/化学感应 Chemical.Hearts.2020.2160p.WEB.H265-NOGRP 7.20GB

[复制链接]
蓝光币
1082
发表于 2020-8-21 20:57:57 | 显示全部楼层 |阅读模式


◎译  名 化学心脏/化学感应
◎片  名 Chemical Hearts
◎年  代 2020
◎产  地 美国
◎类  别 剧情 / 恋爱
◎语  言 英语
◎上映日期 2020-08-21(美国)
◎IMDb链接  https://www.imdb.com/title/tt5843876/
◎豆瓣评分 /10 from 0 users
◎豆瓣链接 https://movie.douban.com/subject/34875592/
◎导  演 理查德·塔恩 Richard Tanne
◎编  剧 理查德·塔恩 Richard Tanne
◎主  演 丽丽·莱因哈特 Lili Reinhart
       奥斯汀·艾布拉姆斯 Austin Abrams
       莎拉·琼斯 Sarah Jones
       卡洛儿·佩尼亚 Coral Pe?a
       C.J.霍夫 C.J. Hoff
       香农·沃尔什 Shannon Walsh
       布鲁斯·奥尔特曼 Bruce Altman
       梅格吉普森 Meg Gibson
       阿德希尔·卡尔安 Adhir Kalyan
       罗伯特·克洛赫赛 Robert Clohessy
       凯瑟琳·科廷 Catherine Curtin
◎标  签 恋爱 | 校园 | 青春 | 美国电影 | 2020 | 美国 | 剧情 | 改编
◎简  介


  据称将聚焦一段加倍暗黑、疼痛、现实的校园恋爱:一个奥秘的女孩新进入一所黉舍,她喜好穿松垮的衣服,走路一瘸一拐。女孩加入了校报编辑部,让一个同事男孩没法忘记。当他渐渐接近她,将进修到自己从未设想过的初恋、心碎、落空。
  1. Video
  2. ID                                       : 1
  3. Format                                   : HEVC
  4. Format/Info                              : High Efficiency Video Coding
  5. Format profile                           : [email protected]@Main
  6. Codec ID                                 : V_MPEGH/ISO/HEVC
  7. Duration                                 : 1 h 33 min
  8. Bit rate                                 : 10.4 Mb/s
  9. Width                                    : 3 840 pixels
  10. Height                                   : 1 600 pixels
  11. Display aspect ratio                     : 2.40:1
  12. Frame rate mode                          : Constant
  13. Frame rate                               : 23.976 (24000/1001/189150) FPS
  14. Standard                                 : NTSC
  15. Color space                              : YUV
  16. Chroma subsampling                       : 4:2:0
  17. Bit depth                                : 8 bits
  18. Bits/(Pixel*Frame)                       : 0.071
  19. Stream size                              : 6.78 GiB (94%)
  20. Writing library                          : x265 2.9_elemental9e0607aa5b6f:[Linux][GCC 4.8.5][64 bit] 8bit+10bit+12bit
  21. Encoding settings                        : cpuid=1111039 / frame-threads=2 / wpp / no-pmode / no-pme / psnr / ssim / log-level=2 / csv / csv-log-level=2 / input-csp=1 / input-res=3840x1600 / interlace=0 / total-frames=0 / level-idc=50 / high-tier=1 / uhd-bd=0 / ref=5 / no-allow-non-conformance / no-repeat-headers / annexb / no-aud / no-hrd / info / hash=0 / no-temporal-layers / no-open-gop / min-keyint=61 / keyint=120 / gop-lookahead=0 / bframes=8 / b-adapt=2 / b-pyramid / bframe-bias=0 / rc-lookahead=120 / lookahead-slices=4 / scenecut=0 / radl=0 / no-intra-refresh / ctu=64 / min-cu-size=8 / rect / amp / max-tu-size=32 / tu-inter-depth=4 / tu-intra-depth=4 / limit-tu=4 / rdoq-level=2 / dynamic-rd=0.00 / no-ssim-rd / signhide / tskip / nr-intra=100 / nr-inter=600 / no-constrained-intra / strong-intra-smoothing / max-merge=3 / limit-refs=3 / limit-modes / me=3 / subme=3 / merange=57 / temporal-mvp / weightp / weightb / no-analyze-src-pics / deblock=0:0 / no-sao / no-sao-non-deblock / rd=4 / no-early-skip / no-rskip / no-fast-intra / tskip-fast / no-cu-lossless / b-intra / no-splitrd-skip / rdpenalty=0 / psy-rd=4.00 / psy-rdoq=10.00 / no-rd-refine / no-lossless / cbqpoffs=0 / crqpoffs=0 / rc=crf / crf=25.0 / qcomp=0.60 / qpstep=1 / stats-write=0 / stats-read=0 / vbv-maxrate=15000 / vbv-bufsize=20000 / vbv-init=0.9 / crf-max=0.0 / crf-min=0.0 / ipratio=1.10 / pbratio=1.00 / aq-mode=0 / aq-strength=1.50 / no-cutree / zone-count=0 / no-strict-cbr / qg-size=32 / rc-grain / qpmax=69 / qpmin=0 / const-vbv / sar=1 / overscan=0 / videoformat=2 / range=0 / colorprim=1 / transfer=1 / colormatrix=1 / chromaloc=0 / display-window=0 / max-cll=0,0 / min-luma=0 / max-luma=255 / log2-max-poc-lsb=8 / vui-timing-info / vui-hrd-info / slices=1 / opt-qp-pps / no-opt-ref-list-length-pps / no-multi-pass-opt-rps / scenecut-bias=0.05 / no-opt-cu-delta-qp / no-aq-motion / no-hdr / no-hdr-opt / no-dhdr10-opt / no-idr-recovery-sei / analysis-reuse-level=5 / scale-factor=0 / refine-intra=0 / refine-inter=0 / refine-mv=0 / no-limit-sao / ctu-info=0 / no-lowpass-dct / refine-mv-type=0 / copy-pic=1 / max-ausize-factor=1.0 / no-dynamic-refine / no-single-sei
  22. Default                                  : Yes
  23. Forced                                   : No
  24. Color range                              : Limited
  25. Color primaries                          : BT.709
  26. Transfer characteristics                 : BT.709
  27. Matrix coefficients                      : BT.709

  28. Audio
  29. ID                                       : 2
  30. Format                                   : E-AC-3
  31. Format/Info                              : Enhanced AC-3
  32. Commercial name                          : Dolby Digital Plus
  33. Codec ID                                 : A_EAC3
  34. Duration                                 : 1 h 33 min
  35. Bit rate mode                            : Constant
  36. Bit rate                                 : 640 kb/s
  37. Channel(s)                               : 6 channels
  38. Channel layout                           : L R C LFE Ls Rs
  39. Sampling rate                            : 48.0 kHz
  40. Frame rate                               : 31.250 FPS (1536 SPF)
  41. Compression mode                         : Lossy
  42. Stream size                              : 426 MiB (6%)
  43. Title                                    : English
  44. Language                                 : English
  45. Service kind                             : Complete Main
  46. Default                                  : No
  47. Forced                                   : No

  48. Text
  49. ID                                       : 3
  50. Format                                   : UTF-8
  51. Codec ID                                 : S_TEXT/UTF8
  52. Codec ID/Info                            : UTF-8 Plain Text
  53. Duration                                 : 1 h 32 min
  54. Bit rate                                 : 59 b/s
  55. Count of elements                        : 1352
  56. Stream size                              : 40.6 KiB (0%)
  57. Title                                    : English (SDH)
  58. Language                                 : English
  59. Default                                  : Yes
  60. Forced                                   : No
复制代码





                                       
                                       

                                       
                                       
                                       




回复

使用道具 举报

懒得打字嘛,点击右侧快捷回复 【右侧内容,后台自定义】
您需要登录后才可以回帖 登录 | 立即加入

本版积分规则

Archiver|小黑屋| 蓝光电影网 |网站地图

Copyright © 2021 Comsenz Inc. Powered by 蓝光电影网

蓝光电影网

本站内容由用户自主分享和转载自互联网,转载目的在于传递更多信息,并不代表本网赞同其观点和对其真实性负责。

如有侵权、违反国家法律政策行为,请联系我们,我们会第一时间及时清除和处理!

举报反馈邮箱:[email protected]

快速回复 返回顶部 返回列表