找回密码

蓝光电影网

查看: 60|回复: 0

[2160p] 独一无二的伊万/独一无二的伊凡 The.One.and.Only.Ivan.2020.HDR.2160p.WEB.H265-NOGRP 10.48GB

[复制链接]
蓝光币
1080
发表于 2020-8-21 20:50:27 | 显示全部楼层 |阅读模式


◎译  名 唯一无二的伊万/唯一无二的伊凡
◎片  名 The One and Only Ivan
◎年  代 2020
◎产  地 美国
◎类  别 笑剧 / 奇异 / 冒险
◎语  言 英语
◎上映日期 2020-08-21(美国)
◎IMDb链接  https://www.imdb.com/title/tt3661394/
◎豆瓣评分 /10 from 0 users
◎豆瓣链接 https://movie.douban.com/subject/26981368/
◎导  演 西娅·夏罗克 Thea Sharrock
◎编  剧 麦克·怀特 Mike White / 凯瑟琳·阿普尔盖特 Katherine Applegate
◎主  演 山姆·洛克威尔 Sam Rockwell
       布莱恩·科兰斯顿 Bryan Cranston
       安吉丽娜·朱莉 Angelina Jolie
       丹尼·德维托 Danny DeVito
       布鲁克琳·普林斯 Brooklynn Prince
       海伦·米伦 Helen Mirren
       菲莉帕·苏 Phillipa Soo
       阿丽亚娜·格林布拉特 Ariana Greenblatt
       埃莉诺·松浦 Eleanor Matsuura
       拉蒙·罗德里格兹 Ramon Rodriguez
       奥文·亚瑟 Owain Arthur
       本·毕舍普 Ben Bishop
       戴维娜·西塔拉姆 Davina Sitaram
       杰奎琳·拉姆娜莱恩 Jacqueline Ramnarine
       杰弗里·克里斯普 Jeffrey Crisp
       罗伊·贝克 Roy Beck
◎标  签 迪士尼 | 2020 | 美国 | 动画 | 安吉丽娜朱莉 | SamRockwell | 2019 | 待映
◎简  介


  按照同名获纽伯瑞大奖小说改编,Katherine Applegate写作,Patricia Castelao绘制插图。
  
  聚焦一只名叫Ivan的银背大猩猩,他与名叫Stella的大象和名叫Bob的流浪狗生活在一所大型购物中心的笼子里。Ivan对此前的生活毫无记忆,而当小象Ruby到来后,Ivan将负责顾问她,他也起头逐步想起曩昔的履历,制定计划要逃走牢笼,避免Stella蒙受治理员的凌虐。
  
  朱莉将为Stella配音,普林斯为Ruby配音。
  1. Video
  2. ID                                       : 1
  3. Format                                   : HEVC
  4. Format/Info                              : High Efficiency Video Coding
  5. Format profile                           : Main [email protected]@High
  6. HDR format                               : SMPTE ST 2086, HDR10 compatible
  7. Codec ID                                 : V_MPEGH/ISO/HEVC
  8. Duration                                 : 1 h 35 min
  9. Bit rate                                 : 15.5 Mb/s
  10. Width                                    : 3 840 pixels
  11. Height                                   : 2 160 pixels
  12. Display aspect ratio                     : 16:9
  13. Frame rate mode                          : Constant
  14. Frame rate                               : 23.976 (24000/1001/189150) FPS
  15. Color space                              : YUV
  16. Chroma subsampling                       : 4:2:0
  17. Bit depth                                : 10 bits
  18. Bits/(Pixel*Frame)                       : 0.078
  19. Stream size                              : 10.3 GiB (98%)
  20. Default                                  : Yes
  21. Forced                                   : No
  22. Color range                              : Limited
  23. Color primaries                          : BT.2020
  24. Transfer characteristics                 : PQ
  25. Matrix coefficients                      : BT.2020 non-constant
  26. Mastering display color primaries        : Display P3
  27. Mastering display luminance              : min: 0.0001 cd/m2, max: 1000 cd/m2

  28. Audio
  29. ID                                       : 2
  30. Format                                   : E-AC-3
  31. Format/Info                              : Enhanced AC-3
  32. Commercial name                          : Dolby Digital Plus
  33. Codec ID                                 : A_EAC3
  34. Duration                                 : 1 h 35 min
  35. Bit rate mode                            : Constant
  36. Bit rate                                 : 256 kb/s
  37. Channel(s)                               : 6 channels
  38. Channel layout                           : L R C LFE Ls Rs
  39. Sampling rate                            : 48.0 kHz
  40. Frame rate                               : 31.250 FPS (1536 SPF)
  41. Compression mode                         : Lossy
  42. Stream size                              : 174 MiB (2%)
  43. Title                                    : English
  44. Language                                 : English
  45. Service kind                             : Complete Main
  46. Default                                  : No
  47. Forced                                   : No

  48. Text #1
  49. ID                                       : 3
  50. Format                                   : UTF-8
  51. Codec ID                                 : S_TEXT/UTF8
  52. Codec ID/Info                            : UTF-8 Plain Text
  53. Duration                                 : 1 h 28 min
  54. Bit rate                                 : 54 b/s
  55. Count of elements                        : 1199
  56. Stream size                              : 35.3 KiB (0%)
  57. Title                                    : English
  58. Language                                 : English
  59. Default                                  : Yes
  60. Forced                                   : No

  61. Text #2
  62. ID                                       : 4
  63. Format                                   : UTF-8
  64. Codec ID                                 : S_TEXT/UTF8
  65. Codec ID/Info                            : UTF-8 Plain Text
  66. Duration                                 : 1 h 32 min
  67. Bit rate                                 : 50 b/s
  68. Count of elements                        : 1203
  69. Stream size                              : 34.3 KiB (0%)
  70. Title                                    : Danish
  71. Language                                 : Danish
  72. Default                                  : No
  73. Forced                                   : No

  74. Text #3
  75. ID                                       : 5
  76. Format                                   : UTF-8
  77. Codec ID                                 : S_TEXT/UTF8
  78. Codec ID/Info                            : UTF-8 Plain Text
  79. Duration                                 : 1 h 32 min
  80. Bit rate                                 : 46 b/s
  81. Count of elements                        : 906
  82. Stream size                              : 31.7 KiB (0%)
  83. Title                                    : Dutch
  84. Language                                 : Dutch
  85. Default                                  : No
  86. Forced                                   : No

  87. Text #4
  88. ID                                       : 6
  89. Format                                   : UTF-8
  90. Codec ID                                 : S_TEXT/UTF8
  91. Codec ID/Info                            : UTF-8 Plain Text
  92. Duration                                 : 1 h 32 min
  93. Bit rate                                 : 49 b/s
  94. Count of elements                        : 1196
  95. Stream size                              : 33.6 KiB (0%)
  96. Title                                    : Finnish
  97. Language                                 : Finnish
  98. Default                                  : No
  99. Forced                                   : No

  100. Text #5
  101. ID                                       : 7
  102. Format                                   : UTF-8
  103. Codec ID                                 : S_TEXT/UTF8
  104. Codec ID/Info                            : UTF-8 Plain Text
  105. Duration                                 : 1 h 32 min
  106. Bit rate                                 : 53 b/s
  107. Count of elements                        : 1195
  108. Stream size                              : 36.7 KiB (0%)
  109. Title                                    : French
  110. Language                                 : French
  111. Default                                  : No
  112. Forced                                   : No

  113. Text #6
  114. ID                                       : 8
  115. Format                                   : UTF-8
  116. Codec ID                                 : S_TEXT/UTF8
  117. Codec ID/Info                            : UTF-8 Plain Text
  118. Duration                                 : 1 h 32 min
  119. Bit rate                                 : 50 b/s
  120. Count of elements                        : 1141
  121. Stream size                              : 34.3 KiB (0%)
  122. Title                                    : German
  123. Language                                 : German
  124. Default                                  : No
  125. Forced                                   : No

  126. Text #7
  127. ID                                       : 9
  128. Format                                   : UTF-8
  129. Codec ID                                 : S_TEXT/UTF8
  130. Codec ID/Info                            : UTF-8 Plain Text
  131. Duration                                 : 1 h 32 min
  132. Bit rate                                 : 52 b/s
  133. Count of elements                        : 1199
  134. Stream size                              : 35.6 KiB (0%)
  135. Title                                    : Italian
  136. Language                                 : Italian
  137. Default                                  : No
  138. Forced                                   : No

  139. Text #8
  140. ID                                       : 10
  141. Format                                   : UTF-8
  142. Codec ID                                 : S_TEXT/UTF8
  143. Codec ID/Info                            : UTF-8 Plain Text
  144. Duration                                 : 1 h 32 min
  145. Bit rate                                 : 48 b/s
  146. Count of elements                        : 1170
  147. Stream size                              : 32.7 KiB (0%)
  148. Title                                    : Norwegian
  149. Language                                 : Norwegian
  150. Default                                  : No
  151. Forced                                   : No

  152. Text #9
  153. ID                                       : 11
  154. Format                                   : UTF-8
  155. Codec ID                                 : S_TEXT/UTF8
  156. Codec ID/Info                            : UTF-8 Plain Text
  157. Duration                                 : 1 h 32 min
  158. Bit rate                                 : 49 b/s
  159. Count of elements                        : 1195
  160. Stream size                              : 33.5 KiB (0%)
  161. Title                                    : Polish
  162. Language                                 : Polish
  163. Default                                  : No
  164. Forced                                   : No

  165. Text #10
  166. ID                                       : 12
  167. Format                                   : UTF-8
  168. Codec ID                                 : S_TEXT/UTF8
  169. Codec ID/Info                            : UTF-8 Plain Text
  170. Duration                                 : 1 h 32 min
  171. Bit rate                                 : 51 b/s
  172. Count of elements                        : 1198
  173. Stream size                              : 35.3 KiB (0%)
  174. Title                                    : Portuguese
  175. Language                                 : Portuguese
  176. Default                                  : No
  177. Forced                                   : No

  178. Text #11
  179. ID                                       : 13
  180. Format                                   : UTF-8
  181. Codec ID                                 : S_TEXT/UTF8
  182. Codec ID/Info                            : UTF-8 Plain Text
  183. Duration                                 : 1 h 32 min
  184. Bit rate                                 : 51 b/s
  185. Count of elements                        : 1198
  186. Stream size                              : 34.9 KiB (0%)
  187. Title                                    : Brazilian Portuguese
  188. Language                                 : Portuguese
  189. Default                                  : No
  190. Forced                                   : No

  191. Text #12
  192. ID                                       : 14
  193. Format                                   : UTF-8
  194. Codec ID                                 : S_TEXT/UTF8
  195. Codec ID/Info                            : UTF-8 Plain Text
  196. Duration                                 : 1 h 32 min
  197. Bit rate                                 : 52 b/s
  198. Count of elements                        : 1203
  199. Stream size                              : 35.4 KiB (0%)
  200. Title                                    : Spanish
  201. Language                                 : Spanish
  202. Default                                  : No
  203. Forced                                   : No

  204. Text #13
  205. ID                                       : 15
  206. Format                                   : UTF-8
  207. Codec ID                                 : S_TEXT/UTF8
  208. Codec ID/Info                            : UTF-8 Plain Text
  209. Duration                                 : 1 h 32 min
  210. Bit rate                                 : 47 b/s
  211. Count of elements                        : 1192
  212. Stream size                              : 32.4 KiB (0%)
  213. Title                                    : European Spanish
  214. Language                                 : Spanish
  215. Default                                  : No
  216. Forced                                   : No

  217. Text #14
  218. ID                                       : 16
  219. Format                                   : UTF-8
  220. Codec ID                                 : S_TEXT/UTF8
  221. Codec ID/Info                            : UTF-8 Plain Text
  222. Duration                                 : 1 h 32 min
  223. Bit rate                                 : 50 b/s
  224. Count of elements                        : 1013
  225. Stream size                              : 34.3 KiB (0%)
  226. Title                                    : Swedish
  227. Language                                 : Swedish
  228. Default                                  : No
  229. Forced                                   : No
复制代码



                                       
                                       

                                       
                                       
                                       




回复

使用道具 举报

懒得打字嘛,点击右侧快捷回复 【右侧内容,后台自定义】
您需要登录后才可以回帖 登录 | 立即加入

本版积分规则

Archiver|小黑屋| 蓝光电影网 |网站地图

Copyright © 2021 Comsenz Inc. Powered by 蓝光电影网

蓝光电影网

本站内容由用户自主分享和转载自互联网,转载目的在于传递更多信息,并不代表本网赞同其观点和对其真实性负责。

如有侵权、违反国家法律政策行为,请联系我们,我们会第一时间及时清除和处理!

举报反馈邮箱:[email protected]

快速回复 返回顶部 返回列表