找回密码

蓝光电影网

查看: 199|回复: 0

[UHD.HEVC] 占有者 Possessor.2020.UNCUT.2160p.BluRay.REMUX.HEVC.DTS-HD.MA.5.1-FGT 50.35GB

[复制链接]
蓝光币
1084
发表于 2020-12-8 18:42:52 | 显示全部楼层 |阅读模式
[img][/img]

◎译  名 占有者/Possessor Uncut
◎片  名 Possessor
◎年  代 2020
◎产  地 加拿大,英国
◎类  别 科幻 / 惊悚
◎语  言 英语
◎上映日期 2020-01-25(圣丹斯电影节) / 2020-10-02(美国)
◎IMDb评分  6.4/10 from 9134 users
◎IMDb链接  https://www.imdb.com/title/tt5918982/
◎豆瓣评分 6.0/10 from 1815 users
◎豆瓣链接 https://movie.douban.com/subject/30220880/
◎片  长 103分钟
◎导  演 布兰登·柯南伯格 Brandon Cronenberg
◎编  剧 布兰登·柯南伯格 Brandon Cronenberg
◎主  演 肖恩·宾 Sean Bean
       汉娜克·塔波特 Hanneke Talbot
       詹妮弗·杰森·李 Jennifer Jason Leigh
       安德丽娅·赖斯伯勒 Andrea Riseborough
       瑞秋·克劳福德 Rachael Crawford
       塔彭丝·米德尔顿 Tuppence Middleton
       罗西弗·萨瑟兰 Rossif Sutherland
       盖奇·格雷厄姆·阿布斯诺特 Gage Graham-Arbuthnot
       丹尼·沃 Danny Waugh
       克里斯托弗·阿波特 Christopher Abbott
       雷欧·巴奈扎 Raoul Bhaneja
       克里斯托弗·贾科特 Christopher Jacot
       卡内赫迪奥·霍恩 Kaniehtiio Horn
       黛拉格·坎贝尔 Deragh Campbell
       道格·麦克劳德 Doug MacLeod
◎标  签 科幻 | 惊悚 | 犯罪 | 2020 | 加拿大 | 英国 | 电影 | 詹妮弗·杰森·李
◎简  介


  报告一个奥秘构造的奸细Tasya Vos操纵大脑植入技术来“栖息”在他人的身材里,驱使他们为某些高薪客户履行暗杀使命。但是一次例行工作出了过失,她很快发现自己堕入了一个不知情的怀疑犯的思惟中,其对暴力的愿望致使她要和自己作斗争。
◎获奖情况
  第33届东京国际电影节 ?(2020)
  东京首映2020(提名) 布兰登·柯南伯格
  1. Video
  2. ID                                       : 1
  3. ID in the original source medium         : 4113 (0x1011)
  4. Format                                   : HEVC
  5. Format/Info                              : High Efficiency Video Coding
  6. Format profile                           : Main [email protected]@High
  7. HDR format                               : SMPTE ST 2086, HDR10 compatible
  8. Codec ID                                 : V_MPEGH/ISO/HEVC
  9. Duration                                 : 1 h 44 min
  10. Bit rate                                 : 66.2 Mb/s
  11. Width                                    : 3 840 pixels
  12. Height                                   : 2 160 pixels
  13. Display aspect ratio                     : 16:9
  14. Frame rate mode                          : Constant
  15. Frame rate                               : 23.976 (24000/1001/189150) FPS
  16. Standard                                 : Component
  17. Color space                              : YUV
  18. Chroma subsampling                       : 4:2:0 (Type 2)
  19. Bit depth                                : 10 bits
  20. Bits/(Pixel*Frame)                       : 0.333
  21. Stream size                              : 48.2 GiB (96%)
  22. Title                                    : Possessor.2020.UNCUT.2160p.BluRay.REMUX.HEVC.DTS-HD.MA.5.1-FGT
  23. Language                                 : English
  24. Default                                  : No
  25. Forced                                   : No
  26. Color range                              : Limited
  27. Color primaries                          : BT.2020
  28. Transfer characteristics                 : PQ
  29. Matrix coefficients                      : BT.2020 non-constant
  30. Mastering display color primaries        : BT.2020
  31. Mastering display luminance              : min: 0.0000 cd/m2, max: 9000 cd/m2
  32. Maximum Content Light Level              : 4890 cd/m2
  33. Maximum Frame-Average Light Level        : 440 cd/m2
  34. Original source medium                   : Blu-ray

  35. Audio #1
  36. ID                                       : 2
  37. ID in the original source medium         : 4352 (0x1100)
  38. Format                                   : DTS XLL
  39. Format/Info                              : Digital Theater Systems
  40. Commercial name                          : DTS-HD Master Audio
  41. Codec ID                                 : A_DTS
  42. Duration                                 : 1 h 44 min
  43. Bit rate mode                            : Variable
  44. Bit rate                                 : 2 285 kb/s
  45. Channel(s)                               : 6 channels
  46. Channel layout                           : C L R Ls Rs LFE
  47. Sampling rate                            : 48.0 kHz
  48. Frame rate                               : 93.750 FPS (512 SPF)
  49. Bit depth                                : 24 bits
  50. Compression mode                         : Lossless
  51. Stream size                              : 1.67 GiB (3%)
  52. Title                                    : Possessor.2020.UNCUT.2160p.BluRay.REMUX.HEVC.DTS-HD.MA.5.1-FGT
  53. Language                                 : English
  54. Default                                  : Yes
  55. Forced                                   : No
  56. Original source medium                   : Blu-ray

  57. Audio #2
  58. ID                                       : 3
  59. Format                                   : AC-3
  60. Format/Info                              : Audio Coding 3
  61. Commercial name                          : Dolby Digital
  62. Codec ID                                 : A_AC3
  63. Duration                                 : 1 h 44 min
  64. Bit rate mode                            : Constant
  65. Bit rate                                 : 640 kb/s
  66. Channel(s)                               : 6 channels
  67. Channel layout                           : L R C LFE Ls Rs
  68. Sampling rate                            : 48.0 kHz
  69. Frame rate                               : 31.250 FPS (1536 SPF)
  70. Compression mode                         : Lossy
  71. Stream size                              : 478 MiB (1%)
  72. Title                                    : Possessor.2020.UNCUT.2160p.BluRay.REMUX.HEVC.DTS-HD.MA.5.1-FGT
  73. Language                                 : English
  74. Service kind                             : Complete Main
  75. Default                                  : No
  76. Forced                                   : No

  77. Text #1
  78. ID                                       : 4
  79. Format                                   : UTF-8
  80. Codec ID                                 : S_TEXT/UTF8
  81. Codec ID/Info                            : UTF-8 Plain Text
  82. Duration                                 : 1 h 33 min
  83. Bit rate                                 : 31 b/s
  84. Count of elements                        : 718
  85. Stream size                              : 21.7 KiB (0%)
  86. Title                                    : English-SRT
  87. Language                                 : English
  88. Default                                  : Yes
  89. Forced                                   : No

  90. Text #2
  91. ID                                       : 5
  92. ID in the original source medium         : 4768 (0x12A0)
  93. Format                                   : PGS
  94. Muxing mode                              : zlib
  95. Codec ID                                 : S_HDMV/PGS
  96. Codec ID/Info                            : Picture based subtitle format used on BDs/HD-DVDs
  97. Duration                                 : 1 h 35 min
  98. Bit rate                                 : 26.5 kb/s
  99. Count of elements                        : 1532
  100. Stream size                              : 18.2 MiB (0%)
  101. Title                                    : English-PGS
  102. Language                                 : English
  103. Default                                  : No
  104. Forced                                   : No
  105. Original source medium                   : Blu-ray

  106. Menu
  107. 00:00:00.000                             : en:Chapter 01
  108. 00:07:47.383                             : en:Chapter 02
  109. 00:15:07.865                             : en:Chapter 03
  110. 00:22:31.391                             : en:Chapter 04
  111. 00:31:58.207                             : en:Chapter 05
  112. 00:41:37.369                             : en:Chapter 06
  113. 00:50:17.305                             : en:Chapter 07
  114. 01:06:06.963                             : en:Chapter 08
  115. 01:15:38.534                             : en:Chapter 09
  116. 01:23:37.637                             : en:Chapter 10
  117. 01:37:14.495                             : en:Chapter 11
复制代码



                                       
                                       

                                       
                                       
                                       




回复

使用道具 举报

懒得打字嘛,点击右侧快捷回复 【右侧内容,后台自定义】
您需要登录后才可以回帖 登录 | 立即加入

本版积分规则

Archiver|小黑屋| 蓝光电影网 |网站地图

Copyright © 2021 Comsenz Inc. Powered by 蓝光电影网

蓝光电影网

本站内容由用户自主分享和转载自互联网,转载目的在于传递更多信息,并不代表本网赞同其观点和对其真实性负责。

如有侵权、违反国家法律政策行为,请联系我们,我们会第一时间及时清除和处理!

举报反馈邮箱:[email protected]

快速回复 返回顶部 返回列表