找回密码

蓝光电影网

查看: 61|回复: 0

[2160p] 全金属外壳/烈血焚城 Full.Metal.Jacket.1987.2160p.BluRay.x265.10bit.SDR.DTS-HD.MA.5.1-SWTYBLZ 44.61GB

[复制链接]
蓝光币
1084
发表于 2020-9-21 18:37:12 | 显示全部楼层 |阅读模式


◎译  名 全金属外壳/烈血焚城(港)/金甲战士/金甲军队(台)
◎片  名 Full Metal Jacket
◎年  代 1987
◎产  地 英国,美国
◎类  别 剧情 / 战争
◎语  言 英语,越南语
◎上映日期 1987-06-17
◎IMDb评分  8.3/10 from 659981 users
◎IMDb链接  https://www.imdb.com/title/tt0093058/
◎豆瓣评分 8.6/10 from 99218 users
◎豆瓣链接 https://movie.douban.com/subject/1300055/
◎片  长 116 分钟
◎导  演 斯坦利·库布里克 Stanley Kubrick
◎编  剧 斯坦利·库布里克 Stanley Kubrick / 迈克尔·海尔 Michael Herr / 古斯塔夫·哈斯福德 Gustav Hasford
◎主  演 马修·莫迪恩 Matthew Modine
       亚当·鲍德温 Adam Baldwin
       文森特·多诺费奥 Vincent D'Onofrio
       李·厄米 R. Lee Ermey
       道林·海伍德 Dorian Harewood
       艾利斯·霍华德 Arliss Howard
       埃德·欧罗斯 Ed O'Ross
       约翰·特里 John Terry
       蒂姆·科尔切里 Tim Colceri
       布鲁斯·博阿 Bruce Boa
       索尔·洛佩斯 Sal Lopez
       帕皮隆·苏索 Papillon Soo Soo
       马库斯·达米科 Marcus D'Amico
       菲利普·贝利 Philip Bailey
       斯蒂夫·哈德森 Steve Hudson
       David Parry
       克里斯·迈巴赫 Chris Maybach
       斯坦利·库布里克 Stanley Kubrick
       大卫·帕拉菲 David Palffy
       薇薇安·库布里克 Vivian Kubrick
◎标  签 战争 | 越战 | 美国 | 库布里克 | 斯坦利·库布里克 | 美国电影 | StanleyKubrick | 人性
◎简  介


  越战时代,美军大量征兵。多量年轻人应征参军,在新军营接管“残暴”的练习。“傻瓜”比尔活动神经不发财,经常出错而扳连一切人一路受罚。“小丑”(马修?莫迪恩 Matthew Modine 饰)受命帮助比尔,但比尔还是老出毛病,扳连其他人。大师忍无可忍下打了他一顿,比尔今后变得精神模糊,在新军营结业前夜枪杀教官后吞枪自杀。
  
  “小丑”随后分到了军队消息组。他在采访中看到了那时的同伴们都已经变得麻痹、残暴。一次,“小丑”随“牛仔”履利用命时,遭到越共狙击手伏击,“牛仔”亦不幸中弹身亡。众人经过一番搜索,击伤了狙击手。“小丑”发现狙击手竟是一个年轻少女。有人发起留下她挣扎而死,“小丑”在少女“杀了我”的请求声中,扣下了扳机。
◎获奖情况
  第60届奥斯卡金像奖 ?(1988)
  最好改编剧本(提名) 迈克尔·海尔?/?斯坦利·库布里克?/?古斯塔夫·哈斯福德
  
  第12届日本电影学院奖 ?(1989)
  最好外语片(提名)
  1. Video
  2. ID                                       : 1
  3. Format                                   : HEVC
  4. Format/Info                              : High Efficiency Video Coding
  5. Format profile                           : Main [email protected]@High
  6. Codec ID                                 : V_MPEGH/ISO/HEVC
  7. Duration                                 : 1 h 56 min
  8. Bit rate                                 : 51.2 Mb/s
  9. Width                                    : 3 840 pixels
  10. Height                                   : 2 160 pixels
  11. Display aspect ratio                     : 16:9
  12. Frame rate mode                          : Constant
  13. Frame rate                               : 23.976 (24000/1001/189150) FPS
  14. Color space                              : YUV
  15. Chroma subsampling                       : 4:2:0
  16. Bit depth                                : 10 bits
  17. Bits/(Pixel*Frame)                       : 0.257
  18. Stream size                              : 41.7 GiB (94%)
  19. Title                                    : Full.Metal.Jacket.1987.2160p.BluRay.x265.10bit.SDR.DTS-HD.MA.5.1-SWTYBLZ
  20. Writing library                          : x265 3.0ed72af837053:[Windows][GCC 8.2.0][64 bit] 10bit
  21. Encoding settings                        : cpuid=1111039 / frame-threads=6 / numa-pools=40 / wpp / no-pmode / no-pme / no-psnr / no-ssim / log-level=2 / input-csp=1 / input-res=3840x2160 / interlace=0 / total-frames=167671 / level-idc=51 / high-tier=1 / uhd-bd=0 / ref=3 / no-allow-non-conformance / repeat-headers / annexb / aud / hrd / info / hash=0 / no-temporal-layers / no-open-gop / min-keyint=1 / keyint=24 / gop-lookahead=0 / bframes=4 / b-adapt=2 / b-pyramid / bframe-bias=0 / rc-lookahead=25 / lookahead-slices=4 / scenecut=40 / radl=0 / no-splice / no-intra-refresh / ctu=64 / min-cu-size=8 / no-rect / no-amp / max-tu-size=32 / tu-inter-depth=1 / tu-intra-depth=1 / limit-tu=0 / rdoq-level=0 / dynamic-rd=0.00 / no-ssim-rd / signhide / no-tskip / nr-intra=0 / nr-inter=0 / no-constrained-intra / strong-intra-smoothing / max-merge=2 / limit-refs=3 / no-limit-modes / me=1 / subme=2 / merange=57 / temporal-mvp / weightp / no-weightb / no-analyze-src-pics / deblock=0:0 / no-sao / no-sao-non-deblock / rd=3 / no-early-skip / rskip / no-fast-intra / no-tskip-fast / no-cu-lossless / no-b-intra / no-splitrd-skip / rdpenalty=0 / psy-rd=2.00 / psy-rdoq=0.00 / no-rd-refine / no-lossless / cbqpoffs=0 / crqpoffs=0 / rc=crf / crf=22.0 / qcomp=0.60 / qpstep=4 / stats-write=0 / stats-read=0 / vbv-maxrate=160000 / vbv-bufsize=160000 / vbv-init=0.9 / crf-max=0.0 / crf-min=0.0 / ipratio=1.40 / pbratio=1.30 / aq-mode=1 / aq-strength=1.00 / cutree / zone-count=0 / no-strict-cbr / qg-size=32 / no-rc-grain / qpmax=69 / qpmin=0 / no-const-vbv / sar=1 / overscan=0 / videoformat=5 / range=0 / colorprim=2 / transfer=2 / colormatrix=2 / chromaloc=0 / display-window=0 / max-cll=0,0 / min-luma=0 / max-luma=1023 / log2-max-poc-lsb=8 / vui-timing-info / vui-hrd-info / slices=1 / opt-qp-pps / opt-ref-list-length-pps / no-multi-pass-opt-rps / scenecut-bias=0.05 / no-opt-cu-delta-qp / no-aq-motion / no-hdr / no-hdr-opt / no-dhdr10-opt / no-idr-recovery-sei / analysis-reuse-level=5 / scale-factor=0 / refine-intra=0 / refine-inter=0 / refine-mv=0 / refine-ctu-distortion=0 / no-limit-sao / ctu-info=0 / no-lowpass-dct / refine-analysis-type=0 / copy-pic=1 / max-ausize-factor=1.0 / no-dynamic-refine / no-single-sei / no-hevc-aq / qp-adaptation-range=1.00
  22. Language                                 : English
  23. Default                                  : Yes
  24. Forced                                   : No
  25. Audio #1
  26. ID                                       : 2
  27. Format                                   : DTS XLL
  28. Format/Info                              : Digital Theater Systems
  29. Commercial name                          : DTS-HD Master Audio
  30. Codec ID                                 : A_DTS
  31. Duration                                 : 1 h 56 min
  32. Bit rate mode                            : Variable
  33. Bit rate                                 : 2 297 kb/s
  34. Channel(s)                               : 6 channels
  35. Channel layout                           : C L R Ls Rs LFE
  36. Sampling rate                            : 48.0 kHz
  37. Frame rate                               : 93.750 FPS (512 SPF)
  38. Bit depth                                : 16 bits
  39. Compression mode                         : Lossless
  40. Stream size                              : 1.87 GiB (4%)
  41. Title                                    : Full.Metal.Jacket.1987.2160p.BluRay.x265.10bit.SDR.DTS-HD.MA.5.1-SWTYBLZ
  42. Language                                 : English
  43. Default                                  : Yes
  44. Forced                                   : No
  45. Audio #2
  46. ID                                       : 3
  47. Format                                   : AC-3
  48. Format/Info                              : Audio Coding 3
  49. Commercial name                          : Dolby Digital
  50. Codec ID                                 : A_AC3
  51. Duration                                 : 1 h 56 min
  52. Bit rate mode                            : Constant
  53. Bit rate                                 : 640 kb/s
  54. Channel(s)                               : 6 channels
  55. Channel layout                           : L R C LFE Ls Rs
  56. Sampling rate                            : 48.0 kHz
  57. Frame rate                               : 31.250 FPS (1536 SPF)
  58. Compression mode                         : Lossy
  59. Stream size                              : 534 MiB (1%)
  60. Title                                    : Full.Metal.Jacket.1987.2160p.BluRay.x265.10bit.SDR.DTS-HD.MA.5.1-SWTYBLZ
  61. Language                                 : English
  62. Service kind                             : Complete Main
  63. Default                                  : No
  64. Forced                                   : No
  65. Text #1
  66. ID                                       : 4
  67. Format                                   : UTF-8
  68. Codec ID                                 : S_TEXT/UTF8
  69. Codec ID/Info                            : UTF-8 Plain Text
  70. Duration                                 : 1 h 50 min
  71. Bit rate                                 : 57 b/s
  72. Count of elements                        : 1357
  73. Stream size                              : 46.3 KiB (0%)
  74. Title                                    : English-SRT
  75. Language                                 : English
  76. Default                                  : Yes
  77. Forced                                   : No
  78. Text #2
  79. ID                                       : 5
  80. Format                                   : PGS
  81. Muxing mode                              : zlib
  82. Codec ID                                 : S_HDMV/PGS
  83. Codec ID/Info                            : Picture based subtitle format used on BDs/HD-DVDs
  84. Duration                                 : 1 h 54 min
  85. Bit rate                                 : 30.0 kb/s
  86. Count of elements                        : 2732
  87. Stream size                              : 24.6 MiB (0%)
  88. Title                                    : English-PGS
  89. Language                                 : English
  90. Default                                  : No
  91. Forced                                   : No
  92. Text #3
  93. ID                                       : 6
  94. Format                                   : PGS
  95. Muxing mode                              : zlib
  96. Codec ID                                 : S_HDMV/PGS
  97. Codec ID/Info                            : Picture based subtitle format used on BDs/HD-DVDs
  98. Duration                                 : 1 h 55 min
  99. Bit rate                                 : 36.5 kb/s
  100. Count of elements                        : 3126
  101. Stream size                              : 30.2 MiB (0%)
  102. Title                                    : English-SDH-PGS
  103. Language                                 : English
  104. Default                                  : No
  105. Forced                                   : No
  106. Text #4
  107. ID                                       : 7
  108. Format                                   : PGS
  109. Muxing mode                              : zlib
  110. Codec ID                                 : S_HDMV/PGS
  111. Codec ID/Info                            : Picture based subtitle format used on BDs/HD-DVDs
  112. Duration                                 : 1 h 52 min
  113. Bit rate                                 : 17.8 kb/s
  114. Count of elements                        : 2374
  115. Stream size                              : 14.3 MiB (0%)
  116. Title                                    : Arabic-PGS
  117. Language                                 : Arabic
  118. Default                                  : No
  119. Forced                                   : No
  120. Text #5
  121. ID                                       : 8
  122. Format                                   : PGS
  123. Muxing mode                              : zlib
  124. Codec ID                                 : S_HDMV/PGS
  125. Codec ID/Info                            : Picture based subtitle format used on BDs/HD-DVDs
  126. Duration                                 : 1 h 52 min
  127. Bit rate                                 : 26.3 kb/s
  128. Count of elements                        : 2912
  129. Stream size                              : 21.1 MiB (0%)
  130. Title                                    : Chinese-PGS
  131. Language                                 : Chinese
  132. Default                                  : No
  133. Forced                                   : No
  134. Text #6
  135. ID                                       : 9
  136. Format                                   : PGS
  137. Muxing mode                              : zlib
  138. Codec ID                                 : S_HDMV/PGS
  139. Codec ID/Info                            : Picture based subtitle format used on BDs/HD-DVDs
  140. Duration                                 : 1 h 56 min
  141. Bit rate                                 : 29.2 kb/s
  142. Count of elements                        : 2978
  143. Stream size                              : 24.2 MiB (0%)
  144. Title                                    : Chinese-PGS
  145. Language                                 : Chinese
  146. Default                                  : No
  147. Forced                                   : No
  148. Text #7
  149. ID                                       : 10
  150. Format                                   : PGS
  151. Muxing mode                              : zlib
  152. Codec ID                                 : S_HDMV/PGS
  153. Codec ID/Info                            : Picture based subtitle format used on BDs/HD-DVDs
  154. Duration                                 : 1 h 54 min
  155. Bit rate                                 : 22.0 kb/s
  156. Count of elements                        : 2322
  157. Stream size                              : 18.1 MiB (0%)
  158. Title                                    : Croatian-PGS
  159. Language                                 : Croatian
  160. Default                                  : No
  161. Forced                                   : No
  162. Text #8
  163. ID                                       : 11
  164. Format                                   : PGS
  165. Muxing mode                              : zlib
  166. Codec ID                                 : S_HDMV/PGS
  167. Codec ID/Info                            : Picture based subtitle format used on BDs/HD-DVDs
  168. Duration                                 : 1 h 52 min
  169. Bit rate                                 : 27.0 kb/s
  170. Count of elements                        : 2810
  171. Stream size                              : 21.7 MiB (0%)
  172. Title                                    : Czech-PGS
  173. Language                                 : Czech
  174. Default                                  : No
  175. Forced                                   : No
  176. Text #9
  177. ID                                       : 12
  178. Format                                   : PGS
  179. Muxing mode                              : zlib
  180. Codec ID                                 : S_HDMV/PGS
  181. Codec ID/Info                            : Picture based subtitle format used on BDs/HD-DVDs
  182. Duration                                 : 1 h 56 min
  183. Bit rate                                 : 24.8 kb/s
  184. Count of elements                        : 2310
  185. Stream size                              : 20.6 MiB (0%)
  186. Title                                    : Danish-PGS
  187. Language                                 : Danish
  188. Default                                  : No
  189. Forced                                   : No
  190. Text #10
  191. ID                                       : 13
  192. Format                                   : PGS
  193. Muxing mode                              : zlib
  194. Codec ID                                 : S_HDMV/PGS
  195. Codec ID/Info                            : Picture based subtitle format used on BDs/HD-DVDs
  196. Duration                                 : 1 h 50 min
  197. Bit rate                                 : 26.3 kb/s
  198. Count of elements                        : 2378
  199. Stream size                              : 20.9 MiB (0%)
  200. Title                                    : Dutch-PGS
  201. Language                                 : Dutch
  202. Default                                  : No
  203. Forced                                   : No
  204. Text #11
  205. ID                                       : 14
  206. Format                                   : PGS
  207. Muxing mode                              : zlib
  208. Codec ID                                 : S_HDMV/PGS
  209. Codec ID/Info                            : Picture based subtitle format used on BDs/HD-DVDs
  210. Duration                                 : 1 h 52 min
  211. Bit rate                                 : 22.1 kb/s
  212. Count of elements                        : 2302
  213. Stream size                              : 17.7 MiB (0%)
  214. Title                                    : Finnish-PGS
  215. Language                                 : Finnish
  216. Default                                  : No
  217. Forced                                   : No
  218. Text #12
  219. ID                                       : 15
  220. Format                                   : PGS
  221. Muxing mode                              : zlib
  222. Codec ID                                 : S_HDMV/PGS
  223. Codec ID/Info                            : Picture based subtitle format used on BDs/HD-DVDs
  224. Duration                                 : 1 h 56 min
  225. Bit rate                                 : 25.7 kb/s
  226. Count of elements                        : 2218
  227. Stream size                              : 21.3 MiB (0%)
  228. Title                                    : French-PGS
  229. Language                                 : French
  230. Default                                  : No
  231. Forced                                   : No
  232. Text #13
  233. ID                                       : 16
  234. Format                                   : PGS
  235. Muxing mode                              : zlib
  236. Codec ID                                 : S_HDMV/PGS
  237. Codec ID/Info                            : Picture based subtitle format used on BDs/HD-DVDs
  238. Duration                                 : 1 h 56 min
  239. Bit rate                                 : 23.1 kb/s
  240. Count of elements                        : 2324
  241. Stream size                              : 19.2 MiB (0%)
  242. Title                                    : German-PGS
  243. Language                                 : German
  244. Default                                  : No
  245. Forced                                   : No
  246. Text #14
  247. ID                                       : 17
  248. Format                                   : PGS
  249. Muxing mode                              : zlib
  250. Codec ID                                 : S_HDMV/PGS
  251. Codec ID/Info                            : Picture based subtitle format used on BDs/HD-DVDs
  252. Duration                                 : 1 h 55 min
  253. Bit rate                                 : 33.5 kb/s
  254. Count of elements                        : 3132
  255. Stream size                              : 27.7 MiB (0%)
  256. Title                                    : German-SDH-PGS
  257. Language                                 : German
  258. Default                                  : No
  259. Forced                                   : No
  260. Text #15
  261. ID                                       : 18
  262. Format                                   : PGS
  263. Muxing mode                              : zlib
  264. Codec ID                                 : S_HDMV/PGS
  265. Codec ID/Info                            : Picture based subtitle format used on BDs/HD-DVDs
  266. Duration                                 : 1 h 54 min
  267. Bit rate                                 : 18.2 kb/s
  268. Count of elements                        : 2302
  269. Stream size                              : 14.9 MiB (0%)
  270. Title                                    : Hebrew-PGS
  271. Language                                 : Hebrew
  272. Default                                  : No
  273. Forced                                   : No
  274. Text #16
  275. ID                                       : 19
  276. Format                                   : PGS
  277. Muxing mode                              : zlib
  278. Codec ID                                 : S_HDMV/PGS
  279. Codec ID/Info                            : Picture based subtitle format used on BDs/HD-DVDs
  280. Duration                                 : 1 h 56 min
  281. Bit rate                                 : 24.3 kb/s
  282. Count of elements                        : 2332
  283. Stream size                              : 20.2 MiB (0%)
  284. Title                                    : Hungarian-PGS
  285. Language                                 : Hungarian
  286. Default                                  : No
  287. Forced                                   : No
  288. Text #17
  289. ID                                       : 20
  290. Format                                   : PGS
  291. Muxing mode                              : zlib
  292. Codec ID                                 : S_HDMV/PGS
  293. Codec ID/Info                            : Picture based subtitle format used on BDs/HD-DVDs
  294. Duration                                 : 1 h 56 min
  295. Bit rate                                 : 23.8 kb/s
  296. Count of elements                        : 2296
  297. Stream size                              : 19.7 MiB (0%)
  298. Title                                    : Icelandic-PGS
  299. Language                                 : Icelandic
  300. Default                                  : No
  301. Forced                                   : No
  302. Text #18
  303. ID                                       : 21
  304. Format                                   : PGS
  305. Muxing mode                              : zlib
  306. Codec ID                                 : S_HDMV/PGS
  307. Codec ID/Info                            : Picture based subtitle format used on BDs/HD-DVDs
  308. Duration                                 : 1 h 54 min
  309. Bit rate                                 : 26.0 kb/s
  310. Count of elements                        : 2740
  311. Stream size                              : 21.4 MiB (0%)
  312. Title                                    : Italian-PGS
  313. Language                                 : Italian
  314. Default                                  : No
  315. Forced                                   : No
  316. Text #19
  317. ID                                       : 22
  318. Format                                   : PGS
  319. Muxing mode                              : zlib
  320. Codec ID                                 : S_HDMV/PGS
  321. Codec ID/Info                            : Picture based subtitle format used on BDs/HD-DVDs
  322. Duration                                 : 1 h 55 min
  323. Bit rate                                 : 32.4 kb/s
  324. Count of elements                        : 3218
  325. Stream size                              : 26.8 MiB (0%)
  326. Title                                    : Italian-SDH-PGS
  327. Language                                 : Italian
  328. Default                                  : No
  329. Forced                                   : No
  330. Text #20
  331. ID                                       : 23
  332. Format                                   : PGS
  333. Muxing mode                              : zlib
  334. Codec ID                                 : S_HDMV/PGS
  335. Codec ID/Info                            : Picture based subtitle format used on BDs/HD-DVDs
  336. Duration                                 : 1 h 52 min
  337. Bit rate                                 : 23.6 kb/s
  338. Count of elements                        : 2194
  339. Stream size                              : 18.9 MiB (0%)
  340. Title                                    : Japanese-PGS
  341. Language                                 : Japanese
  342. Default                                  : No
  343. Forced                                   : No
  344. Text #21
  345. ID                                       : 24
  346. Format                                   : PGS
  347. Muxing mode                              : zlib
  348. Codec ID                                 : S_HDMV/PGS
  349. Codec ID/Info                            : Picture based subtitle format used on BDs/HD-DVDs
  350. Duration                                 : 1 h 52 min
  351. Bit rate                                 : 20.5 kb/s
  352. Count of elements                        : 2690
  353. Stream size                              : 16.5 MiB (0%)
  354. Title                                    : Korean-PGS
  355. Language                                 : Korean
  356. Default                                  : No
  357. Forced                                   : No
  358. Text #22
  359. ID                                       : 25
  360. Format                                   : PGS
  361. Muxing mode                              : zlib
  362. Codec ID                                 : S_HDMV/PGS
  363. Codec ID/Info                            : Picture based subtitle format used on BDs/HD-DVDs
  364. Duration                                 : 1 h 50 min
  365. Bit rate                                 : 24.7 kb/s
  366. Count of elements                        : 2244
  367. Stream size                              : 19.6 MiB (0%)
  368. Title                                    : Norwegian-PGS
  369. Language                                 : Norwegian
  370. Default                                  : No
  371. Forced                                   : No
  372. Text #23
  373. ID                                       : 26
  374. Format                                   : PGS
  375. Muxing mode                              : zlib
  376. Codec ID                                 : S_HDMV/PGS
  377. Codec ID/Info                            : Picture based subtitle format used on BDs/HD-DVDs
  378. Duration                                 : 1 h 50 min
  379. Bit rate                                 : 26.9 kb/s
  380. Count of elements                        : 2380
  381. Stream size                              : 21.3 MiB (0%)
  382. Title                                    : Polish-PGS
  383. Language                                 : Polish
  384. Default                                  : No
  385. Forced                                   : No
  386. Text #24
  387. ID                                       : 27
  388. Format                                   : PGS
  389. Muxing mode                              : zlib
  390. Codec ID                                 : S_HDMV/PGS
  391. Codec ID/Info                            : Picture based subtitle format used on BDs/HD-DVDs
  392. Duration                                 : 1 h 56 min
  393. Bit rate                                 : 23.8 kb/s
  394. Count of elements                        : 2080
  395. Stream size                              : 19.8 MiB (0%)
  396. Title                                    : Portuguese-PGS
  397. Language                                 : Portuguese
  398. Default                                  : No
  399. Forced                                   : No
  400. Text #25
  401. ID                                       : 28
  402. Format                                   : PGS
  403. Muxing mode                              : zlib
  404. Codec ID                                 : S_HDMV/PGS
  405. Codec ID/Info                            : Picture based subtitle format used on BDs/HD-DVDs
  406. Duration                                 : 1 h 56 min
  407. Bit rate                                 : 24.5 kb/s
  408. Count of elements                        : 2330
  409. Stream size                              : 20.4 MiB (0%)
  410. Title                                    : Portuguese-PGS
  411. Language                                 : Portuguese
  412. Default                                  : No
  413. Forced                                   : No
  414. Text #26
  415. ID                                       : 29
  416. Format                                   : PGS
  417. Muxing mode                              : zlib
  418. Codec ID                                 : S_HDMV/PGS
  419. Codec ID/Info                            : Picture based subtitle format used on BDs/HD-DVDs
  420. Duration                                 : 1 h 52 min
  421. Bit rate                                 : 24.8 kb/s
  422. Count of elements                        : 2436
  423. Stream size                              : 19.9 MiB (0%)
  424. Title                                    : Romanian-PGS
  425. Language                                 : Romanian
  426. Default                                  : No
  427. Forced                                   : No
  428. Text #27
  429. ID                                       : 30
  430. Format                                   : PGS
  431. Muxing mode                              : zlib
  432. Codec ID                                 : S_HDMV/PGS
  433. Codec ID/Info                            : Picture based subtitle format used on BDs/HD-DVDs
  434. Duration                                 : 1 h 52 min
  435. Bit rate                                 : 28.0 kb/s
  436. Count of elements                        : 2364
  437. Stream size                              : 22.5 MiB (0%)
  438. Title                                    : Spanish-PGS
  439. Language                                 : Spanish
  440. Default                                  : No
  441. Forced                                   : No
  442. Text #28
  443. ID                                       : 31
  444. Format                                   : PGS
  445. Muxing mode                              : zlib
  446. Codec ID                                 : S_HDMV/PGS
  447. Codec ID/Info                            : Picture based subtitle format used on BDs/HD-DVDs
  448. Duration                                 : 1 h 52 min
  449. Bit rate                                 : 32.1 kb/s
  450. Count of elements                        : 2968
  451. Stream size                              : 25.8 MiB (0%)
  452. Title                                    : Spanish-PGS
  453. Language                                 : Spanish
  454. Default                                  : No
  455. Forced                                   : No
  456. Text #29
  457. ID                                       : 32
  458. Format                                   : PGS
  459. Muxing mode                              : zlib
  460. Codec ID                                 : S_HDMV/PGS
  461. Codec ID/Info                            : Picture based subtitle format used on BDs/HD-DVDs
  462. Duration                                 : 1 h 50 min
  463. Bit rate                                 : 24.2 kb/s
  464. Count of elements                        : 2244
  465. Stream size                              : 19.2 MiB (0%)
  466. Title                                    : Swedish-PGS
  467. Language                                 : Swedish
  468. Default                                  : No
  469. Forced                                   : No
  470. Text #30
  471. ID                                       : 33
  472. Format                                   : PGS
  473. Muxing mode                              : zlib
  474. Codec ID                                 : S_HDMV/PGS
  475. Codec ID/Info                            : Picture based subtitle format used on BDs/HD-DVDs
  476. Duration                                 : 1 h 56 min
  477. Bit rate                                 : 26.4 kb/s
  478. Count of elements                        : 2932
  479. Stream size                              : 21.9 MiB (0%)
  480. Title                                    : Thai-PGS
  481. Language                                 : Thai
  482. Default                                  : No
  483. Forced                                   : No
  484. Text #31
  485. ID                                       : 34
  486. Format                                   : PGS
  487. Muxing mode                              : zlib
  488. Codec ID                                 : S_HDMV/PGS
  489. Codec ID/Info                            : Picture based subtitle format used on BDs/HD-DVDs
  490. Duration                                 : 1 h 54 min
  491. Bit rate                                 : 24.7 kb/s
  492. Count of elements                        : 2288
  493. Stream size                              : 20.3 MiB (0%)
  494. Title                                    : Turkish-PGS
  495. Language                                 : Turkish
  496. Default                                  : No
  497. Forced                                   : No
  498. Menu
  499. 00:00:00.000                             : en:Haircut Montage
  500. 00:01:36.930                             : en:Sgt. Hartman Names His Maggots
  501. 00:07:34.579                             : en:Drill
  502. 00:10:01.100                             : en:"This Is My Rifle"
  503. 00:13:21.175                             : en:Obstacle Course
  504. 00:17:41.018                             : en:Joker\'s Got Guts
  505. 00:19:42.515                             : en:Helping Pyle
  506. 00:23:49.970                             : en:The Jelly Donut
  507. 00:28:10.772                             : en:Night Attack
  508. 00:30:17.649                             : en:Motivated Marines
  509. 00:32:27.070                             : en:God And The Corps
  510. 00:33:54.491                             : en:Pyle And His Rifle
  511. 00:38:21.841                             : en:Graduation
  512. 00:40:03.067                             : en:Full Metal Jacket
  513. 00:42:57.742                             : en:Pyle\'s Major Malfunction
  514. 00:45:29.393                             : en:Vietnam
  515. 00:47:52.286                             : en:The Stories We Write
  516. 00:52:02.453                             : en:Base Under Attack
  517. 00:56:36.518                             : en:No Ann-Margret?
  518. 00:58:37.556                             : en:Trigger Happy
  519. 01:01:33.940                             : en:What The Dead Know
  520. 01:03:43.778                             : en:The Word Of God
  521. 01:05:53.950                             : en:Reunion With Cowboy
  522. 01:09:02.847                             : en:Guest Of Honor
  523. 01:10:27.598                             : en:Approaching Hue City
  524. 01:12:22.380                             : en:First Strike
  525. 01:15:38.367                             : en:Vietnam: The Movie
  526. 01:17:50.791                             : en:Words Over The Dead
  527. 01:19:49.451                             : en:Interview Subjects
  528. 01:23:00.058                             : en:Negotiations
  529. 01:25:33.712                             : en:New Squad Leader
  530. 01:28:27.469                             : en:The Sniper
  531. 01:30:55.075                             : en:Two Men Down
  532. 01:35:43.613                             : en:Animal Mother\'s Charge
  533. 01:38:47.338                             : en:Cowboy\'s End
  534. 01:41:46.183                             : en:Getting The Sniper
  535. 01:45:13.140                             : en:"Shoot Me"
  536. 01:51:08.245                             : en:Alive And Not Afraid
  537. 01:52:57.646                             : en:End Credits
复制代码




                                       
                                       

                                       
                                       
                                       




回复

使用道具 举报

懒得打字嘛,点击右侧快捷回复 【右侧内容,后台自定义】
您需要登录后才可以回帖 登录 | 立即加入

本版积分规则

Archiver|小黑屋| 蓝光电影网 |网站地图

Copyright © 2021 Comsenz Inc. Powered by 蓝光电影网

蓝光电影网

本站内容由用户自主分享和转载自互联网,转载目的在于传递更多信息,并不代表本网赞同其观点和对其真实性负责。

如有侵权、违反国家法律政策行为,请联系我们,我们会第一时间及时清除和处理!

举报反馈邮箱:[email protected]

快速回复 返回顶部 返回列表