找回密码

蓝光电影网

查看: 98|回复: 0

[UHD.HEVC] 十诫 The.Ten.Commandments.1956.2160p.BluRay.REMUX.HEVC.DTS-HD.MA.5.1-FGT 84.44GB

[复制链接]
蓝光币
1084
发表于 2021-3-24 19:28:58 | 显示全部楼层 |阅读模式


◎译  名 十诫
◎片  名 The Ten Commandments
◎年  代 1956
◎产  地 美国
◎类  别 剧情 / 历史 / 冒险
◎语  言 英语
◎上映日期 1956-10-05(美国)
◎IMDb评分  7.9/10 from 63971 users
◎IMDb链接  https://www.imdb.com/title/tt0049833/
◎豆瓣评分 8.3/10 from 7710 users
◎豆瓣链接 https://movie.douban.com/subject/1293692/
◎片  长 220分钟
◎导  演 塞西尔·B·戴米尔 Cecil B. DeMille
◎主  演 查尔顿·赫斯顿 Charlton Heston
       尤·伯连纳 Yul Brynner
       安妮·巴克斯特 Anne Baxter
       爱德华·罗宾逊 Edward G. Robinson
       伊冯娜·德·卡洛 Yvonne De Carlo
       黛博拉·佩吉特 Debra Paget
       约翰·德里克 John Derek
       塞德里克·哈德威克 Cedric Hardwicke
       尼娜·弗彻 Nina Foch
       玛莎·斯考特 Martha Scott
       朱迪丝·安德森 Judith Anderson
       文森特·普莱斯 Vincent Price
       约翰·卡拉丁 John Carradine
       奥利芙迪琳 Olive Deering
       道格拉斯·敦布里勒 Douglass Dumbrille
◎标  签 宗教 | 史诗 | 美国 | 圣经 | 典范 | 历史 | 信仰 | 美国电影
◎简  介


  电影《十诫》在影史上有着不成摆荡职位,取材自《旧约圣经》的《出埃及记》,报告了犹太先知摩西(查尔登·海斯顿饰)的平生。在履历各类磨难考验后,天主耶和华将“十诫”授与摩西,并赐予气力于摩西。摩西带领饱受磨难的希伯来人出走埃及,穿越红海,重新建立新的生活。
  
  1956年 由派 拉蒙电影公司建造,由打造好莱坞黄金时代的导演塞西尔·B·戴米尔执导的史诗电影《十诫》,荣获1957年第29届奥斯卡金像奖最好音效、最好剪辑、最好打扮设想、最好摄影、最好艺术指导、最好影片、及最好殊效等多项提名。本片被美国国家电影庇护局列为政府收藏作品,是一部不成错过的影史典范之作。
◎获奖情况
  第29届奥斯卡金像奖 ?(1957)
  最好影片(提名) 塞西尔·B·戴米尔
  彩色片最好摄影(提名) 洛亚尔·格里格斯
  最好剪辑(提名) 安妮·鲍切恩斯
  最好殊效 约翰·P·富尔顿
  最好录音(提名) 洛伦·L·里德
  彩色片最好艺术指导和布景(提名) 萨姆·库默?/?阿尔伯特·诺扎基?/?沃尔特·H·泰勒?/?雷·莫耶?/?哈尔·佩雷拉
  彩色片最好打扮设想(提名) 多罗西·吉金斯?/?阿诺德·弗莱伯格?/?约翰·詹森?/?伊迪丝·海德?/?拉尔夫·杰斯特
  
  第14届金球奖 ?(1957)
  电影类剧情片最好男配角(提名) 查尔顿·赫斯顿
  1. Video
  2. ID                                       : 1
  3. ID in the original source medium         : 4113 (0x1011)
  4. Format                                   : HEVC
  5. Format/Info                              : High Efficiency Video Coding
  6. Format profile                           : Main [email protected]@High
  7. HDR format                               : SMPTE ST 2086, HDR10 compatible
  8. Codec ID                                 : V_MPEGH/ISO/HEVC
  9. Duration                                 : 3 h 51 min
  10. Bit rate                                 : 47.4 Mb/s
  11. Width                                    : 3 840 pixels
  12. Height                                   : 2 160 pixels
  13. Display aspect ratio                     : 16:9
  14. Frame rate mode                          : Constant
  15. Frame rate                               : 23.976 (24000/1001/189150) FPS
  16. Color space                              : YUV
  17. Chroma subsampling                       : 4:2:0 (Type 2)
  18. Bit depth                                : 10 bits
  19. Bits/(Pixel*Frame)                       : 0.238
  20. Stream size                              : 76.7 GiB (91%)
  21. Language                                 : English
  22. Default                                  : No
  23. Forced                                   : No
  24. Color range                              : Limited
  25. Color primaries                          : BT.2020
  26. Transfer characteristics                 : PQ
  27. Matrix coefficients                      : BT.2020 non-constant
  28. Mastering display color primaries        : Display P3
  29. Mastering display luminance              : min: 0.0050 cd/m2, max: 4000 cd/m2
  30. Maximum Content Light Level              : 1281 cd/m2
  31. Maximum Frame-Average Light Level        : 148 cd/m2
  32. Original source medium                   : Blu-ray

  33. Audio #1
  34. ID                                       : 2
  35. ID in the original source medium         : 4352 (0x1100)
  36. Format                                   : DTS XLL
  37. Format/Info                              : Digital Theater Systems
  38. Commercial name                          : DTS-HD Master Audio
  39. Codec ID                                 : A_DTS
  40. Duration                                 : 3 h 51 min
  41. Bit rate mode                            : Variable
  42. Bit rate                                 : 3 320 kb/s
  43. Channel(s)                               : 6 channels
  44. Channel layout                           : C L R Ls Rs LFE
  45. Sampling rate                            : 48.0 kHz
  46. Frame rate                               : 93.750 FPS (512 SPF)
  47. Bit depth                                : 24 bits
  48. Compression mode                         : Lossless
  49. Stream size                              : 5.37 GiB (6%)
  50. Title                                    : DTS-HD MA 5.1
  51. Language                                 : English
  52. Default                                  : Yes
  53. Forced                                   : No
  54. Original source medium                   : Blu-ray

  55. Audio #2
  56. ID                                       : 3
  57. Format                                   : AC-3
  58. Format/Info                              : Audio Coding 3
  59. Commercial name                          : Dolby Digital
  60. Codec ID                                 : A_AC3
  61. Duration                                 : 3 h 51 min
  62. Bit rate mode                            : Constant
  63. Bit rate                                 : 640 kb/s
  64. Channel(s)                               : 6 channels
  65. Channel layout                           : L R C LFE Ls Rs
  66. Sampling rate                            : 48.0 kHz
  67. Frame rate                               : 31.250 FPS (1536 SPF)
  68. Compression mode                         : Lossy
  69. Stream size                              : 1.04 GiB (1%)
  70. Title                                    : DD 5.1
  71. Language                                 : English
  72. Service kind                             : Complete Main
  73. Default                                  : No
  74. Forced                                   : No

  75. Audio #3
  76. ID                                       : 4
  77. ID in the original source medium         : 4353 (0x1101)
  78. Format                                   : AC-3
  79. Format/Info                              : Audio Coding 3
  80. Commercial name                          : Dolby Digital
  81. Codec ID                                 : A_AC3
  82. Duration                                 : 3 h 51 min
  83. Bit rate mode                            : Constant
  84. Bit rate                                 : 224 kb/s
  85. Channel(s)                               : 2 channels
  86. Channel layout                           : L R
  87. Sampling rate                            : 48.0 kHz
  88. Frame rate                               : 31.250 FPS (1536 SPF)
  89. Compression mode                         : Lossy
  90. Stream size                              : 371 MiB (0%)
  91. Title                                    : DD 2.0
  92. Language                                 : German
  93. Service kind                             : Complete Main
  94. Default                                  : No
  95. Forced                                   : No
  96. Original source medium                   : Blu-ray

  97. Audio #4
  98. ID                                       : 5
  99. ID in the original source medium         : 4354 (0x1102)
  100. Format                                   : AC-3
  101. Format/Info                              : Audio Coding 3
  102. Commercial name                          : Dolby Digital
  103. Codec ID                                 : A_AC3
  104. Duration                                 : 3 h 51 min
  105. Bit rate mode                            : Constant
  106. Bit rate                                 : 224 kb/s
  107. Channel(s)                               : 2 channels
  108. Channel layout                           : L R
  109. Sampling rate                            : 48.0 kHz
  110. Frame rate                               : 31.250 FPS (1536 SPF)
  111. Compression mode                         : Lossy
  112. Stream size                              : 371 MiB (0%)
  113. Title                                    : DD 2.0
  114. Language                                 : French
  115. Service kind                             : Complete Main
  116. Default                                  : No
  117. Forced                                   : No
  118. Original source medium                   : Blu-ray

  119. Audio #5
  120. ID                                       : 6
  121. ID in the original source medium         : 4355 (0x1103)
  122. Format                                   : AC-3
  123. Format/Info                              : Audio Coding 3
  124. Commercial name                          : Dolby Digital
  125. Codec ID                                 : A_AC3
  126. Duration                                 : 3 h 51 min
  127. Bit rate mode                            : Constant
  128. Bit rate                                 : 224 kb/s
  129. Channel(s)                               : 2 channels
  130. Channel layout                           : L R
  131. Sampling rate                            : 48.0 kHz
  132. Frame rate                               : 31.250 FPS (1536 SPF)
  133. Compression mode                         : Lossy
  134. Stream size                              : 371 MiB (0%)
  135. Title                                    : DD 2.0
  136. Language                                 : English
  137. Service kind                             : Complete Main
  138. Default                                  : No
  139. Forced                                   : No
  140. Original source medium                   : Blu-ray

  141. Text #1
  142. ID                                       : 7
  143. Format                                   : UTF-8
  144. Codec ID                                 : S_TEXT/UTF8
  145. Codec ID/Info                            : UTF-8 Plain Text
  146. Duration                                 : 3 h 43 min
  147. Bit rate                                 : 54 b/s
  148. Count of elements                        : 2648
  149. Stream size                              : 89.9 KiB (0%)
  150. Title                                    : English-SRT
  151. Language                                 : English
  152. Default                                  : Yes
  153. Forced                                   : No

  154. Text #2
  155. ID                                       : 8
  156. ID in the original source medium         : 4768 (0x12A0)
  157. Format                                   : PGS
  158. Muxing mode                              : zlib
  159. Codec ID                                 : S_HDMV/PGS
  160. Codec ID/Info                            : Picture based subtitle format used on BDs/HD-DVDs
  161. Duration                                 : 3 h 43 min
  162. Bit rate                                 : 38.3 kb/s
  163. Count of elements                        : 5312
  164. Stream size                              : 61.3 MiB (0%)
  165. Title                                    : English-PGS
  166. Language                                 : English
  167. Default                                  : No
  168. Forced                                   : No
  169. Original source medium                   : Blu-ray

  170. Text #3
  171. ID                                       : 9
  172. ID in the original source medium         : 4769 (0x12A1)
  173. Format                                   : PGS
  174. Muxing mode                              : zlib
  175. Codec ID                                 : S_HDMV/PGS
  176. Codec ID/Info                            : Picture based subtitle format used on BDs/HD-DVDs
  177. Duration                                 : 3 h 43 min
  178. Bit rate                                 : 41.2 kb/s
  179. Count of elements                        : 5739
  180. Stream size                              : 65.9 MiB (0%)
  181. Title                                    : English-SDhHPGS
  182. Language                                 : English
  183. Default                                  : No
  184. Forced                                   : No
  185. Original source medium                   : Blu-ray

  186. Text #4
  187. ID                                       : 10
  188. ID in the original source medium         : 4770 (0x12A2)
  189. Format                                   : PGS
  190. Muxing mode                              : zlib
  191. Codec ID                                 : S_HDMV/PGS
  192. Codec ID/Info                            : Picture based subtitle format used on BDs/HD-DVDs
  193. Duration                                 : 3 h 51 min
  194. Bit rate                                 : 39.2 kb/s
  195. Count of elements                        : 5318
  196. Stream size                              : 64.8 MiB (0%)
  197. Title                                    : German-PGS
  198. Language                                 : German
  199. Default                                  : No
  200. Forced                                   : No
  201. Original source medium                   : Blu-ray

  202. Text #5
  203. ID                                       : 11
  204. ID in the original source medium         : 4770 (0x12A2)
  205. Format                                   : PGS
  206. Muxing mode                              : zlib
  207. Codec ID                                 : S_HDMV/PGS
  208. Codec ID/Info                            : Picture based subtitle format used on BDs/HD-DVDs
  209. Duration                                 : 3 h 51 min
  210. Bit rate                                 : 185 b/s
  211. Count of elements                        : 26
  212. Stream size                              : 315 KiB (0%)
  213. Title                                    : German-FORCED-PGS
  214. Language                                 : German
  215. Default                                  : No
  216. Forced                                   : No
  217. Original source medium                   : Blu-ray

  218. Text #6
  219. ID                                       : 12
  220. ID in the original source medium         : 4771 (0x12A3)
  221. Format                                   : PGS
  222. Muxing mode                              : zlib
  223. Codec ID                                 : S_HDMV/PGS
  224. Codec ID/Info                            : Picture based subtitle format used on BDs/HD-DVDs
  225. Duration                                 : 3 h 51 min
  226. Bit rate                                 : 38.0 kb/s
  227. Count of elements                        : 5352
  228. Stream size                              : 62.9 MiB (0%)
  229. Title                                    : French-PGS
  230. Language                                 : French
  231. Default                                  : No
  232. Forced                                   : No
  233. Original source medium                   : Blu-ray

  234. Text #7
  235. ID                                       : 13
  236. ID in the original source medium         : 4771 (0x12A3)
  237. Format                                   : PGS
  238. Muxing mode                              : zlib
  239. Codec ID                                 : S_HDMV/PGS
  240. Codec ID/Info                            : Picture based subtitle format used on BDs/HD-DVDs
  241. Duration                                 : 3 h 51 min
  242. Bit rate                                 : 295 b/s
  243. Count of elements                        : 34
  244. Stream size                              : 502 KiB (0%)
  245. Title                                    : French-FORCED-PGS
  246. Language                                 : French
  247. Default                                  : No
  248. Forced                                   : No
  249. Original source medium                   : Blu-ray

  250. Text #8
  251. ID                                       : 14
  252. ID in the original source medium         : 4772 (0x12A4)
  253. Format                                   : PGS
  254. Muxing mode                              : zlib
  255. Codec ID                                 : S_HDMV/PGS
  256. Codec ID/Info                            : Picture based subtitle format used on BDs/HD-DVDs
  257. Duration                                 : 3 h 44 min
  258. Bit rate                                 : 69.5 kb/s
  259. Count of elements                        : 7100
  260. Stream size                              : 112 MiB (0%)
  261. Title                                    : English-COMMENTARY-PGS
  262. Language                                 : English
  263. Default                                  : No
  264. Forced                                   : No
  265. Original source medium                   : Blu-ray

  266. Text #9
  267. ID                                       : 15
  268. ID in the original source medium         : 4773 (0x12A5)
  269. Format                                   : PGS
  270. Muxing mode                              : zlib
  271. Codec ID                                 : S_HDMV/PGS
  272. Codec ID/Info                            : Picture based subtitle format used on BDs/HD-DVDs
  273. Duration                                 : 3 h 51 min
  274. Bit rate                                 : 58.2 kb/s
  275. Count of elements                        : 6196
  276. Stream size                              : 96.4 MiB (0%)
  277. Title                                    : German-COMMENTARY-PGS
  278. Language                                 : German
  279. Default                                  : No
  280. Forced                                   : No
  281. Original source medium                   : Blu-ray

  282. Text #10
  283. ID                                       : 16
  284. ID in the original source medium         : 4774 (0x12A6)
  285. Format                                   : PGS
  286. Muxing mode                              : zlib
  287. Codec ID                                 : S_HDMV/PGS
  288. Codec ID/Info                            : Picture based subtitle format used on BDs/HD-DVDs
  289. Duration                                 : 3 h 51 min
  290. Bit rate                                 : 56.5 kb/s
  291. Count of elements                        : 6892
  292. Stream size                              : 93.5 MiB (0%)
  293. Title                                    : French-COMMENTARY-PGS
  294. Language                                 : French
  295. Default                                  : No
  296. Forced                                   : No
  297. Original source medium                   : Blu-ray

  298. Menu
  299. 00:00:00.000                             : en:Chapter 01
  300. 00:01:40.391                             : en:Chapter 02
  301. 00:04:05.161                             : en:Chapter 03
  302. 00:09:44.166                             : en:Chapter 04
  303. 00:12:55.274                             : en:Chapter 05
  304. 00:17:04.898                             : en:Chapter 06
  305. 00:20:20.886                             : en:Chapter 07
  306. 00:25:58.014                             : en:Chapter 08
  307. 00:27:29.689                             : en:Chapter 09
  308. 00:30:49.222                             : en:Chapter 10
  309. 00:36:17.175                             : en:Chapter 11
  310. 00:38:17.670                             : en:Chapter 12
  311. 00:43:47.041                             : en:Chapter 13
  312. 00:49:26.964                             : en:Chapter 14
  313. 00:59:30.108                             : en:Chapter 15
  314. 01:07:28.294                             : en:Chapter 16
  315. 01:15:25.812                             : en:Chapter 17
  316. 01:18:42.467                             : en:Chapter 18
  317. 01:27:31.246                             : en:Chapter 19
  318. 01:38:42.291                             : en:Chapter 20
  319. 01:41:58.695                             : en:Chapter 21
  320. 01:44:10.077                             : en:Chapter 22
  321. 01:47:28.150                             : en:Chapter 23
  322. 01:53:08.990                             : en:Chapter 24
  323. 01:56:30.441                             : en:Chapter 25
  324. 01:59:40.256                             : en:Chapter 26
  325. 02:02:49.320                             : en:Chapter 27
  326. 02:05:54.463                             : en:Chapter 28
  327. 02:08:43.757                             : en:Chapter 29
  328. 02:15:49.975                             : en:Chapter 30
  329. 02:18:05.068                             : en:Chapter 31
  330. 02:23:20.925                             : en:Chapter 32
  331. 02:25:09.951                             : en:Chapter 33
  332. 02:29:49.689                             : en:Chapter 34
  333. 02:37:17.344                             : en:Chapter 35
  334. 02:44:31.820                             : en:Chapter 36
  335. 02:46:48.456                             : en:Chapter 37
  336. 02:55:14.086                             : en:Chapter 38
  337. 02:58:59.979                             : en:Chapter 39
  338. 03:10:00.847                             : en:Chapter 40
  339. 03:14:23.568                             : en:Chapter 41
  340. 03:19:28.081                             : en:Chapter 42
  341. 03:29:06.408                             : en:Chapter 43
  342. 03:32:01.166                             : en:Chapter 44
  343. 03:37:55.687                             : en:Chapter 45
  344. 03:40:34.930                             : en:Chapter 46
  345. 03:43:05.872                             : en:Chapter 47
  346. 03:46:52.390                             : en:Chapter 48
复制代码



                                       
                                       

                                       
                                       
                                       




回复

使用道具 举报

懒得打字嘛,点击右侧快捷回复 【右侧内容,后台自定义】
您需要登录后才可以回帖 登录 | 立即加入

本版积分规则

Archiver|小黑屋| 蓝光电影网 |网站地图

Copyright © 2021 Comsenz Inc. Powered by 蓝光电影网

蓝光电影网

本站内容由用户自主分享和转载自互联网,转载目的在于传递更多信息,并不代表本网赞同其观点和对其真实性负责。

如有侵权、违反国家法律政策行为,请联系我们,我们会第一时间及时清除和处理!

举报反馈邮箱:[email protected]

快速回复 返回顶部 返回列表