找回密码

蓝光电影网

查看: 67|回复: 0

[2160p] 小鬼当家/宝贝智多星 Home.Alone.1990.2160p.BluRay.x264.8bit.SDR.DTS-HD.MA.5.1-SWTYBLZ 64.62GB

[复制链接]
蓝光币
1084
发表于 2020-9-20 10:54:49 | 显示全部楼层 |阅读模式


◎译  名 小鬼当家/宝贝智多星/独安闲家
◎片  名 Home Alone
◎年  代 1990
◎产  地 美国
◎类  别 笑剧 / 家庭 / 犯罪
◎语  言 英语
◎上映日期 1990-11-16
◎IMDb评分  7.6/10 from 452495 users
◎IMDb链接  https://www.imdb.com/title/tt0099785/
◎豆瓣评分 8.3/10 from 306765 users
◎豆瓣链接 https://movie.douban.com/subject/1293088/
◎片  长 103分钟
◎导  演 克里斯·哥伦布 Chris Columbus
◎编  剧 约翰·休斯 John Hughes
◎主  演 麦考利·卡尔金 Macaulay Culkin
       乔·佩西 Joe Pesci
       丹尼尔·斯特恩 Daniel Stern
       约翰·赫德 John Heard
       罗伯茨·布洛瑟姆 Roberts Blossom
       凯瑟琳·欧哈拉 Catherine O'Hara
       安吉拉·戈塔尔斯 Angela Goethals
       戴文·雷特瑞 Devin Ratray
       杰瑞·巴曼 Gerry Bamman
       希拉里·沃尔夫 Hillary Wolf
       约翰·坎迪 John Candy
       拉里·哈金 Larry Hankin
       迈克尔·C·莫罗纳 Michael C. Maronna
       克里斯汀·敏特尔 Kristin Minter
       戴阿娜·坎佩露 Daiana Campeanu
       杰迪代亚·科恩 Jedidiah Cohen
       基南·卡尔金 Kieran Culkin
       森塔·摩西 Senta Moses
       泰利·斯内尔 Terrie Snell
       马特·多赫蒂 Matt Doherty
       拉尔夫·富迪 Ralph Foody
       迈克尔·吉多 Michael Guido
       雷·托勒 Ray Toler
       比莉·伯德 Billie Bird
       比尔·厄尔文 Bill Erwin
       格里·贝克尔 Gerry Becker
       克拉克·德弗洛 Clarke Devereux
       丹尼·沃霍尔 Dan Charles Zukoski
       霍普·戴维斯 Hope Davis
       詹姆斯·雷恩 James Ryan
       肯·哈德森·坎贝尔 Ken Hudson Campbell
       吉姆·奥特莱比 Jim Ortlieb
       莱昂纳尔·巴里摩尔 Lionel Barrymore
       奎因.卡尔金 Quinn Culkin
       拉加·高斯内尔 Raja Gosnell
       詹姆斯·M·赫夫曼 James M. Huffman
       宝拉·纽瑟姆 Paula Newsome
       尤里·鲁特曼 Yuri Rutman
       卢西亚诺·萨贝 Luciano Saber
       阿兰·维尔德 Alan Wilder
◎标  签 笑剧 | 美国 | 小鬼当家 | 儿童 | 搞笑 | 典范 | 美国电影 | 电影
◎简  介


  一年一度的圣诞节又到了。百口忙着外出欢度圣诞假期,不意忙中出错,将家里最小的成员——8岁的凯文(麦考利?卡尔金 Macaulay Culkin 饰)留在了家里。爸爸妈妈急坏了,可此时他们已经身在外地,一时亦无可何如。却是凯文乐坏了,可贵一小我在家,凯文将家里安插成了“游乐场”。
  
  两个刚出狱的窃贼将眼光瞄向了凯文家。当他们鬼头鬼脑的踏入凯文家时,凯文凭仗自己的夺目和家里的“游乐场机关”,和两个笨贼玩起了“游戏”,笑料百出。凯文最初能否这场“游戏”的成功?
◎获奖情况
  第63届奥斯卡金像奖 ?(1991)
  最好原创配乐(提名) 约翰·威廉姆斯
  最好原创歌曲(提名) 莱斯利·布里克斯?/?约翰·威廉姆斯
  1. Video
  2. ID                                       : 1
  3. Format                                   : AVC
  4. Format/Info                              : Advanced Video Codec
  5. Format profile                           : [email protected]
  6. Format settings                          : CABAC / 5 Ref Frames
  7. Format settings, CABAC                   : Yes
  8. Format settings, Reference frames        : 5 frames
  9. Codec ID                                 : V_MPEG4/ISO/AVC
  10. Duration                                 : 1 h 42 min
  11. Bit rate                                 : 85.3 Mb/s
  12. Width                                    : 3 840 pixels
  13. Height                                   : 2 076 pixels
  14. Display aspect ratio                     : 1.85:1
  15. Frame rate mode                          : Constant
  16. Frame rate                               : 23.976 (24000/1001/189150) FPS
  17. Color space                              : YUV
  18. Chroma subsampling                       : 4:2:0
  19. Bit depth                                : 8 bits
  20. Scan type                                : Progressive
  21. Bits/(Pixel*Frame)                       : 0.446
  22. Stream size                              : 61.3 GiB (95%)
  23. Title                                    : Home.Alone.1990.2160p.BluRay.x264.8bit.SDR.DTS-HD.MA.5.1-SWTYBLZ
  24. Writing library                          : x264 core 157 r2935 545de2f
  25. Encoding settings                        : cabac=1 / ref=5 / deblock=1:-1:-1 / analyse=0x3:0x113 / me=umh / subme=10 / psy=1 / psy_rd=1.00:0.15 / mixed_ref=1 / me_range=48 / chroma_me=1 / trellis=2 / 8x8dct=1 / cqm=0 / deadzone=21,11 / fast_pskip=1 / chroma_qp_offset=-3 / threads=48 / lookahead_threads=4 / sliced_threads=0 / nr=0 / decimate=0 / interlaced=0 / bluray_compat=0 / constrained_intra=0 / bframes=3 / b_pyramid=2 / b_adapt=2 / b_bias=0 / direct=3 / weightb=1 / open_gop=0 / weightp=2 / keyint=250 / keyint_min=23 / scenecut=40 / intra_refresh=0 / rc_lookahead=50 / rc=crf / mbtree=1 / crf=18.0 / qcomp=0.60 / qpmin=0 / qpmax=69 / qpstep=4 / ip_ratio=1.40 / aq=1:1.00
  26. Language                                 : English
  27. Default                                  : Yes
  28. Forced                                   : No
  29. Audio #1
  30. ID                                       : 2
  31. ID in the original source medium         : 4352 (0x1100)
  32. Format                                   : DTS XLL
  33. Format/Info                              : Digital Theater Systems
  34. Commercial name                          : DTS-HD Master Audio
  35. Codec ID                                 : A_DTS
  36. Duration                                 : 1 h 42 min
  37. Bit rate mode                            : Variable
  38. Bit rate                                 : 3 569 kb/s
  39. Channel(s)                               : 6 channels
  40. Channel layout                           : C L R Ls Rs LFE
  41. Sampling rate                            : 48.0 kHz
  42. Frame rate                               : 93.750 FPS (512 SPF)
  43. Bit depth                                : 24 bits
  44. Compression mode                         : Lossless
  45. Stream size                              : 2.56 GiB (4%)
  46. Title                                    : Home.Alone.1990.2160p.BluRay.x264.8bit.SDR.DTS-HD.MA.5.1-SWTYBLZ
  47. Language                                 : English
  48. Default                                  : Yes
  49. Forced                                   : No
  50. Original source medium                   : Blu-ray
  51. Audio #2
  52. ID                                       : 3
  53. Format                                   : AC-3
  54. Format/Info                              : Audio Coding 3
  55. Commercial name                          : Dolby Digital
  56. Codec ID                                 : A_AC3
  57. Duration                                 : 1 h 42 min
  58. Bit rate mode                            : Constant
  59. Bit rate                                 : 640 kb/s
  60. Channel(s)                               : 6 channels
  61. Channel layout                           : L R C LFE Ls Rs
  62. Sampling rate                            : 48.0 kHz
  63. Frame rate                               : 31.250 FPS (1536 SPF)
  64. Compression mode                         : Lossy
  65. Stream size                              : 471 MiB (1%)
  66. Title                                    : Home.Alone.1990.2160p.BluRay.x264.8bit.SDR.DTS-HD.MA.5.1-SWTYBLZ
  67. Language                                 : English
  68. Service kind                             : Complete Main
  69. Default                                  : No
  70. Forced                                   : No
  71. Text #1
  72. ID                                       : 4
  73. Format                                   : UTF-8
  74. Codec ID                                 : S_TEXT/UTF8
  75. Codec ID/Info                            : UTF-8 Plain Text
  76. Duration                                 : 1 h 40 min
  77. Bit rate                                 : 59 b/s
  78. Count of elements                        : 1204
  79. Stream size                              : 43.4 KiB (0%)
  80. Title                                    : English-SRT
  81. Language                                 : English
  82. Default                                  : Yes
  83. Forced                                   : No
  84. Text #2
  85. ID                                       : 5
  86. ID in the original source medium         : 4768 (0x12A0)
  87. Format                                   : PGS
  88. Muxing mode                              : zlib
  89. Codec ID                                 : S_HDMV/PGS
  90. Codec ID/Info                            : Picture based subtitle format used on BDs/HD-DVDs
  91. Duration                                 : 1 h 40 min
  92. Bit rate                                 : 43.1 kb/s
  93. Count of elements                        : 2582
  94. Stream size                              : 31.0 MiB (0%)
  95. Title                                    : English-PGS
  96. Language                                 : English
  97. Default                                  : No
  98. Forced                                   : No
  99. Original source medium                   : Blu-ray
  100. Text #3
  101. ID                                       : 6
  102. ID in the original source medium         : 4769 (0x12A1)
  103. Format                                   : PGS
  104. Muxing mode                              : zlib
  105. Codec ID                                 : S_HDMV/PGS
  106. Codec ID/Info                            : Picture based subtitle format used on BDs/HD-DVDs
  107. Duration                                 : 1 h 41 min
  108. Bit rate                                 : 27.3 kb/s
  109. Count of elements                        : 1992
  110. Stream size                              : 19.9 MiB (0%)
  111. Title                                    : French-PGS
  112. Language                                 : French
  113. Default                                  : No
  114. Forced                                   : No
  115. Original source medium                   : Blu-ray
  116. Text #4
  117. ID                                       : 7
  118. ID in the original source medium         : 4770 (0x12A2)
  119. Format                                   : PGS
  120. Muxing mode                              : zlib
  121. Codec ID                                 : S_HDMV/PGS
  122. Codec ID/Info                            : Picture based subtitle format used on BDs/HD-DVDs
  123. Duration                                 : 1 h 41 min
  124. Bit rate                                 : 26.2 kb/s
  125. Count of elements                        : 2024
  126. Stream size                              : 19.0 MiB (0%)
  127. Title                                    : Spanish-PGS
  128. Language                                 : Spanish
  129. Default                                  : No
  130. Forced                                   : No
  131. Original source medium                   : Blu-ray
  132. Text #5
  133. ID                                       : 8
  134. ID in the original source medium         : 4771 (0x12A3)
  135. Format                                   : PGS
  136. Muxing mode                              : zlib
  137. Codec ID                                 : S_HDMV/PGS
  138. Codec ID/Info                            : Picture based subtitle format used on BDs/HD-DVDs
  139. Duration                                 : 1 h 37 min
  140. Bit rate                                 : 17.0 kb/s
  141. Count of elements                        : 1900
  142. Stream size                              : 11.8 MiB (0%)
  143. Title                                    : Japanese-PGS
  144. Language                                 : Japanese
  145. Default                                  : No
  146. Forced                                   : No
  147. Original source medium                   : Blu-ray
  148. Menu
  149. 00:00:00.000                             : en:Chapter 01
  150. 00:03:47.060                             : en:Chapter 02
  151. 00:05:46.512                             : en:Chapter 03
  152. 00:08:49.195                             : en:Chapter 04
  153. 00:11:28.729                             : en:Chapter 05
  154. 00:13:43.239                             : en:Chapter 06
  155. 00:19:27.457                             : en:Chapter 07
  156. 00:25:08.173                             : en:Chapter 08
  157. 00:31:15.957                             : en:Chapter 09
  158. 00:35:56.654                             : en:Chapter 10
  159. 00:41:09.550                             : en:Chapter 11
  160. 00:51:22.454                             : en:Chapter 12
  161. 00:57:38.204                             : en:Chapter 13
  162. 01:03:27.428                             : en:Chapter 14
  163. 01:06:33.656                             : en:Chapter 15
  164. 01:13:43.752                             : en:Chapter 16
  165. 01:15:13.175                             : en:Chapter 17
  166. 01:19:27.053                             : en:Chapter 18
  167. 01:22:51.341                             : en:Chapter 19
  168. 01:25:59.863                             : en:Chapter 20
  169. 01:28:44.777                             : en:Chapter 21
  170. 01:33:31.939                             : en:Chapter 22
  171. 01:37:58.289                             : en:Chapter 23
  172. 01:39:06.357                             : en:Chapter 24
复制代码




                                       
                                       

                                       
                                       
                                       




回复

使用道具 举报

懒得打字嘛,点击右侧快捷回复 【右侧内容,后台自定义】
您需要登录后才可以回帖 登录 | 立即加入

本版积分规则

Archiver|小黑屋| 蓝光电影网 |网站地图

Copyright © 2021 Comsenz Inc. Powered by 蓝光电影网

蓝光电影网

本站内容由用户自主分享和转载自互联网,转载目的在于传递更多信息,并不代表本网赞同其观点和对其真实性负责。

如有侵权、违反国家法律政策行为,请联系我们,我们会第一时间及时清除和处理!

举报反馈邮箱:[email protected]

快速回复 返回顶部 返回列表