找回密码

蓝光电影网

查看: 66|回复: 0

[2160p] 小鬼当家/宝贝智多星 Home.Alone.1990.2160p.BluRay.x265.10bit.SDR.DTS-HD.MA.5.1-SWTYBLZ 56.59GB

[复制链接]
蓝光币
1080
发表于 2020-9-20 10:53:49 | 显示全部楼层 |阅读模式


◎译  名 小鬼当家/宝贝智多星/独安闲家
◎片  名 Home Alone
◎年  代 1990
◎产  地 美国
◎类  别 笑剧 / 家庭 / 犯罪
◎语  言 英语
◎上映日期 1990-11-16
◎IMDb评分  7.6/10 from 452495 users
◎IMDb链接  https://www.imdb.com/title/tt0099785/
◎豆瓣评分 8.3/10 from 306765 users
◎豆瓣链接 https://movie.douban.com/subject/1293088/
◎片  长 103分钟
◎导  演 克里斯·哥伦布 Chris Columbus
◎编  剧 约翰·休斯 John Hughes
◎主  演 麦考利·卡尔金 Macaulay Culkin
       乔·佩西 Joe Pesci
       丹尼尔·斯特恩 Daniel Stern
       约翰·赫德 John Heard
       罗伯茨·布洛瑟姆 Roberts Blossom
       凯瑟琳·欧哈拉 Catherine O'Hara
       安吉拉·戈塔尔斯 Angela Goethals
       戴文·雷特瑞 Devin Ratray
       杰瑞·巴曼 Gerry Bamman
       希拉里·沃尔夫 Hillary Wolf
       约翰·坎迪 John Candy
       拉里·哈金 Larry Hankin
       迈克尔·C·莫罗纳 Michael C. Maronna
       克里斯汀·敏特尔 Kristin Minter
       戴阿娜·坎佩露 Daiana Campeanu
       杰迪代亚·科恩 Jedidiah Cohen
       基南·卡尔金 Kieran Culkin
       森塔·摩西 Senta Moses
       泰利·斯内尔 Terrie Snell
       马特·多赫蒂 Matt Doherty
       拉尔夫·富迪 Ralph Foody
       迈克尔·吉多 Michael Guido
       雷·托勒 Ray Toler
       比莉·伯德 Billie Bird
       比尔·厄尔文 Bill Erwin
       格里·贝克尔 Gerry Becker
       克拉克·德弗洛 Clarke Devereux
       丹尼·沃霍尔 Dan Charles Zukoski
       霍普·戴维斯 Hope Davis
       詹姆斯·雷恩 James Ryan
       肯·哈德森·坎贝尔 Ken Hudson Campbell
       吉姆·奥特莱比 Jim Ortlieb
       莱昂纳尔·巴里摩尔 Lionel Barrymore
       奎因.卡尔金 Quinn Culkin
       拉加·高斯内尔 Raja Gosnell
       詹姆斯·M·赫夫曼 James M. Huffman
       宝拉·纽瑟姆 Paula Newsome
       尤里·鲁特曼 Yuri Rutman
       卢西亚诺·萨贝 Luciano Saber
       阿兰·维尔德 Alan Wilder
◎标  签 笑剧 | 美国 | 小鬼当家 | 儿童 | 搞笑 | 典范 | 美国电影 | 电影
◎简  介


  一年一度的圣诞节又到了。百口忙着外出欢度圣诞假期,不意忙中出错,将家里最小的成员——8岁的凯文(麦考利?卡尔金 Macaulay Culkin 饰)留在了家里。爸爸妈妈急坏了,可此时他们已经身在外地,一时亦无可何如。却是凯文乐坏了,可贵一小我在家,凯文将家里安插成了“游乐场”。
  
  两个刚出狱的窃贼将眼光瞄向了凯文家。当他们鬼头鬼脑的踏入凯文家时,凯文凭仗自己的夺目和家里的“游乐场机关”,和两个笨贼玩起了“游戏”,笑料百出。凯文最初能否这场“游戏”的成功?
◎获奖情况
  第63届奥斯卡金像奖 ?(1991)
  最好原创配乐(提名) 约翰·威廉姆斯
  最好原创歌曲(提名) 莱斯利·布里克斯?/?约翰·威廉姆斯
  1. Video
  2. ID                                       : 1
  3. Format                                   : HEVC
  4. Format/Info                              : High Efficiency Video Coding
  5. Format profile                           : Main [email protected]@High
  6. Codec ID                                 : V_MPEGH/ISO/HEVC
  7. Duration                                 : 1 h 42 min
  8. Bit rate                                 : 74.2 Mb/s
  9. Width                                    : 3 840 pixels
  10. Height                                   : 2 076 pixels
  11. Display aspect ratio                     : 1.85:1
  12. Frame rate mode                          : Constant
  13. Frame rate                               : 23.976 (24000/1001/189150) FPS
  14. Color space                              : YUV
  15. Chroma subsampling                       : 4:2:0
  16. Bit depth                                : 10 bits
  17. Bits/(Pixel*Frame)                       : 0.388
  18. Stream size                              : 53.3 GiB (95%)
  19. Title                                    : Home.Alone.1990.2160p.BluRay.x265.10bit.SDR.DTS-HD.MA.5.1-SWTYBLZ
  20. Writing library                          : x265 3.0ed72af837053:[Windows][GCC 8.2.0][64 bit] 10bit
  21. Encoding settings                        : cpuid=1111039 / frame-threads=6 / numa-pools=40 / wpp / no-pmode / no-pme / no-psnr / no-ssim / log-level=2 / input-csp=1 / input-res=3840x2076 / interlace=0 / total-frames=147955 / level-idc=51 / high-tier=1 / uhd-bd=0 / ref=3 / no-allow-non-conformance / repeat-headers / annexb / aud / hrd / info / hash=0 / no-temporal-layers / no-open-gop / min-keyint=1 / keyint=24 / gop-lookahead=0 / bframes=4 / b-adapt=2 / b-pyramid / bframe-bias=0 / rc-lookahead=25 / lookahead-slices=4 / scenecut=40 / radl=0 / no-splice / no-intra-refresh / ctu=64 / min-cu-size=8 / no-rect / no-amp / max-tu-size=32 / tu-inter-depth=1 / tu-intra-depth=1 / limit-tu=0 / rdoq-level=0 / dynamic-rd=0.00 / no-ssim-rd / signhide / no-tskip / nr-intra=0 / nr-inter=0 / no-constrained-intra / strong-intra-smoothing / max-merge=2 / limit-refs=3 / no-limit-modes / me=1 / subme=2 / merange=57 / temporal-mvp / weightp / no-weightb / no-analyze-src-pics / deblock=0:0 / no-sao / no-sao-non-deblock / rd=3 / no-early-skip / rskip / no-fast-intra / no-tskip-fast / no-cu-lossless / no-b-intra / no-splitrd-skip / rdpenalty=0 / psy-rd=2.00 / psy-rdoq=0.00 / no-rd-refine / no-lossless / cbqpoffs=0 / crqpoffs=0 / rc=crf / crf=16.0 / qcomp=0.60 / qpstep=4 / stats-write=0 / stats-read=0 / vbv-maxrate=160000 / vbv-bufsize=160000 / vbv-init=0.9 / crf-max=0.0 / crf-min=0.0 / ipratio=1.40 / pbratio=1.30 / aq-mode=1 / aq-strength=1.00 / cutree / zone-count=0 / no-strict-cbr / qg-size=32 / no-rc-grain / qpmax=69 / qpmin=0 / no-const-vbv / sar=1 / overscan=0 / videoformat=5 / range=0 / colorprim=2 / transfer=2 / colormatrix=2 / chromaloc=0 / display-window=0 / max-cll=0,0 / min-luma=0 / max-luma=1023 / log2-max-poc-lsb=8 / vui-timing-info / vui-hrd-info / slices=1 / opt-qp-pps / opt-ref-list-length-pps / no-multi-pass-opt-rps / scenecut-bias=0.05 / no-opt-cu-delta-qp / no-aq-motion / no-hdr / no-hdr-opt / no-dhdr10-opt / no-idr-recovery-sei / analysis-reuse-level=5 / scale-factor=0 / refine-intra=0 / refine-inter=0 / refine-mv=0 / refine-ctu-distortion=0 / no-limit-sao / ctu-info=0 / no-lowpass-dct / refine-analysis-type=0 / copy-pic=1 / max-ausize-factor=1.0 / no-dynamic-refine / no-single-sei / no-hevc-aq / qp-adaptation-range=1.00
  22. Language                                 : English
  23. Default                                  : Yes
  24. Forced                                   : No
  25. Audio #1
  26. ID                                       : 2
  27. ID in the original source medium         : 4352 (0x1100)
  28. Format                                   : DTS XLL
  29. Format/Info                              : Digital Theater Systems
  30. Commercial name                          : DTS-HD Master Audio
  31. Codec ID                                 : A_DTS
  32. Duration                                 : 1 h 42 min
  33. Bit rate mode                            : Variable
  34. Bit rate                                 : 3 569 kb/s
  35. Channel(s)                               : 6 channels
  36. Channel layout                           : C L R Ls Rs LFE
  37. Sampling rate                            : 48.0 kHz
  38. Frame rate                               : 93.750 FPS (512 SPF)
  39. Bit depth                                : 24 bits
  40. Compression mode                         : Lossless
  41. Stream size                              : 2.56 GiB (5%)
  42. Title                                    : Home.Alone.1990.2160p.BluRay.x265.10bit.SDR.DTS-HD.MA.5.1-SWTYBLZ
  43. Language                                 : English
  44. Default                                  : Yes
  45. Forced                                   : No
  46. Original source medium                   : Blu-ray
  47. Audio #2
  48. ID                                       : 3
  49. Format                                   : AC-3
  50. Format/Info                              : Audio Coding 3
  51. Commercial name                          : Dolby Digital
  52. Codec ID                                 : A_AC3
  53. Duration                                 : 1 h 42 min
  54. Bit rate mode                            : Constant
  55. Bit rate                                 : 640 kb/s
  56. Channel(s)                               : 6 channels
  57. Channel layout                           : L R C LFE Ls Rs
  58. Sampling rate                            : 48.0 kHz
  59. Frame rate                               : 31.250 FPS (1536 SPF)
  60. Compression mode                         : Lossy
  61. Stream size                              : 471 MiB (1%)
  62. Title                                    : Home.Alone.1990.2160p.BluRay.x265.10bit.SDR.DTS-HD.MA.5.1-SWTYBLZ
  63. Language                                 : English
  64. Service kind                             : Complete Main
  65. Default                                  : No
  66. Forced                                   : No
  67. Text #1
  68. ID                                       : 4
  69. Format                                   : UTF-8
  70. Codec ID                                 : S_TEXT/UTF8
  71. Codec ID/Info                            : UTF-8 Plain Text
  72. Duration                                 : 1 h 40 min
  73. Bit rate                                 : 59 b/s
  74. Count of elements                        : 1204
  75. Stream size                              : 43.4 KiB (0%)
  76. Title                                    : English-SRT
  77. Language                                 : English
  78. Default                                  : Yes
  79. Forced                                   : No
  80. Text #2
  81. ID                                       : 5
  82. ID in the original source medium         : 4768 (0x12A0)
  83. Format                                   : PGS
  84. Muxing mode                              : zlib
  85. Codec ID                                 : S_HDMV/PGS
  86. Codec ID/Info                            : Picture based subtitle format used on BDs/HD-DVDs
  87. Duration                                 : 1 h 40 min
  88. Bit rate                                 : 43.1 kb/s
  89. Count of elements                        : 2582
  90. Stream size                              : 31.0 MiB (0%)
  91. Title                                    : English-PGS
  92. Language                                 : English
  93. Default                                  : No
  94. Forced                                   : No
  95. Original source medium                   : Blu-ray
  96. Text #3
  97. ID                                       : 6
  98. ID in the original source medium         : 4769 (0x12A1)
  99. Format                                   : PGS
  100. Muxing mode                              : zlib
  101. Codec ID                                 : S_HDMV/PGS
  102. Codec ID/Info                            : Picture based subtitle format used on BDs/HD-DVDs
  103. Duration                                 : 1 h 41 min
  104. Bit rate                                 : 27.3 kb/s
  105. Count of elements                        : 1992
  106. Stream size                              : 19.9 MiB (0%)
  107. Title                                    : French-PGS
  108. Language                                 : French
  109. Default                                  : No
  110. Forced                                   : No
  111. Original source medium                   : Blu-ray
  112. Text #4
  113. ID                                       : 7
  114. ID in the original source medium         : 4770 (0x12A2)
  115. Format                                   : PGS
  116. Muxing mode                              : zlib
  117. Codec ID                                 : S_HDMV/PGS
  118. Codec ID/Info                            : Picture based subtitle format used on BDs/HD-DVDs
  119. Duration                                 : 1 h 41 min
  120. Bit rate                                 : 26.2 kb/s
  121. Count of elements                        : 2024
  122. Stream size                              : 19.0 MiB (0%)
  123. Title                                    : Spanish-PGS
  124. Language                                 : Spanish
  125. Default                                  : No
  126. Forced                                   : No
  127. Original source medium                   : Blu-ray
  128. Text #5
  129. ID                                       : 8
  130. ID in the original source medium         : 4771 (0x12A3)
  131. Format                                   : PGS
  132. Muxing mode                              : zlib
  133. Codec ID                                 : S_HDMV/PGS
  134. Codec ID/Info                            : Picture based subtitle format used on BDs/HD-DVDs
  135. Duration                                 : 1 h 37 min
  136. Bit rate                                 : 17.0 kb/s
  137. Count of elements                        : 1900
  138. Stream size                              : 11.8 MiB (0%)
  139. Title                                    : Japanese-PGS
  140. Language                                 : Japanese
  141. Default                                  : No
  142. Forced                                   : No
  143. Original source medium                   : Blu-ray
  144. Menu
  145. 00:00:00.000                             : en:Chapter 01
  146. 00:03:47.060                             : en:Chapter 02
  147. 00:05:46.512                             : en:Chapter 03
  148. 00:08:49.195                             : en:Chapter 04
  149. 00:11:28.729                             : en:Chapter 05
  150. 00:13:43.239                             : en:Chapter 06
  151. 00:19:27.457                             : en:Chapter 07
  152. 00:25:08.173                             : en:Chapter 08
  153. 00:31:15.957                             : en:Chapter 09
  154. 00:35:56.654                             : en:Chapter 10
  155. 00:41:09.550                             : en:Chapter 11
  156. 00:51:22.454                             : en:Chapter 12
  157. 00:57:38.204                             : en:Chapter 13
  158. 01:03:27.428                             : en:Chapter 14
  159. 01:06:33.656                             : en:Chapter 15
  160. 01:13:43.752                             : en:Chapter 16
  161. 01:15:13.175                             : en:Chapter 17
  162. 01:19:27.053                             : en:Chapter 18
  163. 01:22:51.341                             : en:Chapter 19
  164. 01:25:59.863                             : en:Chapter 20
  165. 01:28:44.777                             : en:Chapter 21
  166. 01:33:31.939                             : en:Chapter 22
  167. 01:37:58.289                             : en:Chapter 23
  168. 01:39:06.357                             : en:Chapter 24
复制代码




                                       
                                       

                                       
                                       
                                       




回复

使用道具 举报

懒得打字嘛,点击右侧快捷回复 【右侧内容,后台自定义】
您需要登录后才可以回帖 登录 | 立即加入

本版积分规则

Archiver|小黑屋| 蓝光电影网 |网站地图

Copyright © 2021 Comsenz Inc. Powered by 蓝光电影网

蓝光电影网

本站内容由用户自主分享和转载自互联网,转载目的在于传递更多信息,并不代表本网赞同其观点和对其真实性负责。

如有侵权、违反国家法律政策行为,请联系我们,我们会第一时间及时清除和处理!

举报反馈邮箱:[email protected]

快速回复 返回顶部 返回列表