找回密码

蓝光电影网

查看: 974|回复: 0

[2160p] 女巫也疯狂/神猫救世界 Hocus.Pocus.1993.2160p.BluRay.x265.10bit.SDR.DTS-HD.MA.5.1-SWTYBLZ 38.39GB

[复制链接]
蓝光币
1704
发表于 2020-9-17 12:45:12 | 显示全部楼层 |阅读模式


◎译  名 女巫也疯狂/神猫救天下
◎片  名 Hocus Pocus
◎年  代 1993
◎产  地 美国
◎类  别 笑剧 / 可骇 / 家庭 / 奇异
◎语  言 英语
◎上映日期 1993-07-16
◎IMDb评分  6.9/10 from 91083 users
◎IMDb链接  https://www.imdb.com/title/tt0107120/
◎豆瓣评分 6.7/10 from 598 users
◎豆瓣链接 https://movie.douban.com/subject/1300448/
◎片  长 96 分钟
◎导  演 肯尼·奥特加 Kenny Ortega
◎编  剧 米克·加里斯 Mick Garris / Neil Cuthbert / David Kirschner
◎主  演 莎拉·杰茜卡·帕克 Sarah Jessica Parker
       凯茜·纳基麦 Kathy Najimy
       索拉·伯奇 Thora Birch
       潘妮·马歇尔 Penny Marshall
       Joseph Malone
       Jordan Redmond
       唐·耶索 Don Yesso
       道格·琼斯 Doug Jones
       杰森·马斯登 Jason Marsden
       诺伯特·魏塞尔 Norbert Weisser
       托比亚斯·耶利内克 Tobias Jelinek
       凡妮莎·肖 Vinessa Shaw
       佩吉·霍姆斯 Peggy Holmes
       盖瑞·马歇尔 Garry Marshall
       查尔斯·罗基特 Charles Rocket
       Taylor Stanley
       Jodie Rivera
       凯瑟琳·弗里曼 Kathleen Freeman
       尚恩·穆雷 Sean Murray
       欧姆里·卡兹 Omri Katz
       斯蒂芬妮·法拉希 Stephanie Faracy
       克里斯·亨利·科菲 Chris Henry Coffey
       拉里·巴格比 Larry Bagby
       贝特·米德勒 Bette Midler
◎标  签 魔幻 | 美国 | 笑剧 | 女巫也疯狂 | 奇异 | 1993 | 美国电影 | 鬼魅神灵
◎简  介


  故事发生在万圣节的夜晚,男孩马克思(欧姆里·卡兹 Omri Katz 饰)在误打误撞当中扑灭了邪恶的烛炬,将在三百年前早已经死去的三名女巫威尼弗雷德(贝特·米德勒 Bette Midler 饰)、莎拉(莎拉·杰西卡·帕克 Sarah Jessica Parker 饰)和马莉(凯茜·纳基麦 Kathy Najimy 饰)从天堂呼唤回了人世。很久很久之前,这三名女巫由于吸食小孩的精气而被判以死刑,现在,再度回到阳世的她们决议重蹈覆辙。
  
  得知了女巫们的诡计,马克思决议绝不坐视不管。他找到了妹妹丹尼(索拉·伯奇 Thora Birch 饰)和洽友艾莉森(凡妮莎·肖 Vinessa Shaw 饰)三人一路行动,计划破坏女巫们的行动。留给孩子们的时候已经很少了。
  1. Video
  2. ID                                       : 1
  3. Format                                   : HEVC
  4. Format/Info                              : High Efficiency Video Coding
  5. Format profile                           : Main [email protected]@High
  6. Codec ID                                 : V_MPEGH/ISO/HEVC
  7. Duration                                 : 1 h 36 min
  8. Bit rate                                 : 52.0 Mb/s
  9. Width                                    : 3 840 pixels
  10. Height                                   : 2 076 pixels
  11. Display aspect ratio                     : 1.85:1
  12. Frame rate mode                          : Constant
  13. Frame rate                               : 23.976 (24000/1001/189150) FPS
  14. Color space                              : YUV
  15. Chroma subsampling                       : 4:2:0
  16. Bit depth                                : 10 bits
  17. Bits/(Pixel*Frame)                       : 0.272
  18. Stream size                              : 34.9 GiB (91%)
  19. Title                                    : Hocus.Pocus.1993.2160p.BluRay.x265.10bit.SDR.DTS-HD.MA.5.1-SWTYBLZ
  20. Writing library                          : x265 3.0ed72af837053:[Windows][GCC 8.2.0][64 bit] 10bit
  21. Encoding settings                        : cpuid=1111039 / frame-threads=6 / numa-pools=40 / wpp / no-pmode / no-pme / no-psnr / no-ssim / log-level=2 / input-csp=1 / input-res=3840x2076 / interlace=0 / total-frames=138287 / level-idc=51 / high-tier=1 / uhd-bd=0 / ref=3 / no-allow-non-conformance / repeat-headers / annexb / aud / hrd / info / hash=0 / no-temporal-layers / no-open-gop / min-keyint=1 / keyint=24 / gop-lookahead=0 / bframes=4 / b-adapt=2 / b-pyramid / bframe-bias=0 / rc-lookahead=25 / lookahead-slices=4 / scenecut=40 / radl=0 / no-splice / no-intra-refresh / ctu=64 / min-cu-size=8 / no-rect / no-amp / max-tu-size=32 / tu-inter-depth=1 / tu-intra-depth=1 / limit-tu=0 / rdoq-level=0 / dynamic-rd=0.00 / no-ssim-rd / signhide / no-tskip / nr-intra=0 / nr-inter=0 / no-constrained-intra / strong-intra-smoothing / max-merge=2 / limit-refs=3 / no-limit-modes / me=1 / subme=2 / merange=57 / temporal-mvp / weightp / no-weightb / no-analyze-src-pics / deblock=0:0 / no-sao / no-sao-non-deblock / rd=3 / no-early-skip / rskip / no-fast-intra / no-tskip-fast / no-cu-lossless / no-b-intra / no-splitrd-skip / rdpenalty=0 / psy-rd=2.00 / psy-rdoq=0.00 / no-rd-refine / no-lossless / cbqpoffs=0 / crqpoffs=0 / rc=crf / crf=16.0 / qcomp=0.60 / qpstep=4 / stats-write=0 / stats-read=0 / vbv-maxrate=160000 / vbv-bufsize=160000 / vbv-init=0.9 / crf-max=0.0 / crf-min=0.0 / ipratio=1.40 / pbratio=1.30 / aq-mode=1 / aq-strength=1.00 / cutree / zone-count=0 / no-strict-cbr / qg-size=32 / no-rc-grain / qpmax=69 / qpmin=0 / no-const-vbv / sar=1 / overscan=0 / videoformat=5 / range=0 / colorprim=2 / transfer=2 / colormatrix=2 / chromaloc=0 / display-window=0 / max-cll=0,0 / min-luma=0 / max-luma=1023 / log2-max-poc-lsb=8 / vui-timing-info / vui-hrd-info / slices=1 / opt-qp-pps / opt-ref-list-length-pps / no-multi-pass-opt-rps / scenecut-bias=0.05 / no-opt-cu-delta-qp / no-aq-motion / no-hdr / no-hdr-opt / no-dhdr10-opt / no-idr-recovery-sei / analysis-reuse-level=5 / scale-factor=0 / refine-intra=0 / refine-inter=0 / refine-mv=0 / refine-ctu-distortion=0 / no-limit-sao / ctu-info=0 / no-lowpass-dct / refine-analysis-type=0 / copy-pic=1 / max-ausize-factor=1.0 / no-dynamic-refine / no-single-sei / no-hevc-aq / qp-adaptation-range=1.00
  22. Language                                 : English
  23. Default                                  : Yes
  24. Forced                                   : No

  25. Audio #1
  26. ID                                       : 2
  27. Format                                   : DTS XLL
  28. Format/Info                              : Digital Theater Systems
  29. Commercial name                          : DTS-HD Master Audio
  30. Codec ID                                 : A_DTS
  31. Duration                                 : 1 h 36 min
  32. Bit rate mode                            : Variable
  33. Bit rate                                 : 4 191 kb/s
  34. Channel(s)                               : 6 channels
  35. Channel layout                           : C L R Ls Rs LFE
  36. Sampling rate                            : 48.0 kHz
  37. Frame rate                               : 93.750 FPS (512 SPF)
  38. Bit depth                                : 24 bits
  39. Compression mode                         : Lossless
  40. Stream size                              : 2.81 GiB (7%)
  41. Title                                    : Hocus.Pocus.1993.2160p.BluRay.x265.10bit.SDR.DTS-HD.MA.5.1-SWTYBLZ
  42. Language                                 : English
  43. Default                                  : Yes
  44. Forced                                   : No

  45. Audio #2
  46. ID                                       : 3
  47. Format                                   : AC-3
  48. Format/Info                              : Audio Coding 3
  49. Commercial name                          : Dolby Digital
  50. Codec ID                                 : A_AC3
  51. Duration                                 : 1 h 36 min
  52. Bit rate mode                            : Constant
  53. Bit rate                                 : 640 kb/s
  54. Channel(s)                               : 6 channels
  55. Channel layout                           : L R C LFE Ls Rs
  56. Sampling rate                            : 48.0 kHz
  57. Frame rate                               : 31.250 FPS (1536 SPF)
  58. Compression mode                         : Lossy
  59. Stream size                              : 440 MiB (1%)
  60. Title                                    : Hocus.Pocus.1993.2160p.BluRay.x265.10bit.SDR.DTS-HD.MA.5.1-SWTYBLZ
  61. Language                                 : English
  62. Service kind                             : Complete Main
  63. Default                                  : No
  64. Forced                                   : No

  65. Text #1
  66. ID                                       : 4
  67. Format                                   : UTF-8
  68. Codec ID                                 : S_TEXT/UTF8
  69. Codec ID/Info                            : UTF-8 Plain Text
  70. Duration                                 : 1 h 32 min
  71. Bit rate                                 : 53 b/s
  72. Count of elements                        : 1496
  73. Stream size                              : 36.4 KiB (0%)
  74. Title                                    : English_SRT
  75. Language                                 : English
  76. Default                                  : Yes
  77. Forced                                   : No

  78. Text #2
  79. ID                                       : 5
  80. Format                                   : PGS
  81. Muxing mode                              : zlib
  82. Codec ID                                 : S_HDMV/PGS
  83. Codec ID/Info                            : Picture based subtitle format used on BDs/HD-DVDs
  84. Duration                                 : 1 h 33 min
  85. Bit rate                                 : 71.9 kb/s
  86. Count of elements                        : 3620
  87. Stream size                              : 48.3 MiB (0%)
  88. Title                                    : English-PGS
  89. Language                                 : English
  90. Default                                  : No
  91. Forced                                   : No

  92. Text #3
  93. ID                                       : 6
  94. Format                                   : PGS
  95. Muxing mode                              : zlib
  96. Codec ID                                 : S_HDMV/PGS
  97. Codec ID/Info                            : Picture based subtitle format used on BDs/HD-DVDs
  98. Duration                                 : 1 h 31 min
  99. Bit rate                                 : 42.4 kb/s
  100. Count of elements                        : 1562
  101. Stream size                              : 27.7 MiB (0%)
  102. Title                                    : French-PGS
  103. Language                                 : French
  104. Default                                  : No
  105. Forced                                   : No

  106. Text #4
  107. ID                                       : 7
  108. Format                                   : PGS
  109. Muxing mode                              : zlib
  110. Codec ID                                 : S_HDMV/PGS
  111. Codec ID/Info                            : Picture based subtitle format used on BDs/HD-DVDs
  112. Duration                                 : 1 h 32 min
  113. Bit rate                                 : 29.3 kb/s
  114. Count of elements                        : 2290
  115. Stream size                              : 19.4 MiB (0%)
  116. Title                                    : Portuguese-PGS
  117. Language                                 : Portuguese
  118. Default                                  : No
  119. Forced                                   : No

  120. Text #5
  121. ID                                       : 8
  122. Format                                   : PGS
  123. Muxing mode                              : zlib
  124. Codec ID                                 : S_HDMV/PGS
  125. Codec ID/Info                            : Picture based subtitle format used on BDs/HD-DVDs
  126. Duration                                 : 1 h 31 min
  127. Bit rate                                 : 48.2 kb/s
  128. Count of elements                        : 2258
  129. Stream size                              : 31.5 MiB (0%)
  130. Title                                    : Spanish-PGS
  131. Language                                 : Spanish
  132. Default                                  : No
  133. Forced                                   : No

  134. Menu
  135. 00:00:00.000                             : en:Opening Titles/Life Force Spell
  136. 00:08:39.936                             : en:The Legend Of Thackery Binx
  137. 00:14:00.465                             : en:New Kid In Town
  138. 00:20:19.009                             : en:Trick Or Treat
  139. 00:26:45.479                             : en:Black Flame Candle
  140. 00:32:10.595                             : en:Return Of The Sanderson Sisters
  141. 00:36:42.992                             : en:Hallowed Ground
  142. 00:43:58.553                             : en:Bus Ride Into Town
  143. 00:48:03.297                             : en:The Master's House
  144. 00:54:17.629                             : en:Town Hall Party
  145. 01:01:22.345                             : en:Witch Burning
  146. 01:06:02.167                             : en:Ugly Chicks Stay Up Late
  147. 01:08:21.723                             : en:Opening The Book
  148. 01:14:38.849                             : en:Come, Little Children
  149. 01:21:29.343                             : en:Winifred's Potion
  150. 01:29:09.553                             : en:The Spell Is Broken/End Credits
复制代码








                                       
                                       

                                       
                                       
                                       




回复

使用道具 举报

懒得打字嘛,点击右侧快捷回复 【右侧内容,后台自定义】
您需要登录后才可以回帖 登录 | 立即加入

本版积分规则

Archiver|小黑屋| 蓝光电影网 |网站地图

Copyright © 2021 Comsenz Inc. Powered by 蓝光电影网

蓝光电影网

本站内容由用户自主分享和转载自互联网,转载目的在于传递更多信息,并不代表本网赞同其观点和对其真实性负责。

如有侵权、违反国家法律政策行为,请联系我们,我们会第一时间及时清除和处理!

举报反馈邮箱:4k1080.com@gmail.com

快速回复 返回顶部 返回列表