找回密码

蓝光电影网

查看: 1000|回复: 0

[UHD.HEVC] 世界新闻/结叛同行 News.of.the.World.2020.2160p.BluRay.REMUX.HEVC.DTS-HD.MA.TrueHD.7.1.Atmos-FGT 48.84GB

[复制链接]
蓝光币
1704
发表于 2021-3-20 12:32:03 | 显示全部楼层 |阅读模式


◎译  名 天下消息/结叛同业(港)/读报人(台)
◎片  名 News of the World
◎年  代 2020
◎产  地 美国
◎类  别 剧情 / 行动 / 西部 / 冒险
◎语  言 英语
◎上映日期 2020-12-25(美国) / 2021-01-15(美国收集)
◎IMDb评分  6.8/10 from 47870 users
◎IMDb链接  https://www.imdb.com/title/tt6878306/
◎豆瓣评分 7.1/10 from 3732 users
◎豆瓣链接 https://movie.douban.com/subject/27042738/
◎片  长 118分钟
◎导  演 保罗·格林格拉斯 Paul Greengrass
◎编  剧 保罗·格林格拉斯 Paul Greengrass / 卢克·戴维斯 Luke Davies / 波莱特·吉尔斯 Paulette Jiles
◎主  演 汤姆·汉克斯 Tom Hanks
       海伦娜·泽格尔 Helena Zengel
       伊丽莎白·玛维尔 Elizabeth Marvel
       雷·迈克金农 Ray McKinnon
       梅尔·温宁汉姆 Mare Winningham
       尼尔·桑迪兰兹 Neil Sandilands
       楚克武迪·武吉 Chukwudi Iwuji
       托马斯·弗兰西斯·墨菲 Thomas Francis Murphy
       米歇尔·坎贝尔 Michelle Campbell
       弗莱德·赫钦格 Fred Hechinger
       迈克尔·安盖洛·科维诺 Michael Angelo Covino
       斯塔福德·道格拉斯 Stafford Douglas
       J·内森·西蒙斯 J. Nathan Simmons
       斯蒂芬妮·希尔 Stephanie Hill
       布兰登·韦德纳 Brenden Wedner
       汤姆·阿斯特 Tom Astor
       安迪·卡斯特利奇 Andy Kastelic
       克林特·奥本钦 Clint Obenchain
◎标  签 美国 | 西部 | 剧情 | 西部片 | 2020 | 小说改编 | 行动 | 文学作品改编
◎简  介


  美国内战竣事后五年,三场战争的退伍军官杰佛森凯尔基得上尉(汤姆·汉克斯 饰),现在以读报人的身份从一个小镇到另一个小镇,和当地居民分享天下各地的出色消息。他在德州的平原碰到乔韩娜(海伦娜·泽格尔 饰),一 个六年前被凯奥瓦印第安人掳走并被收养的十岁女孩。乔韩娜对她不曾体验过的天下布满敌意,而且被迫被送回她的阿姨和姨丈身旁。基得上尉答应护送这女孩回到她依照法令应当属于的地方。他们必须在情况严苛的田野奔走风尘好几百英哩,而且这两人在寻觅一个他们都可以称为故里的地方时,将面临来自人类和大自然的庞大应战。
  
  该片按照波莱特·吉尔斯同名小说改编。
◎获奖情况
  第93届奥斯卡金像奖 ?(2021)
  最好摄影(提名) 达瑞兹·沃斯基
  最好声响(提名) 约翰·普里切特?/?迈克·普雷斯特伍德·史姑娘?/?奥利弗·塔尔尼
  最好艺术指导(提名) 伊丽莎白·基南?/?大卫·格兰克
  最好原创配乐(提名) 詹姆斯·纽顿·霍华德
  
  第78届金球奖 ?(2021)
  电影类最好女配角(提名) 海伦娜·泽格尔
  电影类最好原创配乐(提名)
  
  第74届英国电影学院奖 ?(2021)
  电影奖最好摄影(提名)
  电影奖最好艺术指导(提名)
  电影奖最好原创配乐(提名)
  电影奖最好音效(提名)
  
  第27届美国演员工会奖 ?(2021)
  电影奖最好女配角(提名) 海伦娜·泽格尔
  电影最好特技群戏(提名)
  
  第25届美国艺术指导工会奖 ?(2021)
  电影奖最好历史电影艺术指导(提名) 大卫·格兰克
  
  第68届美国音效剪辑协会奖 ?(2021)
  金卷轴奖最好电影音效剪辑(提名)
  金卷轴奖最好电影对白剪辑(提名)
  金卷轴奖最好配乐剪辑(提名)
  
  第19届美国视觉结果协会奖 ?(2021)
  最好电影帮助视觉结果(提名)
  
  第92届美国国家批评协会奖 ?(2020)
  最好改编剧本 卢克·戴维斯?/?保罗·格林格拉斯
  年度佳片
  
  第26届美国批评家挑选电影奖 ?(2021)
  最好影片(提名)
  最好男配角(提名) 汤姆·汉克斯
  最好青少年演员(提名) 海伦娜·泽格尔
  最好改编剧本(提名) 卢克·戴维斯?/?保罗·格林格拉斯
  最好摄影(提名) 达瑞兹·沃斯基
  最好配乐(提名) 詹姆斯·纽顿·霍华德
  最好美术指导(提名) 伊丽莎白·基南?/?大卫·格兰克
  
  第25届金卫星奖 ?(2021)
  电影部分最好女配角(提名) 海伦娜·泽格尔
  电影部分最好改编剧本(提名) 卢克·戴维斯?/?保罗·格林格拉斯
  电影部分最好原创配乐(提名) 詹姆斯·纽顿·霍华德
  电影部分最好摄影(提名) 达瑞兹·沃斯基
  
  第33届芝加哥影评人协会奖 ?(2020)
  最具潜力演员(提名) 海伦娜·泽格尔
  
  第5届亚特兰大影评人协会奖 ?(2020)
  最好摄影(提名)
  1. Video
  2. ID                                       : 1
  3. ID in the original source medium         : 4113 (0x1011)
  4. Format                                   : HEVC
  5. Format/Info                              : High Efficiency Video Coding
  6. Format profile                           : Main [email protected]@High
  7. HDR format                               : SMPTE ST 2086, HDR10 compatible
  8. Codec ID                                 : V_MPEGH/ISO/HEVC
  9. Duration                                 : 1 h 58 min
  10. Bit rate                                 : 48.6 Mb/s
  11. Width                                    : 3 840 pixels
  12. Height                                   : 2 160 pixels
  13. Display aspect ratio                     : 16:9
  14. Frame rate mode                          : Constant
  15. Frame rate                               : 23.976 (24000/1001/189150) FPS
  16. Color space                              : YUV
  17. Chroma subsampling                       : 4:2:0 (Type 2)
  18. Bit depth                                : 10 bits
  19. Bits/(Pixel*Frame)                       : 0.244
  20. Stream size                              : 40.1 GiB (82%)
  21. Writing library                          : ATEME Titan File 3.9.6 (4.9.6.2)        
  22. Language                                 : English
  23. Default                                  : No
  24. Forced                                   : No
  25. Color range                              : Limited
  26. Color primaries                          : BT.2020
  27. Transfer characteristics                 : PQ
  28. Matrix coefficients                      : BT.2020 non-constant
  29. Mastering display color primaries        : Display P3
  30. Mastering display luminance              : min: 0.0050 cd/m2, max: 1000 cd/m2
  31. Maximum Content Light Level              : 1000 cd/m2
  32. Maximum Frame-Average Light Level        : 184 cd/m2
  33. Original source medium                   : Blu-ray

  34. Audio #1
  35. ID                                       : 2
  36. ID in the original source medium         : 4352 (0x1100)
  37. Format                                   : MLP FBA 16-ch
  38. Format/Info                              : Meridian Lossless Packing FBA with 16-channel presentation
  39. Commercial name                          : Dolby TrueHD with Dolby Atmos
  40. Codec ID                                 : A_TRUEHD
  41. Duration                                 : 1 h 58 min
  42. Bit rate mode                            : Variable
  43. Bit rate                                 : 4 292 kb/s
  44. Maximum bit rate                         : 8 112 kb/s
  45. Channel(s)                               : 8 channels
  46. Channel layout                           : L R C LFE Ls Rs Lb Rb
  47. Sampling rate                            : 48.0 kHz
  48. Frame rate                               : 1 200.000 FPS (40 SPF)
  49. Compression mode                         : Lossless
  50. Stream size                              : 3.55 GiB (7%)
  51. Title                                    : TrueHD 7.1 Atmos
  52. Language                                 : English
  53. Default                                  : Yes
  54. Forced                                   : No
  55. Original source medium                   : Blu-ray
  56. Number of dynamic objects                : 11
  57. Bed channel count                        : 1 channel
  58. Bed channel configuration                : LFE

  59. Audio #2
  60. ID                                       : 3
  61. Format                                   : DTS XLL
  62. Format/Info                              : Digital Theater Systems
  63. Commercial name                          : DTS-HD Master Audio
  64. Codec ID                                 : A_DTS
  65. Duration                                 : 1 h 58 min
  66. Bit rate mode                            : Variable
  67. Bit rate                                 : 4 231 kb/s
  68. Channel(s)                               : 8 channels
  69. Channel layout                           : C L R LFE Lb Rb Lss Rss
  70. Sampling rate                            : 48.0 kHz
  71. Frame rate                               : 93.750 FPS (512 SPF)
  72. Bit depth                                : 24 bits
  73. Compression mode                         : Lossless
  74. Stream size                              : 3.50 GiB (7%)
  75. Title                                    : DTS-HD MA 7.1
  76. Language                                 : English
  77. Default                                  : No
  78. Forced                                   : No

  79. Audio #3
  80. ID                                       : 4
  81. ID in the original source medium         : 4352 (0x1100)
  82. Format                                   : AC-3
  83. Format/Info                              : Audio Coding 3
  84. Commercial name                          : Dolby Digital
  85. Codec ID                                 : A_AC3
  86. Duration                                 : 1 h 58 min
  87. Bit rate mode                            : Constant
  88. Bit rate                                 : 448 kb/s
  89. Channel(s)                               : 6 channels
  90. Channel layout                           : L R C LFE Ls Rs
  91. Sampling rate                            : 48.0 kHz
  92. Frame rate                               : 31.250 FPS (1536 SPF)
  93. Compression mode                         : Lossy
  94. Stream size                              : 379 MiB (1%)
  95. Title                                    : DD 5.1
  96. Language                                 : English
  97. Service kind                             : Complete Main
  98. Default                                  : No
  99. Forced                                   : No
  100. Original source medium                   : Blu-ray

  101. Audio #4
  102. ID                                       : 5
  103. ID in the original source medium         : 4353 (0x1101)
  104. Format                                   : AC-3
  105. Format/Info                              : Audio Coding 3
  106. Commercial name                          : Dolby Digital
  107. Codec ID                                 : A_AC3
  108. Duration                                 : 1 h 58 min
  109. Bit rate mode                            : Constant
  110. Bit rate                                 : 640 kb/s
  111. Channel(s)                               : 6 channels
  112. Channel layout                           : L R C LFE Ls Rs
  113. Sampling rate                            : 48.0 kHz
  114. Frame rate                               : 31.250 FPS (1536 SPF)
  115. Compression mode                         : Lossy
  116. Stream size                              : 541 MiB (1%)
  117. Title                                    : DD 5.1
  118. Language                                 : Spanish
  119. Service kind                             : Complete Main
  120. Default                                  : No
  121. Forced                                   : No
  122. Original source medium                   : Blu-ray

  123. Audio #5
  124. ID                                       : 6
  125. ID in the original source medium         : 4354 (0x1102)
  126. Format                                   : AC-3
  127. Format/Info                              : Audio Coding 3
  128. Commercial name                          : Dolby Digital
  129. Codec ID                                 : A_AC3
  130. Duration                                 : 1 h 58 min
  131. Bit rate mode                            : Constant
  132. Bit rate                                 : 640 kb/s
  133. Channel(s)                               : 6 channels
  134. Channel layout                           : L R C LFE Ls Rs
  135. Sampling rate                            : 48.0 kHz
  136. Frame rate                               : 31.250 FPS (1536 SPF)
  137. Compression mode                         : Lossy
  138. Stream size                              : 541 MiB (1%)
  139. Title                                    : DD 5.1
  140. Language                                 : French
  141. Service kind                             : Complete Main
  142. Default                                  : No
  143. Forced                                   : No
  144. Original source medium                   : Blu-ray

  145. Audio #6
  146. ID                                       : 7
  147. ID in the original source medium         : 4355 (0x1103)
  148. Format                                   : AC-3
  149. Format/Info                              : Audio Coding 3
  150. Commercial name                          : Dolby Digital
  151. Codec ID                                 : A_AC3
  152. Duration                                 : 1 h 58 min
  153. Bit rate mode                            : Constant
  154. Bit rate                                 : 192 kb/s
  155. Channel(s)                               : 2 channels
  156. Channel layout                           : L R
  157. Sampling rate                            : 48.0 kHz
  158. Frame rate                               : 31.250 FPS (1536 SPF)
  159. Compression mode                         : Lossy
  160. Stream size                              : 162 MiB (0%)
  161. Title                                    : DD 2.0
  162. Language                                 : English
  163. Service kind                             : Complete Main
  164. Default                                  : No
  165. Forced                                   : No
  166. Original source medium                   : Blu-ray

  167. Text #1
  168. ID                                       : 8
  169. Format                                   : UTF-8
  170. Codec ID                                 : S_TEXT/UTF8
  171. Codec ID/Info                            : UTF-8 Plain Text
  172. Duration                                 : 1 h 50 min
  173. Bit rate                                 : 31 b/s
  174. Count of elements                        : 918
  175. Stream size                              : 25.5 KiB (0%)
  176. Title                                    : English-SRT
  177. Language                                 : English
  178. Default                                  : Yes
  179. Forced                                   : No

  180. Text #2
  181. ID                                       : 9
  182. ID in the original source medium         : 4768 (0x12A0)
  183. Format                                   : PGS
  184. Muxing mode                              : zlib
  185. Codec ID                                 : S_HDMV/PGS
  186. Codec ID/Info                            : Picture based subtitle format used on BDs/HD-DVDs
  187. Duration                                 : 1 h 52 min
  188. Bit rate                                 : 26.1 kb/s
  189. Count of elements                        : 2352
  190. Stream size                              : 20.9 MiB (0%)
  191. Title                                    : English-PGS
  192. Language                                 : English
  193. Default                                  : No
  194. Forced                                   : No
  195. Original source medium                   : Blu-ray

  196. Text #3
  197. ID                                       : 10
  198. ID in the original source medium         : 4769 (0x12A1)
  199. Format                                   : PGS
  200. Muxing mode                              : zlib
  201. Codec ID                                 : S_HDMV/PGS
  202. Codec ID/Info                            : Picture based subtitle format used on BDs/HD-DVDs
  203. Duration                                 : 1 h 56 min
  204. Bit rate                                 : 18.1 kb/s
  205. Count of elements                        : 1822
  206. Stream size                              : 15.1 MiB (0%)
  207. Title                                    : Spanish-PGS
  208. Language                                 : Spanish
  209. Default                                  : No
  210. Forced                                   : No
  211. Original source medium                   : Blu-ray

  212. Text #4
  213. ID                                       : 11
  214. ID in the original source medium         : 4770 (0x12A2)
  215. Format                                   : PGS
  216. Muxing mode                              : zlib
  217. Codec ID                                 : S_HDMV/PGS
  218. Codec ID/Info                            : Picture based subtitle format used on BDs/HD-DVDs
  219. Duration                                 : 1 h 56 min
  220. Bit rate                                 : 18.7 kb/s
  221. Count of elements                        : 1886
  222. Stream size                              : 15.6 MiB (0%)
  223. Title                                    : French-PGS
  224. Language                                 : French
  225. Default                                  : No
  226. Forced                                   : No
  227. Original source medium                   : Blu-ray

  228. Text #5
  229. ID                                       : 12
  230. ID in the original source medium         : 4771 (0x12A3)
  231. Format                                   : PGS
  232. Muxing mode                              : zlib
  233. Codec ID                                 : S_HDMV/PGS
  234. Codec ID/Info                            : Picture based subtitle format used on BDs/HD-DVDs
  235. Duration                                 : 1 h 56 min
  236. Bit rate                                 : 839 b/s
  237. Count of elements                        : 98
  238. Stream size                              : 719 KiB (0%)
  239. Title                                    : Spanish-FORCED-PGS
  240. Language                                 : Spanish
  241. Default                                  : No
  242. Forced                                   : No
  243. Original source medium                   : Blu-ray

  244. Text #6
  245. ID                                       : 13
  246. ID in the original source medium         : 4772 (0x12A4)
  247. Format                                   : PGS
  248. Muxing mode                              : zlib
  249. Codec ID                                 : S_HDMV/PGS
  250. Codec ID/Info                            : Picture based subtitle format used on BDs/HD-DVDs
  251. Duration                                 : 1 h 56 min
  252. Bit rate                                 : 918 b/s
  253. Count of elements                        : 102
  254. Stream size                              : 786 KiB (0%)
  255. Title                                    : French-FORCED-PGS
  256. Language                                 : French
  257. Default                                  : No
  258. Forced                                   : No
  259. Original source medium                   : Blu-ray

  260. Menu
  261. 00:00:00.000                             : en:Chapter 01
  262. 00:03:43.765                             : en:Chapter 02
  263. 00:11:33.275                             : en:Chapter 03
  264. 00:15:29.762                             : en:Chapter 04
  265. 00:22:58.377                             : en:Chapter 05
  266. 00:30:33.456                             : en:Chapter 06
  267. 00:35:44.934                             : en:Chapter 07
  268. 00:42:12.738                             : en:Chapter 08
  269. 00:47:37.479                             : en:Chapter 09
  270. 00:55:02.841                             : en:Chapter 10
  271. 00:58:51.402                             : en:Chapter 11
  272. 01:03:49.784                             : en:Chapter 12
  273. 01:12:24.715                             : en:Chapter 13
  274. 01:18:05.931                             : en:Chapter 14
  275. 01:25:35.922                             : en:Chapter 15
  276. 01:31:39.327                             : en:Chapter 16
  277. 01:37:36.600                             : en:Chapter 17
  278. 01:42:54.209                             : en:Chapter 18
  279. 01:46:20.749                             : en:Chapter 19
  280. 01:53:34.641                             : en:Chapter 20
复制代码



                                       
                                       

                                       
                                       
                                       




回复

使用道具 举报

懒得打字嘛,点击右侧快捷回复 【右侧内容,后台自定义】
您需要登录后才可以回帖 登录 | 立即加入

本版积分规则

Archiver|小黑屋| 蓝光电影网 |网站地图

Copyright © 2021 Comsenz Inc. Powered by 蓝光电影网

蓝光电影网

本站内容由用户自主分享和转载自互联网,转载目的在于传递更多信息,并不代表本网赞同其观点和对其真实性负责。

如有侵权、违反国家法律政策行为,请联系我们,我们会第一时间及时清除和处理!

举报反馈邮箱:4k1080.com@gmail.com

快速回复 返回顶部 返回列表