找回密码

蓝光电影网

查看: 986|回复: 0

[UHD.HEVC] 人皮脸/德州电锯杀人狂前传 Leatherface.2017.2160p.BluRay.REMUX.HEVC.DTS-HD.MA.7.1-FGT 54.73GB

[复制链接]
蓝光币
1704
发表于 2021-3-20 12:31:38 | 显示全部楼层 |阅读模式


◎译  名 人皮脸/德州电锯杀人狂前传
◎片  名 Leatherface
◎年  代 2017
◎产  地 美国
◎类  别 惊悚 / 可骇
◎语  言 英语
◎上映日期 2017-09-21(美国)
◎IMDb评分  5/10 from 19956 users
◎IMDb链接  https://www.imdb.com/title/tt2620590/
◎豆瓣评分 5.5/10 from 4242 users
◎豆瓣链接 https://movie.douban.com/subject/25958867/
◎片  长 87分钟
◎导  演 亚历山大·布斯蒂罗 Alexandre Bustillo / 朱利安·莫利 Julien Maury
◎编  剧 塞斯·M·舍伍德 Seth M. Sherwood / 金·亨克尔 Kim Henkel / 托比·霍珀 Tobe Hooper
◎主  演 斯蒂芬·多尔夫 Stephen Dorff
       莉莉·泰勒 Lili Taylor
       山姆·斯特莱克 Sam Strike
       凡妮莎·格拉斯 Vanessa Grasse
       菲恩·琼斯 Finn Jones
       萨姆·科尔曼 Sam Coleman
       杰西卡·马德森 Jessica Madsen
       詹姆斯·布鲁尔 James Bloor
       克里斯托弗·亚当森 Christopher Adamson
       迪莫·亚历克谢夫 Dimo Alexiev
       内森·库珀 Nathan Cooper
       德扬·安格洛夫 Dejan Angelov
       鲍里斯·卡巴切夫 Boris Kabakchiev
       沃利扎·比尼夫 Velizar Binev
       朱利安·科斯托夫 Julian Kostov
       伊莲娜·扎雅科娃 Elena Zamyarkova
◎标  签 血腥 | 可骇 | 惊悚 | 美国 | 暴力 | 犯罪 | 2017 | 悬疑
◎简  介


  该片为1974年的典范可骇片《德州电锯杀人狂》的前传电影。影片报告四个神经病监犯从精神医院逃出,并绑架了一位年轻的护士,他们一路踏上了血腥残暴的旅程。追在他们死后的,是一对精神庞杂的德州骑警。
  1. Video
  2. ID                                       : 1
  3. ID in the original source medium         : 4113 (0x1011)
  4. Format                                   : HEVC
  5. Format/Info                              : High Efficiency Video Coding
  6. Format profile                           : Main [email protected]@High
  7. HDR format                               : SMPTE ST 2086, HDR10 compatible
  8. Codec ID                                 : V_MPEGH/ISO/HEVC
  9. Duration                                 : 1 h 27 min
  10. Bit rate                                 : 81.6 Mb/s
  11. Width                                    : 3 840 pixels
  12. Height                                   : 2 160 pixels
  13. Display aspect ratio                     : 16:9
  14. Frame rate mode                          : Constant
  15. Frame rate                               : 23.976 (24000/1001/189150) FPS
  16. Color space                              : YUV
  17. Chroma subsampling                       : 4:2:0 (Type 2)
  18. Bit depth                                : 10 bits
  19. Bits/(Pixel*Frame)                       : 0.411
  20. Stream size                              : 49.8 GiB (91%)
  21. Language                                 : English
  22. Default                                  : No
  23. Forced                                   : No
  24. Color range                              : Limited
  25. Color primaries                          : BT.2020
  26. Transfer characteristics                 : PQ
  27. Matrix coefficients                      : BT.2020 non-constant
  28. Mastering display color primaries        : BT.2020
  29. Mastering display luminance              : min: 0.0001 cd/m2, max: 1000 cd/m2
  30. Maximum Content Light Level              : 1000 cd/m2
  31. Maximum Frame-Average Light Level        : 400 cd/m2
  32. Original source medium                   : Blu-ray

  33. Audio #1
  34. ID                                       : 2
  35. ID in the original source medium         : 4354 (0x1102)
  36. Format                                   : DTS XLL
  37. Format/Info                              : Digital Theater Systems
  38. Commercial name                          : DTS-HD Master Audio
  39. Codec ID                                 : A_DTS
  40. Duration                                 : 1 h 27 min
  41. Bit rate mode                            : Variable
  42. Bit rate                                 : 2 661 kb/s
  43. Channel(s)                               : 8 channels
  44. Channel layout                           : C L R LFE Lb Rb Lss Rss
  45. Sampling rate                            : 48.0 kHz
  46. Frame rate                               : 93.750 FPS (512 SPF)
  47. Bit depth                                : 16 bits
  48. Compression mode                         : Lossless
  49. Stream size                              : 1.62 GiB (3%)
  50. Title                                    : DTS-HD MA 7.1
  51. Language                                 : English
  52. Default                                  : Yes
  53. Forced                                   : No
  54. Original source medium                   : Blu-ray

  55. Audio #2
  56. ID                                       : 3
  57. Format                                   : AC-3
  58. Format/Info                              : Audio Coding 3
  59. Commercial name                          : Dolby Digital
  60. Codec ID                                 : A_AC3
  61. Duration                                 : 1 h 27 min
  62. Bit rate mode                            : Constant
  63. Bit rate                                 : 640 kb/s
  64. Channel(s)                               : 6 channels
  65. Channel layout                           : L R C LFE Ls Rs
  66. Sampling rate                            : 48.0 kHz
  67. Frame rate                               : 31.250 FPS (1536 SPF)
  68. Compression mode                         : Lossy
  69. Stream size                              : 400 MiB (1%)
  70. Title                                    : DD 5.1
  71. Language                                 : English
  72. Service kind                             : Complete Main
  73. Default                                  : No
  74. Forced                                   : No

  75. Audio #3
  76. ID                                       : 4
  77. ID in the original source medium         : 4355 (0x1103)
  78. Format                                   : DTS XLL
  79. Format/Info                              : Digital Theater Systems
  80. Commercial name                          : DTS-HD Master Audio
  81. Codec ID                                 : A_DTS
  82. Duration                                 : 1 h 27 min
  83. Bit rate mode                            : Variable
  84. Bit rate                                 : 1 007 kb/s
  85. Channel(s)                               : 2 channels
  86. Channel layout                           : L R
  87. Sampling rate                            : 48.0 kHz
  88. Frame rate                               : 93.750 FPS (512 SPF)
  89. Bit depth                                : 16 bits
  90. Compression mode                         : Lossless
  91. Stream size                              : 629 MiB (1%)
  92. Title                                    : DTS-HD MA 2.0
  93. Language                                 : English
  94. Default                                  : No
  95. Forced                                   : No
  96. Original source medium                   : Blu-ray

  97. Audio #4
  98. ID                                       : 5
  99. ID in the original source medium         : 4352 (0x1100)
  100. Format                                   : DTS XLL
  101. Format/Info                              : Digital Theater Systems
  102. Commercial name                          : DTS-HD Master Audio
  103. Codec ID                                 : A_DTS
  104. Duration                                 : 1 h 27 min
  105. Bit rate mode                            : Variable
  106. Bit rate                                 : 2 695 kb/s
  107. Channel(s)                               : 8 channels
  108. Channel layout                           : C L R LFE Lb Rb Lss Rss
  109. Sampling rate                            : 48.0 kHz
  110. Frame rate                               : 93.750 FPS (512 SPF)
  111. Bit depth                                : 16 bits
  112. Compression mode                         : Lossless
  113. Stream size                              : 1.64 GiB (3%)
  114. Title                                    : DTS-HD MA 7.1
  115. Language                                 : German
  116. Default                                  : No
  117. Forced                                   : No
  118. Original source medium                   : Blu-ray

  119. Audio #5
  120. ID                                       : 6
  121. ID in the original source medium         : 4353 (0x1101)
  122. Format                                   : DTS XLL
  123. Format/Info                              : Digital Theater Systems
  124. Commercial name                          : DTS-HD Master Audio
  125. Codec ID                                 : A_DTS
  126. Duration                                 : 1 h 27 min
  127. Bit rate mode                            : Variable
  128. Bit rate                                 : 1 050 kb/s
  129. Channel(s)                               : 2 channels
  130. Channel layout                           : L R
  131. Sampling rate                            : 48.0 kHz
  132. Frame rate                               : 93.750 FPS (512 SPF)
  133. Bit depth                                : 16 bits
  134. Compression mode                         : Lossless
  135. Stream size                              : 656 MiB (1%)
  136. Title                                    : DTS-HD MA 2.0
  137. Language                                 : German
  138. Default                                  : No
  139. Forced                                   : No
  140. Original source medium                   : Blu-ray

  141. Text #1
  142. ID                                       : 7
  143. Format                                   : UTF-8
  144. Codec ID                                 : S_TEXT/UTF8
  145. Codec ID/Info                            : UTF-8 Plain Text
  146. Duration                                 : 1 h 21 min
  147. Bit rate                                 : 34 b/s
  148. Count of elements                        : 780
  149. Stream size                              : 20.5 KiB (0%)
  150. Title                                    : English-SRT
  151. Language                                 : English
  152. Default                                  : Yes
  153. Forced                                   : No

  154. Text #2
  155. ID                                       : 8
  156. ID in the original source medium         : 4769 (0x12A1)
  157. Format                                   : PGS
  158. Muxing mode                              : zlib
  159. Codec ID                                 : S_HDMV/PGS
  160. Codec ID/Info                            : Picture based subtitle format used on BDs/HD-DVDs
  161. Duration                                 : 1 h 21 min
  162. Bit rate                                 : 19.9 kb/s
  163. Count of elements                        : 1566
  164. Stream size                              : 11.5 MiB (0%)
  165. Title                                    : English-PGS
  166. Language                                 : English
  167. Default                                  : No
  168. Forced                                   : No
  169. Original source medium                   : Blu-ray

  170. Text #3
  171. ID                                       : 9
  172. ID in the original source medium         : 4768 (0x12A0)
  173. Format                                   : PGS
  174. Muxing mode                              : zlib
  175. Codec ID                                 : S_HDMV/PGS
  176. Codec ID/Info                            : Picture based subtitle format used on BDs/HD-DVDs
  177. Duration                                 : 1 h 21 min
  178. Bit rate                                 : 22.8 kb/s
  179. Count of elements                        : 1570
  180. Stream size                              : 13.2 MiB (0%)
  181. Title                                    : German-PGS
  182. Language                                 : German
  183. Default                                  : No
  184. Forced                                   : No
  185. Original source medium                   : Blu-ray

  186. Text #4
  187. ID                                       : 10
  188. ID in the original source medium         : 4770 (0x12A2)
  189. Format                                   : PGS
  190. Muxing mode                              : zlib
  191. Codec ID                                 : S_HDMV/PGS
  192. Codec ID/Info                            : Picture based subtitle format used on BDs/HD-DVDs
  193. Duration                                 : 6 min 13 s
  194. Bit rate                                 : 1 400 b/s
  195. Count of elements                        : 6
  196. Stream size                              : 63.9 KiB (0%)
  197. Title                                    : German-FORCED-PGS
  198. Language                                 : German
  199. Default                                  : No
  200. Forced                                   : No
  201. Original source medium                   : Blu-ray

  202. Menu
  203. 00:00:00.000                             : en:Chapter 01
  204. 00:04:04.744                             : en:Chapter 02
  205. 00:09:10.967                             : en:Chapter 03
  206. 00:11:32.400                             : en:Chapter 04
  207. 00:19:08.438                             : en:Chapter 05
  208. 00:24:30.844                             : en:Chapter 06
  209. 00:30:46.928                             : en:Chapter 07
  210. 00:36:53.878                             : en:Chapter 08
  211. 00:42:26.919                             : en:Chapter 09
  212. 00:48:05.465                             : en:Chapter 10
  213. 00:53:12.189                             : en:Chapter 11
  214. 01:02:23.656                             : en:Chapter 12
  215. 01:06:25.022                             : en:Chapter 13
  216. 01:11:10.557                             : en:Chapter 14
  217. 01:18:04.638                             : en:Chapter 15
  218. 01:21:30.302                             : en:Chapter 16
  219. 01:23:54.029                             : en:Chapter 17
复制代码



                                       
                                       

                                       
                                       
                                       




回复

使用道具 举报

懒得打字嘛,点击右侧快捷回复 【右侧内容,后台自定义】
您需要登录后才可以回帖 登录 | 立即加入

本版积分规则

Archiver|小黑屋| 蓝光电影网 |网站地图

Copyright © 2021 Comsenz Inc. Powered by 蓝光电影网

蓝光电影网

本站内容由用户自主分享和转载自互联网,转载目的在于传递更多信息,并不代表本网赞同其观点和对其真实性负责。

如有侵权、违反国家法律政策行为,请联系我们,我们会第一时间及时清除和处理!

举报反馈邮箱:4k1080.com@gmail.com

快速回复 返回顶部 返回列表