找回密码

蓝光电影网

查看: 57|回复: 0

[2160p] 守墓屋 The.House.by.the.Cemetery.1981.2160p.BluRay.x264.8bit.SDR.DTS-HD.MA.TrueHD.7.1.Atmos-SWTYBLZ 56.27GB

[复制链接]
蓝光币
1082
发表于 2020-9-15 22:40:58 | 显示全部楼层 |阅读模式


◎译  名 守墓屋/Quella villa accanto al cimitero/Zombie Hell House/天堂三部曲之守墓屋/墓地裏の家/墓边凶宅/半夜鬼追人
◎片  名 The House By The Cemetery
◎年  代 1981
◎产  地 意大利
◎类  别 可骇
◎语  言 意大利语
◎上映日期 1981-08-14
◎IMDb评分  6.2/10 from 12254 users
◎IMDb链接  https://www.imdb.com/title/tt0082966/
◎豆瓣评分 6.3/10 from 384 users
◎豆瓣链接 https://movie.douban.com/subject/2067487/
◎片  长 87 分钟
◎导  演 卢西奥·弗尔兹 Lucio Fulci
◎编  剧 卢西奥·弗尔兹 Lucio Fulci / 达尔达诺·萨凯蒂 Dardano Sacchetti / H·P·洛夫克拉夫特 H.P. Lovecraft
◎主  演 卡特里娜 马科尔 Catriona MacColl
       保罗马 尔科夫 Paolo Malco
       阿尼娅·皮艾洛丽 Ania Pieroni
       达妮埃拉·多里亚 Daniela Doria
       妲歌玛·拉桑德 Dagmar Lassander
       Giovanni Frezza
       卡洛·德梅约 Carlo De Mejo
       西尔维娅·科拉蒂娜 Silvia Collatina
       卢西奥·弗尔兹 Lucio Fulci
◎标  签 可骇 | 意大利 | 惊悚 | 可骇片 | 暴力 | 血腥 | LucioFulci | 1980s
◎简  介


  波士顿郊外的新英格兰,一幢陈腐的屋子烧毁破败。传闻很久之前,一位名叫弗莱德斯坦的科学家住在这里,他曾抓狂杀戮自己的妻女,今后酿成了一个吃人肉为生的可骇僵尸,存活已有上百年。虽然这些传闻有些荒诞无稽,但这幢屋子却是散发着不祥的气味,诸多居住于此的人终极都遭受了不幸。
  
  因工作的原因,小男孩鲍伯(Giovanni Frezzi 饰)随怙恃搬到弗莱德斯坦博士的屋子里。此搬入那天起头,怪事及可骇事务便接连发生。而鲍伯的父亲(Paolo Malco 饰)在研讨疯狂科学家的生平常,也逐步发现了其中的奥秘……
  1. Video
  2. ID                                       : 1
  3. Format                                   : AVC
  4. Format/Info                              : Advanced Video Codec
  5. Format profile                           : [email protected]
  6. Format settings                          : CABAC / 5 Ref Frames
  7. Format settings, CABAC                   : Yes
  8. Format settings, Reference frames        : 5 frames
  9. Codec ID                                 : V_MPEG4/ISO/AVC
  10. Duration                                 : 1 h 26 min
  11. Bit rate                                 : 84.1 Mb/s
  12. Width                                    : 3 840 pixels
  13. Height                                   : 1 642 pixels
  14. Display aspect ratio                     : 2.35:1
  15. Frame rate mode                          : Constant
  16. Frame rate                               : 23.976 (24000/1001/189150) FPS
  17. Color space                              : YUV
  18. Chroma subsampling                       : 4:2:0
  19. Bit depth                                : 8 bits
  20. Scan type                                : Progressive
  21. Bits/(Pixel*Frame)                       : 0.556
  22. Stream size                              : 50.7 GiB (90%)
  23. Title                                    : The.House.by.the.Cemetery.1981.2160p.BluRay.x264.8bit.SDR.DTS-HD.MA.TrueHD.7.1.Atmos-SWTYBLZ
  24. Writing library                          : x264 core 157 r2935 545de2f
  25. Encoding settings                        : cabac=1 / ref=5 / deblock=1:-1:-1 / analyse=0x3:0x113 / me=umh / subme=10 / psy=1 / psy_rd=1.00:0.15 / mixed_ref=1 / me_range=48 / chroma_me=1 / trellis=2 / 8x8dct=1 / cqm=0 / deadzone=21,11 / fast_pskip=1 / chroma_qp_offset=-3 / threads=48 / lookahead_threads=4 / sliced_threads=0 / nr=0 / decimate=0 / interlaced=0 / bluray_compat=0 / constrained_intra=0 / bframes=3 / b_pyramid=2 / b_adapt=2 / b_bias=0 / direct=3 / weightb=1 / open_gop=0 / weightp=2 / keyint=250 / keyint_min=23 / scenecut=40 / intra_refresh=0 / rc_lookahead=50 / rc=crf / mbtree=1 / crf=24.0 / qcomp=0.60 / qpmin=0 / qpmax=69 / qpstep=4 / ip_ratio=1.40 / aq=1:1.00
  26. Default                                  : Yes
  27. Forced                                   : No

  28. Audio #1
  29. ID                                       : 2
  30. ID in the original source medium         : 4352 (0x1100)
  31. Format                                   : MLP FBA 16-ch
  32. Format/Info                              : Meridian Lossless Packing FBA with 16-channel presentation
  33. Commercial name                          : Dolby TrueHD with Dolby Atmos
  34. Codec ID                                 : A_TRUEHD
  35. Duration                                 : 1 h 26 min
  36. Bit rate mode                            : Variable
  37. Bit rate                                 : 3 187 kb/s
  38. Maximum bit rate                         : 4 701 kb/s
  39. Channel(s)                               : 8 channels
  40. Channel layout                           : L R C LFE Ls Rs Lb Rb
  41. Sampling rate                            : 48.0 kHz
  42. Frame rate                               : 1 200.000 FPS (40 SPF)
  43. Compression mode                         : Lossless
  44. Stream size                              : 1.92 GiB (3%)
  45. Title                                    : The.House.by.the.Cemetery.1981.2160p.BluRay.x264.8bit.SDR.DTS-HD.MA.TrueHD.7.1.Atmos-SWTYBLZ
  46. Language                                 : English
  47. Default                                  : Yes
  48. Forced                                   : No
  49. Original source medium                   : Blu-ray
  50. Number of dynamic objects                : 11
  51. Bed channel count                        : 1 channel
  52. Bed channel configuration                : LFE

  53. Audio #2
  54. ID                                       : 3
  55. Format                                   : DTS XLL
  56. Format/Info                              : Digital Theater Systems
  57. Commercial name                          : DTS-HD Master Audio
  58. Codec ID                                 : A_DTS
  59. Duration                                 : 1 h 26 min
  60. Bit rate mode                            : Variable
  61. Bit rate                                 : 3 246 kb/s
  62. Channel(s)                               : 8 channels
  63. Channel layout                           : C L R LFE Lb Rb Lss Rss
  64. Sampling rate                            : 48.0 kHz
  65. Frame rate                               : 93.750 FPS (512 SPF)
  66. Bit depth                                : 24 bits
  67. Compression mode                         : Lossless
  68. Stream size                              : 1.96 GiB (3%)
  69. Title                                    : The.House.by.the.Cemetery.1981.2160p.BluRay.x264.8bit.SDR.DTS-HD.MA.TrueHD.7.1.Atmos-SWTYBLZ
  70. Language                                 : English
  71. Default                                  : No
  72. Forced                                   : No

  73. Audio #3
  74. ID                                       : 4
  75. ID in the original source medium         : 4352 (0x1100)
  76. Format                                   : AC-3
  77. Format/Info                              : Audio Coding 3
  78. Commercial name                          : Dolby Digital
  79. Codec ID                                 : A_AC3
  80. Duration                                 : 1 h 26 min
  81. Bit rate mode                            : Constant
  82. Bit rate                                 : 640 kb/s
  83. Channel(s)                               : 6 channels
  84. Channel layout                           : L R C LFE Ls Rs
  85. Sampling rate                            : 48.0 kHz
  86. Frame rate                               : 31.250 FPS (1536 SPF)
  87. Compression mode                         : Lossy
  88. Stream size                              : 395 MiB (1%)
  89. Title                                    : The.House.by.the.Cemetery.1981.2160p.BluRay.x264.8bit.SDR.DTS-HD.MA.TrueHD.7.1.Atmos-SWTYBLZ
  90. Language                                 : English
  91. Service kind                             : Complete Main
  92. Default                                  : No
  93. Forced                                   : No
  94. Original source medium                   : Blu-ray

  95. Audio #4
  96. ID                                       : 5
  97. ID in the original source medium         : 4355 (0x1103)
  98. Format                                   : DTS XLL
  99. Format/Info                              : Digital Theater Systems
  100. Commercial name                          : DTS-HD Master Audio
  101. Codec ID                                 : A_DTS
  102. Duration                                 : 1 h 26 min
  103. Bit rate mode                            : Variable
  104. Bit rate                                 : 1 045 kb/s
  105. Channel(s)                               : 1 channel
  106. Channel layout                           : C
  107. Sampling rate                            : 48.0 kHz
  108. Frame rate                               : 93.750 FPS (512 SPF)
  109. Bit depth                                : 24 bits
  110. Compression mode                         : Lossless
  111. Stream size                              : 645 MiB (1%)
  112. Title                                    : The.House.by.the.Cemetery.1981.2160p.BluRay.x264.8bit.SDR.DTS-HD.MA.TrueHD.7.1.Atmos-SWTYBLZ
  113. Language                                 : Italian
  114. Default                                  : No
  115. Forced                                   : No
  116. Original source medium                   : Blu-ray

  117. Audio #5
  118. ID                                       : 6
  119. Format                                   : AC-3
  120. Format/Info                              : Audio Coding 3
  121. Commercial name                          : Dolby Digital
  122. Codec ID                                 : A_AC3
  123. Duration                                 : 1 h 26 min
  124. Bit rate mode                            : Constant
  125. Bit rate                                 : 640 kb/s
  126. Channel(s)                               : 1 channel
  127. Channel layout                           : C
  128. Sampling rate                            : 48.0 kHz
  129. Frame rate                               : 31.250 FPS (1536 SPF)
  130. Compression mode                         : Lossy
  131. Stream size                              : 395 MiB (1%)
  132. Title                                    : The.House.by.the.Cemetery.1981.2160p.BluRay.x264.8bit.SDR.DTS-HD.MA.TrueHD.7.1.Atmos-SWTYBLZ
  133. Language                                 : Italian
  134. Service kind                             : Complete Main
  135. Default                                  : No
  136. Forced                                   : No

  137. Text #1
  138. ID                                       : 7
  139. Format                                   : UTF-8
  140. Codec ID                                 : S_TEXT/UTF8
  141. Codec ID/Info                            : UTF-8 Plain Text
  142. Duration                                 : 1 h 23 min
  143. Bit rate                                 : 27 b/s
  144. Count of elements                        : 592
  145. Stream size                              : 16.7 KiB (0%)
  146. Title                                    : English-SRT
  147. Language                                 : English
  148. Default                                  : Yes
  149. Forced                                   : No

  150. Text #2
  151. ID                                       : 8
  152. Format                                   : UTF-8
  153. Codec ID                                 : S_TEXT/UTF8
  154. Codec ID/Info                            : UTF-8 Plain Text
  155. Duration                                 : 1 h 22 min
  156. Bit rate                                 : 24 b/s
  157. Count of elements                        : 592
  158. Stream size                              : 14.8 KiB (0%)
  159. Title                                    : English-for-Italian-SRT
  160. Language                                 : English
  161. Default                                  : No
  162. Forced                                   : No

  163. Text #3
  164. ID                                       : 9
  165. ID in the original source medium         : 4768 (0x12A0)
  166. Format                                   : PGS
  167. Muxing mode                              : zlib
  168. Codec ID                                 : S_HDMV/PGS
  169. Codec ID/Info                            : Picture based subtitle format used on BDs/HD-DVDs
  170. Duration                                 : 1 h 23 min
  171. Bit rate                                 : 41.7 kb/s
  172. Count of elements                        : 1816
  173. Stream size                              : 25.0 MiB (0%)
  174. Title                                    : English-PGS
  175. Language                                 : English
  176. Default                                  : No
  177. Forced                                   : No
  178. Original source medium                   : Blu-ray

  179. Text #4
  180. ID                                       : 10
  181. ID in the original source medium         : 4769 (0x12A1)
  182. Format                                   : PGS
  183. Muxing mode                              : zlib
  184. Codec ID                                 : S_HDMV/PGS
  185. Codec ID/Info                            : Picture based subtitle format used on BDs/HD-DVDs
  186. Duration                                 : 1 h 24 min
  187. Bit rate                                 : 30.5 kb/s
  188. Count of elements                        : 1362
  189. Stream size                              : 18.4 MiB (0%)
  190. Title                                    : French-PGS
  191. Language                                 : French
  192. Default                                  : No
  193. Forced                                   : No
  194. Original source medium                   : Blu-ray

  195. Text #5
  196. ID                                       : 11
  197. ID in the original source medium         : 4770 (0x12A2)
  198. Format                                   : PGS
  199. Muxing mode                              : zlib
  200. Codec ID                                 : S_HDMV/PGS
  201. Codec ID/Info                            : Picture based subtitle format used on BDs/HD-DVDs
  202. Duration                                 : 1 h 24 min
  203. Bit rate                                 : 27.3 kb/s
  204. Count of elements                        : 1352
  205. Stream size                              : 16.5 MiB (0%)
  206. Title                                    : Spanish-PGS
  207. Language                                 : Spanish
  208. Default                                  : No
  209. Forced                                   : No
  210. Original source medium                   : Blu-ray

  211. Text #6
  212. ID                                       : 12
  213. ID in the original source medium         : 4771 (0x12A3)
  214. Format                                   : PGS
  215. Muxing mode                              : zlib
  216. Codec ID                                 : S_HDMV/PGS
  217. Codec ID/Info                            : Picture based subtitle format used on BDs/HD-DVDs
  218. Duration                                 : 1 h 22 min
  219. Bit rate                                 : 16.9 kb/s
  220. Count of elements                        : 1192
  221. Stream size                              : 10.0 MiB (0%)
  222. Title                                    : English-for-Italian-PGS
  223. Language                                 : English
  224. Default                                  : No
  225. Forced                                   : No
  226. Original source medium                   : Blu-ray

  227. Menu
  228. 00:00:00.000                             : en:Chapter 01
  229. 00:02:59.929                             : en:Chapter 02
  230. 00:04:14.254                             : en:Chapter 03
  231. 00:07:47.383                             : en:Chapter 04
  232. 00:11:25.267                             : en:Chapter 05
  233. 00:16:11.971                             : en:Chapter 06
  234. 00:21:43.760                             : en:Chapter 07
  235. 00:25:45.168                             : en:Chapter 08
  236. 00:30:24.364                             : en:Chapter 09
  237. 00:35:25.957                             : en:Chapter 10
  238. 00:42:54.572                             : en:Chapter 11
  239. 00:50:12.718                             : en:Chapter 12
  240. 00:58:35.345                             : en:Chapter 13
  241. 01:04:08.845                             : en:Chapter 14
  242. 01:10:13.209                             : en:Chapter 15
  243. 01:15:52.548                             : en:Chapter 16
  244. 01:22:06.254                             : en:Chapter 17
  245. 01:25:05.100                             : en:Chapter 18
复制代码



                                       
                                       

                                       
                                       
                                       




守墓屋 The.House.by.the.Cemetery.1981.2160p.BluRay.x264.8bit.SDR.DTS-HD.MA.TrueHD.7.1.Atmos-SWTYBLZ 56.27GB

The.House.by.the.Cemetery.1981.2160p.BluRay.x264.8bit.SDR.DTS-HD.MA.TrueHD.7.1.A.zip

141.5 KB, 下载次数: 0, 下载积分: 蓝光币 -2

回复

使用道具 举报

懒得打字嘛,点击右侧快捷回复 【右侧内容,后台自定义】
您需要登录后才可以回帖 登录 | 立即加入

本版积分规则

Archiver|小黑屋| 蓝光电影网 |网站地图

Copyright © 2021 Comsenz Inc. Powered by 蓝光电影网

蓝光电影网

本站内容由用户自主分享和转载自互联网,转载目的在于传递更多信息,并不代表本网赞同其观点和对其真实性负责。

如有侵权、违反国家法律政策行为,请联系我们,我们会第一时间及时清除和处理!

举报反馈邮箱:[email protected]

快速回复 返回顶部 返回列表