找回密码

蓝光电影网

查看: 103|回复: 0

[UHD.HEVC] 亡命的老舅们 Monsieur.Gangster.1963.FRENCH.2160p.BluRay.REMUX.SDR.HEVC.DTS-HD.MA.2.0-FGT 55.91GB

[复制链接]
蓝光币
1078
发表于 2021-3-5 17:24:00 | 显示全部楼层 |阅读模式


◎译  名 亡命的老舅们
◎片  名 Les tontons flingueurs
◎年  代 1963
◎产  地 法国
◎类  别 笑剧 / 行动 / 犯罪
◎语  言 法语
◎上映日期 1963-10-04
◎IMDb评分  7.9/10 from 5344 users
◎IMDb链接  https://www.imdb.com/title/tt0057591/
◎豆瓣评分 7.3/10 from 152 users
◎豆瓣链接 https://movie.douban.com/subject/1906260/
◎片  长 105分钟
◎导  演 乔治·洛特内 Georges Lautner
◎编  剧 米歇尔·奥迪亚 Michel Audiard / 乔治·洛特内 Georges Lautner / 阿尔贝·西莫南 Albert Simonin
◎主  演 利诺·文图拉 Lino Ventura
       贝尔纳·布里埃 Bernard Blier
       弗朗西斯·布朗什 Francis Blanche
       克洛德·里什 Claude Rich
       Mac Ronay
       查尔斯·雷尼尔 Charles Regnier
       韦朗第洛·维朗迪尼 Venantino Venantini
       保罗·梅塞 Paul Mercey
       Charles Lavialle
       让·勒费弗尔 Jean Lefebvre
       雅克·迪梅尼 Jacques Dumesnil
       多米妮克·达夫雷 Dominique Davray
       霍斯特·弗兰克 Horst Frank
       菲利普·卡斯泰利 Philippe Castelli
       保罗·默里斯 Paul Meurisse
       皮埃尔·贝尔坦 Pierre Bertin
       亨利科甘 Henri Cogan
       罗贝尔·达尔邦 Robert Dalban
       Sabine Sinjen
◎标  签 法国 | 笑剧 | 法国电影 | 黑色诙谐 | 黑帮 | 犯罪 | 1960s | 1963
◎简  介


  60年月的法国黑帮片,一点也不暴力,却是有点黑色诙谐。几个配角都是名演员,随意哪个都是演过上百部电影!在阿谁时代,黑帮的打架和火拼有点怪怪的。不是在路边匿伏就是到偏僻的屋子里去搞无声手枪的枪战。打架也成心机,就是拽过来,用拳头猛捶。底子不用刀子,也很少见血。不像现在这么血腥。
  
  情节是说一个前黑帮头子被顿时要咽气的黑帮老迈呼唤来。被指定为新的头目,接收黑帮的买卖还要负责照顾本来的老迈的女儿。那时辰的法国黑帮有点像意大利黑手党啊,新老迈还要负责照顾遗孀大概孤儿寡女。固然里,本来的几个干将都不服气。这类黑帮的接班都是会有麻烦的。
  
  这个电影吸引人之处就是把火拼的故事加上了笑剧。似乎里面的每小我都不太在意生死,却是很在意自己的体面和诙谐感。阿谁前老迈的女儿更是出格,美满是公主气派,住在标致的城堡里,光彩照人。而几近一切的老迈们都宠着她。这个饰演女儿的Claude现在还活跃在电影界,似乎还是什么评委。阿谁时辰真标致啊,站在楼梯上简简单单的一句话,一个眼神就能让人禁不住生出怜爱。
  1. Video
  2. ID                                       : 1
  3. ID in the original source medium         : 4113 (0x1011)
  4. Format                                   : HEVC
  5. Format/Info                              : High Efficiency Video Coding
  6. Format profile                           : Main [email protected]@High
  7. Codec ID                                 : V_MPEGH/ISO/HEVC
  8. Duration                                 : 1 h 51 min
  9. Bit rate                                 : 67.0 Mb/s
  10. Width                                    : 3 840 pixels
  11. Height                                   : 2 160 pixels
  12. Display aspect ratio                     : 16:9
  13. Frame rate mode                          : Constant
  14. Frame rate                               : 24.000 FPS
  15. Color space                              : YUV
  16. Chroma subsampling                       : 4:2:0
  17. Bit depth                                : 10 bits
  18. Bits/(Pixel*Frame)                       : 0.337
  19. Stream size                              : 52.1 GiB (93%)
  20. Writing library                          : ATEME Titan File 3.8.0 (4.8.0.0)        
  21. Language                                 : English
  22. Default                                  : No
  23. Forced                                   : No
  24. Color range                              : Limited
  25. Color primaries                          : BT.709
  26. Transfer characteristics                 : BT.709
  27. Matrix coefficients                      : BT.709
  28. Original source medium                   : Blu-ray
  29. Audio #1
  30. ID                                       : 2
  31. ID in the original source medium         : 4352 (0x1100)
  32. Format                                   : DTS XLL
  33. Format/Info                              : Digital Theater Systems
  34. Commercial name                          : DTS-HD Master Audio
  35. Codec ID                                 : A_DTS
  36. Duration                                 : 1 h 51 min
  37. Bit rate mode                            : Variable
  38. Bit rate                                 : 1 242 kb/s
  39. Channel(s)                               : 2 channels
  40. Channel layout                           : L R
  41. Sampling rate                            : 48.0 kHz
  42. Frame rate                               : 93.750 FPS (512 SPF)
  43. Bit depth                                : 24 bits
  44. Compression mode                         : Lossless
  45. Stream size                              : 990 MiB (2%)
  46. Title                                    : DTS-HD MA 2.0
  47. Language                                 : French
  48. Default                                  : Yes
  49. Forced                                   : No
  50. Original source medium                   : Blu-ray
  51. Audio #2
  52. ID                                       : 3
  53. Format                                   : AC-3
  54. Format/Info                              : Audio Coding 3
  55. Commercial name                          : Dolby Digital
  56. Codec ID                                 : A_AC3
  57. Duration                                 : 1 h 51 min
  58. Bit rate mode                            : Constant
  59. Bit rate                                 : 640 kb/s
  60. Channel(s)                               : 2 channels
  61. Channel layout                           : L R
  62. Sampling rate                            : 48.0 kHz
  63. Frame rate                               : 31.250 FPS (1536 SPF)
  64. Compression mode                         : Lossy
  65. Stream size                              : 510 MiB (1%)
  66. Title                                    : DD 2.0
  67. Language                                 : French
  68. Service kind                             : Complete Main
  69. Default                                  : No
  70. Forced                                   : No
  71. Audio #3
  72. ID                                       : 4
  73. ID in the original source medium         : 4353 (0x1101)
  74. Format                                   : DTS XLL
  75. Format/Info                              : Digital Theater Systems
  76. Commercial name                          : DTS-HD Master Audio
  77. Codec ID                                 : A_DTS
  78. Duration                                 : 1 h 51 min
  79. Bit rate mode                            : Variable
  80. Bit rate                                 : 1 423 kb/s
  81. Channel(s)                               : 2 channels
  82. Channel layout                           : L R
  83. Sampling rate                            : 48.0 kHz
  84. Frame rate                               : 93.750 FPS (512 SPF)
  85. Bit depth                                : 24 bits
  86. Compression mode                         : Lossless
  87. Stream size                              : 1.11 GiB (2%)
  88. Title                                    : DTS-HD MA 2.0
  89. Language                                 : French
  90. Default                                  : No
  91. Forced                                   : No
  92. Original source medium                   : Blu-ray
  93. Audio #4
  94. ID                                       : 5
  95. ID in the original source medium         : 4354 (0x1102)
  96. Format                                   : DTS XLL
  97. Format/Info                              : Digital Theater Systems
  98. Commercial name                          : DTS-HD Master Audio
  99. Codec ID                                 : A_DTS
  100. Duration                                 : 1 h 51 min
  101. Bit rate mode                            : Variable
  102. Bit rate                                 : 1 506 kb/s
  103. Channel(s)                               : 2 channels
  104. Channel layout                           : L R
  105. Sampling rate                            : 48.0 kHz
  106. Frame rate                               : 93.750 FPS (512 SPF)
  107. Bit depth                                : 24 bits
  108. Compression mode                         : Lossless
  109. Stream size                              : 1.17 GiB (2%)
  110. Title                                    : DTS-HD MA 2.0
  111. Language                                 : French
  112. Default                                  : No
  113. Forced                                   : No
  114. Original source medium                   : Blu-ray
  115. Text #1
  116. ID                                       : 6
  117. Format                                   : UTF-8
  118. Codec ID                                 : S_TEXT/UTF8
  119. Codec ID/Info                            : UTF-8 Plain Text
  120. Duration                                 : 1 h 50 min
  121. Bit rate                                 : 47 b/s
  122. Count of elements                        : 1287
  123. Stream size                              : 38.2 KiB (0%)
  124. Title                                    : English-SRT
  125. Language                                 : English
  126. Default                                  : Yes
  127. Forced                                   : Yes
  128. Text #2
  129. ID                                       : 7
  130. Format                                   : UTF-8
  131. Codec ID                                 : S_TEXT/UTF8
  132. Codec ID/Info                            : UTF-8 Plain Text
  133. Duration                                 : 1 h 50 min
  134. Bit rate                                 : 65 b/s
  135. Count of elements                        : 1806
  136. Stream size                              : 52.9 KiB (0%)
  137. Title                                    : French-SRT
  138. Language                                 : French
  139. Default                                  : No
  140. Forced                                   : No
  141. Text #3
  142. ID                                       : 8
  143. ID in the original source medium         : 4608 (0x1200)
  144. Format                                   : PGS
  145. Muxing mode                              : zlib
  146. Codec ID                                 : S_HDMV/PGS
  147. Codec ID/Info                            : Picture based subtitle format used on BDs/HD-DVDs
  148. Duration                                 : 1 h 50 min
  149. Bit rate                                 : 35.7 kb/s
  150. Count of elements                        : 3612
  151. Stream size                              : 28.2 MiB (0%)
  152. Title                                    : French-PGS
  153. Language                                 : French
  154. Default                                  : No
  155. Forced                                   : No
  156. Original source medium                   : Blu-ray
  157. Text #4
  158. ID                                       : 9
  159. ID in the original source medium         : 4609 (0x1201)
  160. Format                                   : PGS
  161. Muxing mode                              : zlib
  162. Codec ID                                 : S_HDMV/PGS
  163. Codec ID/Info                            : Picture based subtitle format used on BDs/HD-DVDs
  164. Duration                                 : 1 h 50 min
  165. Bit rate                                 : 27.2 kb/s
  166. Count of elements                        : 2576
  167. Stream size                              : 21.5 MiB (0%)
  168. Title                                    : English-PGS
  169. Language                                 : English
  170. Default                                  : No
  171. Forced                                   : No
  172. Original source medium                   : Blu-ray
  173. Menu
  174. 00:00:00.000                             : fr:Chapitre 01
  175. 00:07:49.750                             : fr:Chapitre 02
  176. 00:16:18.541                             : fr:Chapitre 03
  177. 00:25:05.416                             : fr:Chapitre 04
  178. 00:32:51.666                             : fr:Chapitre 05
  179. 00:41:46.541                             : fr:Chapitre 06
  180. 00:47:19.791                             : fr:Chapitre 07
  181. 00:58:33.916                             : fr:Chapitre 08
  182. 01:10:44.833                             : fr:Chapitre 09
  183. 01:17:54.208                             : fr:Chapitre 10
  184. 01:27:01.291                             : fr:Chapitre 11
  185. 01:40:52.666                             : fr:Chapitre 12
复制代码




                                       
                                       

                                       
                                       
                                       




回复

使用道具 举报

懒得打字嘛,点击右侧快捷回复 【右侧内容,后台自定义】
您需要登录后才可以回帖 登录 | 立即加入

本版积分规则

Archiver|小黑屋| 蓝光电影网 |网站地图

Copyright © 2021 Comsenz Inc. Powered by 蓝光电影网

蓝光电影网

本站内容由用户自主分享和转载自互联网,转载目的在于传递更多信息,并不代表本网赞同其观点和对其真实性负责。

如有侵权、违反国家法律政策行为,请联系我们,我们会第一时间及时清除和处理!

举报反馈邮箱:[email protected]

快速回复 返回顶部 返回列表