找回密码

蓝光电影网

查看: 56|回复: 0

[2160p] 迷魂记 Vertigo.1958.2160p.BluRay.x265.10bit.SDR.DTS-X.7.1-SWTYBLZ 36.05GB

[复制链接]
蓝光币
1084
发表于 2020-9-15 22:26:32 | 显示全部楼层 |阅读模式


◎译  名 迷魂记/Alfred Hitchcock's Vertigo/眩晕
◎片  名 Vertigo
◎年  代 1958
◎产  地 美国
◎类  别 恋爱 / 悬疑 / 惊悚
◎语  言 英语
◎上映日期 1958-05-09(美国)
◎IMDb评分  8.3/10 from 353727 users
◎IMDb链接  https://www.imdb.com/title/tt0052357/
◎豆瓣评分 8.6/10 from 78399 users
◎豆瓣链接 https://movie.douban.com/subject/1297294/
◎片  长 128 分钟
◎导  演 阿尔弗雷德·希区柯克 Alfred Hitchcock
◎编  剧 亚历克·科佩尔 Alec Coppel / 萨缪尔·A·泰勒 Samuel A. Taylor / 皮埃尔·布瓦洛 Pierre Boileau / 托马·纳西雅克 Thomas Narcejac / 马克斯韦尔·安德森 Maxwell Anderson
◎主  演 詹姆斯·斯图尔特 James Stewart
       金·诺瓦克 Kim Novak
       芭芭拉·贝尔·戈迪斯 Barbara Bel Geddes
       汤姆·赫尔莫 Tom Helmore
       亨瑞·琼斯 Henry Jones
       雷蒙德贝利 Raymond Bailey
       埃伦·科比 Ellen Corby
       康斯坦丁肖恩 Konstantin Shayne
       李·帕特里克 Lee Patrick
       丹尼·鲍沙其 Danny Borzage
       保罗·布亚尔 Paul Bryar
       贝丝·弗劳尔斯 Bess Flowers
       弗莱德·格兰姆 Fred Graham
       阿尔弗雷德·希区柯克 Alfred Hitchcock
       Nina Shipman
       Steve Conte
       杰弗里·塞尔 Jeffrey Sayre
       John Benson
       Buck Harrington
       James W. Horan
       Art Howard
       June Jocelyn
       Perk Lazelle
       Lyle Moraine
       Forbes Murray
       Julian Petruzzi
       Ezelle Poule
       Sara Taft
       Joe Garcio
       Molly Dodd
       Isabel Analla
       Margaret Brayton
       Boyd Cabeen
       Jean Corbett
◎标  签 希区柯克 | 悬疑 | 美国 | 惊悚 | 典范 | AlfredHitchcock | 1958 | 美国电影
◎简  介


  退役警探约翰·弗格森(詹姆斯·斯图尔特 James Stewart 饰)的同学加文·埃尔斯特(汤姆·赫尔莫 Tom Helmore 饰)是造船商。他请求约翰跟踪自己的妻子,并称妻子经常被鬼魂附身。随后,约翰依照加文的指示,在厄尼餐厅见到了一位美丽的女人(金姆·诺瓦克 Kim Novak 饰)。经过跟踪,约翰发现女人确有分歧平常的行为:开车出门,去花店买花,去墓园在卡洛塔·巴尔德斯的碑前立足,去荣勋宫博物馆注视卡洛塔画像,最落后入麦基屈克旅店并出现在二楼的一扇窗前。约翰随即进入旅店观察,发现女人挂号名为卡洛塔·巴尔德斯,但其房中无人。卡洛塔·巴尔德斯究竟是何方崇高,鬼魂真的能附身活人吗?
◎获奖情况
  第31届奥斯卡金像奖 ?(1959)
  最好声响(提名) GeorgeDutton
  最好艺术指导和布景(提名) 萨姆·库默?/?FrankR.McKelvy?/?亨利·巴姆斯泰德?/?哈尔·佩雷拉
  1. Video
  2. ID                                       : 1
  3. Format                                   : HEVC
  4. Format/Info                              : High Efficiency Video Coding
  5. Format profile                           : Main [email protected]@High
  6. Codec ID                                 : V_MPEGH/ISO/HEVC
  7. Duration                                 : 2 h 8 min
  8. Bit rate                                 : 35.8 Mb/s
  9. Width                                    : 3 840 pixels
  10. Height                                   : 2 076 pixels
  11. Display aspect ratio                     : 1.85:1
  12. Frame rate mode                          : Constant
  13. Frame rate                               : 23.976 (24000/1001/189150) FPS
  14. Color space                              : YUV
  15. Chroma subsampling                       : 4:2:0
  16. Bit depth                                : 10 bits
  17. Bits/(Pixel*Frame)                       : 0.187
  18. Stream size                              : 32.2 GiB (90%)
  19. Title                                    : Vertigo.1958.2160p.BluRay.x265.10bit.SDR.DTS-X.7.1-SWTYBLZ
  20. Writing library                          : x265 3.0ed72af837053:[Windows][GCC 8.2.0][64 bit] 10bit
  21. Encoding settings                        : cpuid=1111039 / frame-threads=6 / numa-pools=40 / wpp / no-pmode / no-pme / no-psnr / no-ssim / log-level=2 / input-csp=1 / input-res=3840x2076 / interlace=0 / total-frames=184800 / level-idc=51 / high-tier=1 / uhd-bd=0 / ref=3 / no-allow-non-conformance / repeat-headers / annexb / aud / hrd / info / hash=0 / no-temporal-layers / no-open-gop / min-keyint=1 / keyint=24 / gop-lookahead=0 / bframes=4 / b-adapt=2 / b-pyramid / bframe-bias=0 / rc-lookahead=25 / lookahead-slices=4 / scenecut=40 / radl=0 / no-splice / no-intra-refresh / ctu=64 / min-cu-size=8 / no-rect / no-amp / max-tu-size=32 / tu-inter-depth=1 / tu-intra-depth=1 / limit-tu=0 / rdoq-level=0 / dynamic-rd=0.00 / no-ssim-rd / signhide / no-tskip / nr-intra=0 / nr-inter=0 / no-constrained-intra / strong-intra-smoothing / max-merge=2 / limit-refs=3 / no-limit-modes / me=1 / subme=2 / merange=57 / temporal-mvp / weightp / no-weightb / no-analyze-src-pics / deblock=0:0 / no-sao / no-sao-non-deblock / rd=3 / no-early-skip / rskip / no-fast-intra / no-tskip-fast / no-cu-lossless / no-b-intra / no-splitrd-skip / rdpenalty=0 / psy-rd=2.00 / psy-rdoq=0.00 / no-rd-refine / no-lossless / cbqpoffs=0 / crqpoffs=0 / rc=crf / crf=16.0 / qcomp=0.60 / qpstep=4 / stats-write=0 / stats-read=0 / vbv-maxrate=160000 / vbv-bufsize=160000 / vbv-init=0.9 / crf-max=0.0 / crf-min=0.0 / ipratio=1.40 / pbratio=1.30 / aq-mode=1 / aq-strength=1.00 / cutree / zone-count=0 / no-strict-cbr / qg-size=32 / no-rc-grain / qpmax=69 / qpmin=0 / no-const-vbv / sar=1 / overscan=0 / videoformat=5 / range=0 / colorprim=2 / transfer=2 / colormatrix=2 / chromaloc=0 / display-window=0 / max-cll=0,0 / min-luma=0 / max-luma=1023 / log2-max-poc-lsb=8 / vui-timing-info / vui-hrd-info / slices=1 / opt-qp-pps / opt-ref-list-length-pps / no-multi-pass-opt-rps / scenecut-bias=0.05 / no-opt-cu-delta-qp / no-aq-motion / no-hdr / no-hdr-opt / no-dhdr10-opt / no-idr-recovery-sei / analysis-reuse-level=5 / scale-factor=0 / refine-intra=0 / refine-inter=0 / refine-mv=0 / refine-ctu-distortion=0 / no-limit-sao / ctu-info=0 / no-lowpass-dct / refine-analysis-type=0 / copy-pic=1 / max-ausize-factor=1.0 / no-dynamic-refine / no-single-sei / no-hevc-aq / qp-adaptation-range=1.00
  22. Language                                 : English
  23. Default                                  : Yes
  24. Forced                                   : No

  25. Audio #1
  26. ID                                       : 2
  27. ID in the original source medium         : 4352 (0x1100)
  28. Format                                   : DTS XLL X
  29. Format/Info                              : Digital Theater Systems
  30. Commercial name                          : DTS-HD Master Audio
  31. Codec ID                                 : A_DTS
  32. Duration                                 : 2 h 8 min
  33. Bit rate mode                            : Variable
  34. Bit rate                                 : 3 188 kb/s
  35. Channel(s)                               : 8 channels
  36. Channel(s)_Original                      : Object Based
  37. ChannelLayout_Original                   : Object Based
  38. Sampling rate                            : 48.0 kHz
  39. Frame rate                               : 93.750 FPS (512 SPF)
  40. Bit depth                                : 24 bits
  41. Stream size                              : 2.86 GiB (8%)
  42. Title                                    : Vertigo.1958.2160p.BluRay.x265.10bit.SDR.DTS-X.7.1-SWTYBLZ
  43. Language                                 : English
  44. Default                                  : Yes
  45. Forced                                   : No
  46. Original source medium                   : Blu-ray

  47. Audio #2
  48. ID                                       : 3
  49. Format                                   : AC-3
  50. Format/Info                              : Audio Coding 3
  51. Commercial name                          : Dolby Digital
  52. Codec ID                                 : A_AC3
  53. Duration                                 : 2 h 8 min
  54. Bit rate mode                            : Constant
  55. Bit rate                                 : 640 kb/s
  56. Channel(s)                               : 6 channels
  57. Channel layout                           : L R C LFE Ls Rs
  58. Sampling rate                            : 48.0 kHz
  59. Frame rate                               : 31.250 FPS (1536 SPF)
  60. Compression mode                         : Lossy
  61. Stream size                              : 588 MiB (2%)
  62. Title                                    : Vertigo.1958.2160p.BluRay.x265.10bit.SDR.DTS-X.7.1-SWTYBLZ
  63. Language                                 : English
  64. Service kind                             : Complete Main
  65. Default                                  : No
  66. Forced                                   : No

  67. Text #1
  68. ID                                       : 4
  69. Format                                   : UTF-8
  70. Codec ID                                 : S_TEXT/UTF8
  71. Codec ID/Info                            : UTF-8 Plain Text
  72. Duration                                 : 2 h 3 min
  73. Bit rate                                 : 50 b/s
  74. Count of elements                        : 1288
  75. Stream size                              : 45.3 KiB (0%)
  76. Title                                    : English-SRT
  77. Language                                 : English
  78. Default                                  : Yes
  79. Forced                                   : No

  80. Text #2
  81. ID                                       : 5
  82. ID in the original source medium         : 4768 (0x12A0)
  83. Format                                   : PGS
  84. Muxing mode                              : zlib
  85. Codec ID                                 : S_HDMV/PGS
  86. Codec ID/Info                            : Picture based subtitle format used on BDs/HD-DVDs
  87. Duration                                 : 2 h 4 min
  88. Bit rate                                 : 33.8 kb/s
  89. Count of elements                        : 2687
  90. Stream size                              : 30.0 MiB (0%)
  91. Title                                    : English-PGS
  92. Language                                 : English
  93. Default                                  : No
  94. Forced                                   : No
  95. Original source medium                   : Blu-ray

  96. Text #3
  97. ID                                       : 6
  98. ID in the original source medium         : 4769 (0x12A1)
  99. Format                                   : PGS
  100. Muxing mode                              : zlib
  101. Codec ID                                 : S_HDMV/PGS
  102. Codec ID/Info                            : Picture based subtitle format used on BDs/HD-DVDs
  103. Duration                                 : 2 h 3 min
  104. Bit rate                                 : 33.1 kb/s
  105. Count of elements                        : 2586
  106. Stream size                              : 29.3 MiB (0%)
  107. Title                                    : German-PGS
  108. Language                                 : German
  109. Default                                  : No
  110. Forced                                   : No
  111. Original source medium                   : Blu-ray

  112. Text #4
  113. ID                                       : 7
  114. ID in the original source medium         : 4770 (0x12A2)
  115. Format                                   : PGS
  116. Muxing mode                              : zlib
  117. Codec ID                                 : S_HDMV/PGS
  118. Codec ID/Info                            : Picture based subtitle format used on BDs/HD-DVDs
  119. Duration                                 : 2 h 3 min
  120. Bit rate                                 : 28.4 kb/s
  121. Count of elements                        : 2586
  122. Stream size                              : 25.2 MiB (0%)
  123. Title                                    : Italian-PGS
  124. Language                                 : Italian
  125. Default                                  : No
  126. Forced                                   : No
  127. Original source medium                   : Blu-ray

  128. Text #5
  129. ID                                       : 8
  130. ID in the original source medium         : 4771 (0x12A3)
  131. Format                                   : PGS
  132. Muxing mode                              : zlib
  133. Codec ID                                 : S_HDMV/PGS
  134. Codec ID/Info                            : Picture based subtitle format used on BDs/HD-DVDs
  135. Duration                                 : 2 h 3 min
  136. Bit rate                                 : 29.1 kb/s
  137. Count of elements                        : 2584
  138. Stream size                              : 25.8 MiB (0%)
  139. Title                                    : Spanish-PGS
  140. Language                                 : Spanish
  141. Default                                  : No
  142. Forced                                   : No
  143. Original source medium                   : Blu-ray

  144. Menu
  145. 00:00:00.000                             : en:Chapter 01
  146. 00:03:24.996                             : en:Chapter 02
  147. 00:05:00.717                             : en:Chapter 03
  148. 00:11:19.970                             : en:Chapter 04
  149. 00:16:52.970                             : en:Chapter 05
  150. 00:22:13.957                             : en:Chapter 06
  151. 00:25:42.707                             : en:Chapter 07
  152. 00:27:45.955                             : en:Chapter 08
  153. 00:33:52.572                             : en:Chapter 09
  154. 00:38:19.255                             : en:Chapter 10
  155. 00:40:18.124                             : en:Chapter 11
  156. 00:42:56.574                             : en:Chapter 12
  157. 00:43:56.091                             : en:Chapter 13
  158. 00:53:08.101                             : en:Chapter 14
  159. 00:58:23.500                             : en:Chapter 15
  160. 01:02:04.971                             : en:Chapter 16
  161. 01:05:31.260                             : en:Chapter 17
  162. 01:08:35.945                             : en:Chapter 18
  163. 01:12:31.096                             : en:Chapter 19
  164. 01:16:00.222                             : en:Chapter 20
  165. 01:18:17.150                             : en:Chapter 21
  166. 01:23:47.689                             : en:Chapter 22
  167. 01:25:26.371                             : en:Chapter 23
  168. 01:29:02.879                             : en:Chapter 24
  169. 01:31:39.619                             : en:Chapter 25
  170. 01:38:07.172                             : en:Chapter 26
  171. 01:42:22.427                             : en:Chapter 27
  172. 01:45:29.072                             : en:Chapter 28
  173. 01:49:14.965                             : en:Chapter 29
  174. 01:52:06.553                             : en:Chapter 30
  175. 01:57:30.168                             : en:Chapter 31
  176. 01:59:29.162                             : en:Chapter 32
  177. 02:02:06.027                             : en:Chapter 33
  178. 02:05:58.092                             : en:Chapter 34
复制代码



                                       
                                       

                                       
                                       
                                       




回复

使用道具 举报

懒得打字嘛,点击右侧快捷回复 【右侧内容,后台自定义】
您需要登录后才可以回帖 登录 | 立即加入

本版积分规则

Archiver|小黑屋| 蓝光电影网 |网站地图

Copyright © 2021 Comsenz Inc. Powered by 蓝光电影网

蓝光电影网

本站内容由用户自主分享和转载自互联网,转载目的在于传递更多信息,并不代表本网赞同其观点和对其真实性负责。

如有侵权、违反国家法律政策行为,请联系我们,我们会第一时间及时清除和处理!

举报反馈邮箱:[email protected]

快速回复 返回顶部 返回列表