找回密码

蓝光电影网

查看: 108|回复: 0

[UHD.HEVC] 群尸屠城2 Demons.2.1986.2160p.BluRay.REMUX.HEVC.DTS-HD.MA.5.1-FGT 57.11GB

[复制链接]
蓝光币
1082
发表于 2021-2-25 22:39:01 | 显示全部楼层 |阅读模式


◎译  名 群尸屠城2/Demons 2/猛鬼翻生
◎片  名 Dèmoni 2... l'incubo ritorna
◎年  代 1986
◎产  地 意大利
◎类  别 可骇
◎语  言 英语
◎上映日期 1986-10-09
◎IMDb评分  6/10 from 8985 users
◎IMDb链接  https://www.imdb.com/title/tt0090930/
◎豆瓣评分 6.8/10 from 897 users
◎豆瓣链接 https://movie.douban.com/subject/1297076/
◎片  长 91 分钟
◎导  演 兰帕德·帕瓦 Lamberto Bava
◎编  剧 达里奥·阿基多 Dario Argento / 兰帕德·帕瓦 Lamberto Bava / 达尔达诺·萨凯蒂 Dardano Sacchetti / 弗兰科·费里尼 Franco Ferrini
◎主  演 艾莎·阿基多 Asia Argento
       Bobby Rhodes
       Coralina Cataldi-Tassoni
       Marco Vivio
       弗吉尼亚·布莱恩特 Virginia Bryant
       卢奇亚诺·帕瓦罗蒂 Luciano Pavarotti
       Pascal Persiano
       兰帕德·帕瓦 Lamberto Bava
       伊丽亚娜·米格里欧 Eliana Miglio
       南茜·布尼里 Nancy Brilli
       Dario Casalini
       Antonio Cantafora
       Lorenzo Flaherty
       Michele Mirabella
       Anita Bartolucci
◎标  签 可骇 | 意大利 | 丧尸 | 僵尸 | 惊悚 | 意大利电影 | 可骇电影 | 1986
◎简  介


  一支电视台的摄制组正在观察拍摄一个传闻中的可骇禁地,在那边,他们发现一具恶魔的尸身。无意间,他们将恶魔新生,噩梦来临人世。
  
  该记载片经过电视播出,当一个女子正在旁观时,忽然片中的恶魔从电视机里爬出,随后展开血腥杀戮。被它进犯过的人未几也酿成可骇丧尸,四周寻觅新的猎物。这个女子地点的大厦被某种怪异的气力封锁,一般的人类不竭削减,丧尸数目则延续增加。是生是死?幸存者面临疾苦的决定。为了活命,他们只要尽力拚杀……
  1. Video
  2. ID                                       : 1
  3. ID in the original source medium         : 4113 (0x1011)
  4. Format                                   : HEVC
  5. Format/Info                              : High Efficiency Video Coding
  6. Format profile                           : Main [email protected]@High
  7. HDR format                               : SMPTE ST 2086, HDR10 compatible
  8. Codec ID                                 : V_MPEGH/ISO/HEVC
  9. Duration                                 : 1 h 31 min
  10. Bit rate                                 : 78.0 Mb/s
  11. Width                                    : 3 840 pixels
  12. Height                                   : 2 160 pixels
  13. Display aspect ratio                     : 16:9
  14. Frame rate mode                          : Constant
  15. Frame rate                               : 24.000 FPS
  16. Color space                              : YUV
  17. Chroma subsampling                       : 4:2:0 (Type 2)
  18. Bit depth                                : 10 bits
  19. Bits/(Pixel*Frame)                       : 0.392
  20. Stream size                              : 49.6 GiB (87%)
  21. Language                                 : English
  22. Default                                  : No
  23. Forced                                   : No
  24. Color range                              : Limited
  25. Color primaries                          : BT.2020
  26. Transfer characteristics                 : PQ
  27. Matrix coefficients                      : BT.2020 non-constant
  28. Mastering display color primaries        : BT.2020
  29. Mastering display luminance              : min: 0.0001 cd/m2, max: 1000 cd/m2
  30. Original source medium                   : Blu-ray
  31. Audio #1
  32. ID                                       : 2
  33. ID in the original source medium         : 4352 (0x1100)
  34. Format                                   : DTS XLL
  35. Format/Info                              : Digital Theater Systems
  36. Commercial name                          : DTS-HD Master Audio
  37. Codec ID                                 : A_DTS
  38. Duration                                 : 1 h 31 min
  39. Bit rate mode                            : Variable
  40. Bit rate                                 : 3 473 kb/s
  41. Channel(s)                               : 6 channels
  42. Channel layout                           : C L R Ls Rs LFE
  43. Sampling rate                            : 48.0 kHz
  44. Frame rate                               : 93.750 FPS (512 SPF)
  45. Bit depth                                : 24 bits
  46. Compression mode                         : Lossless
  47. Stream size                              : 2.21 GiB (4%)
  48. Title                                    : DTS-HD MA 5.1
  49. Language                                 : English
  50. Default                                  : Yes
  51. Forced                                   : No
  52. Original source medium                   : Blu-ray
  53. Audio #2
  54. ID                                       : 3
  55. Format                                   : AC-3
  56. Format/Info                              : Audio Coding 3
  57. Commercial name                          : Dolby Digital
  58. Codec ID                                 : A_AC3
  59. Duration                                 : 1 h 31 min
  60. Bit rate mode                            : Constant
  61. Bit rate                                 : 640 kb/s
  62. Channel(s)                               : 6 channels
  63. Channel layout                           : L R C LFE Ls Rs
  64. Sampling rate                            : 48.0 kHz
  65. Frame rate                               : 31.250 FPS (1536 SPF)
  66. Compression mode                         : Lossy
  67. Stream size                              : 417 MiB (1%)
  68. Title                                    : DD 5.1
  69. Language                                 : English
  70. Service kind                             : Complete Main
  71. Default                                  : No
  72. Forced                                   : No
  73. Audio #3
  74. ID                                       : 4
  75. ID in the original source medium         : 4353 (0x1101)
  76. Format                                   : DTS XLL
  77. Format/Info                              : Digital Theater Systems
  78. Commercial name                          : DTS-HD Master Audio
  79. Codec ID                                 : A_DTS
  80. Duration                                 : 1 h 31 min
  81. Bit rate mode                            : Variable
  82. Bit rate                                 : 1 448 kb/s
  83. Channel(s)                               : 2 channels
  84. Channel layout                           : L R
  85. Sampling rate                            : 48.0 kHz
  86. Frame rate                               : 93.750 FPS (512 SPF)
  87. Bit depth                                : 24 bits
  88. Compression mode                         : Lossless
  89. Stream size                              : 943 MiB (2%)
  90. Title                                    : DTS-HD MA 2.0
  91. Language                                 : English
  92. Default                                  : No
  93. Forced                                   : No
  94. Original source medium                   : Blu-ray
  95. Audio #4
  96. ID                                       : 5
  97. ID in the original source medium         : 4354 (0x1102)
  98. Format                                   : DTS XLL
  99. Format/Info                              : Digital Theater Systems
  100. Commercial name                          : DTS-HD Master Audio
  101. Codec ID                                 : A_DTS
  102. Duration                                 : 1 h 30 min
  103. Bit rate mode                            : Variable
  104. Bit rate                                 : 3 612 kb/s
  105. Channel(s)                               : 6 channels
  106. Channel layout                           : C L R Ls Rs LFE
  107. Sampling rate                            : 48.0 kHz
  108. Frame rate                               : 93.750 FPS (512 SPF)
  109. Bit depth                                : 24 bits
  110. Compression mode                         : Lossless
  111. Stream size                              : 2.30 GiB (4%)
  112. Title                                    : DTS-HD MA 5.1
  113. Language                                 : Italian
  114. Default                                  : No
  115. Forced                                   : No
  116. Original source medium                   : Blu-ray
  117. Audio #5
  118. ID                                       : 6
  119. Format                                   : AC-3
  120. Format/Info                              : Audio Coding 3
  121. Commercial name                          : Dolby Digital
  122. Codec ID                                 : A_AC3
  123. Duration                                 : 1 h 30 min
  124. Bit rate mode                            : Constant
  125. Bit rate                                 : 640 kb/s
  126. Channel(s)                               : 6 channels
  127. Channel layout                           : L R C LFE Ls Rs
  128. Sampling rate                            : 48.0 kHz
  129. Frame rate                               : 31.250 FPS (1536 SPF)
  130. Compression mode                         : Lossy
  131. Stream size                              : 417 MiB (1%)
  132. Title                                    : DD 5.1
  133. Language                                 : Italian
  134. Service kind                             : Complete Main
  135. Default                                  : No
  136. Forced                                   : No
  137. Audio #6
  138. ID                                       : 7
  139. ID in the original source medium         : 4355 (0x1103)
  140. Format                                   : DTS XLL
  141. Format/Info                              : Digital Theater Systems
  142. Commercial name                          : DTS-HD Master Audio
  143. Codec ID                                 : A_DTS
  144. Duration                                 : 1 h 30 min
  145. Bit rate mode                            : Variable
  146. Bit rate                                 : 1 641 kb/s
  147. Channel(s)                               : 2 channels
  148. Channel layout                           : L R
  149. Sampling rate                            : 48.0 kHz
  150. Frame rate                               : 93.750 FPS (512 SPF)
  151. Bit depth                                : 24 bits
  152. Compression mode                         : Lossless
  153. Stream size                              : 1.04 GiB (2%)
  154. Title                                    : DTS-HD MA 2.0
  155. Language                                 : Italian
  156. Default                                  : No
  157. Forced                                   : No
  158. Original source medium                   : Blu-ray
  159. Audio #7
  160. ID                                       : 8
  161. ID in the original source medium         : 4356 (0x1104)
  162. Format                                   : AC-3
  163. Format/Info                              : Audio Coding 3
  164. Commercial name                          : Dolby Digital
  165. Codec ID                                 : A_AC3
  166. Duration                                 : 1 h 31 min
  167. Bit rate mode                            : Constant
  168. Bit rate                                 : 192 kb/s
  169. Channel(s)                               : 2 channels
  170. Channel layout                           : L R
  171. Sampling rate                            : 48.0 kHz
  172. Frame rate                               : 31.250 FPS (1536 SPF)
  173. Compression mode                         : Lossy
  174. Stream size                              : 125 MiB (0%)
  175. Title                                    : DD 2.0
  176. Language                                 : English
  177. Service kind                             : Complete Main
  178. Default                                  : No
  179. Forced                                   : No
  180. Original source medium                   : Blu-ray
  181. Audio #8
  182. ID                                       : 9
  183. ID in the original source medium         : 4357 (0x1105)
  184. Format                                   : AC-3
  185. Format/Info                              : Audio Coding 3
  186. Commercial name                          : Dolby Digital
  187. Codec ID                                 : A_AC3
  188. Duration                                 : 1 h 31 min
  189. Bit rate mode                            : Constant
  190. Bit rate                                 : 192 kb/s
  191. Channel(s)                               : 2 channels
  192. Channel layout                           : L R
  193. Sampling rate                            : 48.0 kHz
  194. Frame rate                               : 31.250 FPS (1536 SPF)
  195. Compression mode                         : Lossy
  196. Stream size                              : 125 MiB (0%)
  197. Title                                    : DD 2.0
  198. Language                                 : English
  199. Service kind                             : Complete Main
  200. Default                                  : No
  201. Forced                                   : No
  202. Original source medium                   : Blu-ray
  203. Text #1
  204. ID                                       : 10
  205. Format                                   : UTF-8
  206. Codec ID                                 : S_TEXT/UTF8
  207. Codec ID/Info                            : UTF-8 Plain Text
  208. Duration                                 : 1 h 29 min
  209. Bit rate                                 : 26 b/s
  210. Count of elements                        : 602
  211. Stream size                              : 17.3 KiB (0%)
  212. Title                                    : English-SRT
  213. Language                                 : English
  214. Default                                  : Yes
  215. Forced                                   : No
  216. Text #2
  217. ID                                       : 11
  218. ID in the original source medium         : 4768 (0x12A0)
  219. Format                                   : PGS
  220. Muxing mode                              : zlib
  221. Codec ID                                 : S_HDMV/PGS
  222. Codec ID/Info                            : Picture based subtitle format used on BDs/HD-DVDs
  223. Duration                                 : 1 h 29 min
  224. Bit rate                                 : 22.9 kb/s
  225. Count of elements                        : 1704
  226. Stream size                              : 14.7 MiB (0%)
  227. Title                                    : English-PGS
  228. Language                                 : English
  229. Default                                  : No
  230. Forced                                   : No
  231. Original source medium                   : Blu-ray
  232. Menu
  233. 00:00:00.000                             : en:Chapter 01
  234. 00:06:05.541                             : en:Chapter 02
  235. 00:15:44.916                             : en:Chapter 03
  236. 00:22:58.541                             : en:Chapter 04
  237. 00:28:07.666                             : en:Chapter 05
  238. 00:36:14.916                             : en:Chapter 06
  239. 00:45:38.541                             : en:Chapter 07
  240. 00:52:26.125                             : en:Chapter 08
  241. 00:59:44.041                             : en:Chapter 09
  242. 01:06:04.416                             : en:Chapter 10
  243. 01:11:39.958                             : en:Chapter 11
  244. 01:20:00.333                             : en:Chapter 12
复制代码



                                       
                                       

                                       
                                       
                                       




回复

使用道具 举报

懒得打字嘛,点击右侧快捷回复 【右侧内容,后台自定义】
您需要登录后才可以回帖 登录 | 立即加入

本版积分规则

Archiver|小黑屋| 蓝光电影网 |网站地图

Copyright © 2021 Comsenz Inc. Powered by 蓝光电影网

蓝光电影网

本站内容由用户自主分享和转载自互联网,转载目的在于传递更多信息,并不代表本网赞同其观点和对其真实性负责。

如有侵权、违反国家法律政策行为,请联系我们,我们会第一时间及时清除和处理!

举报反馈邮箱:[email protected]

快速回复 返回顶部 返回列表